osu file format v14

[General]
AudioFilename: audio.mp3
AudioLeadIn: 0
PreviewTime: 18054
Countdown: 0
SampleSet: None
StackLeniency: 0.7
Mode: 2
LetterboxInBreaks: 0
WidescreenStoryboard: 1

[Editor]
DistanceSpacing: 1
BeatDivisor: 4
GridSize: 32
TimelineZoom: 1

[Metadata]
Title:Lesson by DJ
TitleUnicode:Lesson by DJ
Artist:U.T.D. & Friends
ArtistUnicode:U.T.D. & Friends
Creator:Ascendance
Version:Basic
Source:DanceDanceRevolution HOTTEST PARTY
Tags:jeiryagtama DDRA Ace tatsh u1 asami scott dalph feel the rhythm with your soul
BeatmapID:2064862
BeatmapSetID:987101

[Difficulty]
HPDrainRate:4
CircleSize:3
OverallDifficulty:7
ApproachRate:7
SliderMultiplier:1.7
SliderTickRate:1

[Events]
//Background and Video events
0,0,"plain-white-background.jpg",0,0
//Break Periods
2,38378,57279
2,93379,103279
//Storyboard Layer 0 (Background)
//Storyboard Layer 1 (Fail)
//Storyboard Layer 2 (Pass)
//Storyboard Layer 3 (Foreground)
//Storyboard Sound Samples

[TimingPoints]
179,500,4,3,1,60,1,0
134179,-100,4,3,1,5,0,0

[Colours]
Combo1 : 192,192,192
Combo2 : 0,0,255
Combo3 : 128,0,255

[HitObjects]
164,292,3929,5,0,0:0:0:0:
371,341,4179,2,0,L|375:248,1,85,2|0,0:0|0:0,0:0:0:0:
279,205,4679,2,0,L|100:177,2,170,8|2|8,0:0|0:0|0:0,0:0:0:0:
372,165,5929,1,0,0:0:0:0:
271,230,6179,6,0,L|268:113,1,85,2|0,0:0|0:0,0:0:0:0:
384,101,6679,1,8,0:0:0:0:
257,98,6929,2,0,L|182:90,1,42.5,0|0,0:0|0:0,0:0:0:0:
105,78,7179,1,2,0:0:0:0:
209,224,7429,2,0,L|213:122,1,85,2|8,0:0|0:0,0:0:0:0:
21,318,8179,6,0,L|226:285,1,170,2|8,0:0|0:0,0:0:0:0:
354,357,9179,2,0,L|352:178,1,170,2|8,0:0|0:0,0:0:0:0:
207,162,10179,6,0,L|207:62,1,85,2|0,0:0|0:0,0:0:0:0:
70,233,10679,2,0,L|193:233,1,85,8|0,0:0|0:0,0:0:0:0:
273,271,11179,2,0,L|374:271,1,85,2|0,0:0|0:0,0:0:0:0:
429,176,11679,2,0,L|333:176,1,85,8|0,0:0|0:0,0:0:0:0:
190,195,12179,6,0,L|360:178,1,170,2|8,0:0|0:0,0:0:0:0:
248,70,12929,1,0,0:0:0:0:
133,134,13179,2,0,L|113:237,1,85,2|0,0:0|0:0,0:0:0:0:
239,256,13679,2,0,L|254:359,1,85,8|0,0:0|0:0,0:0:0:0:
111,216,14179,6,0,L|311:192,1,170,2|8,0:0|0:0,0:0:0:0:
465,352,15179,2,0,L|470:242,1,85,2|0,0:0|0:0,0:0:0:0:
348,232,15679,2,0,L|354:139,1,85,8|0,0:0|0:0,0:0:0:0:
209,75,16179,5,2,0:0:0:0:
427,47,16679,1,8,0:0:0:0:
235,331,17179,2,0,L|236:156,1,170,2|2,0:0|0:0,0:0:0:0:
113,201,18179,5,2,0:0:0:0:
113,201,18679,1,2,0:0:0:0:
337,277,19179,2,0,L|161:278,1,170,2|8,0:0|0:0,0:0:0:0:
58,271,19929,1,2,0:0:0:0:
298,352,20179,6,0,L|480:353,1,170,6|2,0:0|0:0,0:0:0:0:
270,241,21179,2,0,L|459:241,1,170,2|2,0:0|0:0,0:0:0:0:
200,351,22179,6,0,L|18:352,1,170,2|2,0:0|0:0,0:0:0:0:
224,243,23179,2,0,L|35:243,1,170,0|0,0:0|0:0,0:0:0:0:
276,221,24179,6,0,L|290:129,1,85,2|0,0:0|0:0,0:0:0:0:
404,138,24679,2,0,L|426:50,1,85,8|0,0:0|0:0,0:0:0:0:
180,266,25179,2,0,L|194:174,1,85,2|0,0:0|0:0,0:0:0:0:
308,183,25679,2,0,L|330:95,1,85,8|0,0:0|0:0,0:0:0:0:
174,259,26179,6,0,L|160:167,1,85,2|0,0:0|0:0,0:0:0:0:
46,176,26679,2,0,L|24:88,1,85,8|0,0:0|0:0,0:0:0:0:
259,303,27179,2,0,L|245:211,1,85,2|0,0:0|0:0,0:0:0:0:
131,220,27679,2,0,L|109:132,1,85,8|0,0:0|0:0,0:0:0:0:
235,103,28179,6,0,L|244:18,1,85,2|0,0:0|0:0,0:0:0:0:
346,150,28679,2,0,L|359:57,1,85,8|0,0:0|0:0,0:0:0:0:
460,217,29179,2,0,L|474:121,1,85,2|0,0:0|0:0,0:0:0:0:
228,236,30179,6,0,L|237:151,1,85,2|0,0:0|0:0,0:0:0:0:
339,283,30679,2,0,L|352:190,1,85,8|0,0:0|0:0,0:0:0:0:
453,350,31179,2,0,L|467:254,1,85,2|0,0:0|0:0,0:0:0:0:
191,343,32179,5,2,0:0:0:0:
307,308,32429,2,0,L|312:200,1,85,0|8,0:0|0:0,0:0:0:0:
191,167,32929,1,0,0:0:0:0:
326,134,33179,2,0,L|418:134,1,85,2|0,0:0|0:0,0:0:0:0:
293,40,33679,2,0,L|382:41,1,85,8|0,0:0|0:0,0:0:0:0:
170,1,34179,6,0,P|73:12|26:174,1,255,2|0,0:0|0:0,0:0:0:0:
121,215,35179,2,0,L|211:197,1,85,2|2,0:0|0:0,0:0:0:0:
100,335,35679,2,0,L|99:247,1,85,8|0,0:0|0:0,0:0:0:0:
342,140,36179,6,0,B|334:68|280:5|186:-14|117:-17|16:-2|-19:46|-34:163|79:348,1,680,6|0,0:0|0:0,0:0:0:0:
442,318,58179,6,0,L|443:136,1,170,2|2,0:0|0:0,0:0:0:0:
308,104,58929,1,0,0:0:0:0:
186,74,59179,2,0,L|13:76,1,170,2|8,0:0|0:0,0:0:0:0:
92,182,59929,1,0,0:0:0:0:
347,173,60179,6,0,B|400:202|400:202|516:182,1,170,6|2,0:0|0:0,0:0:0:0:
314,286,61179,2,0,B|367:315|367:315|483:295,1,170,2|2,0:0|0:0,0:0:0:0:
266,144,62179,6,0,B|213:173|213:173|97:153,1,170,2|2,0:0|0:0,0:0:0:0:
299,257,63179,2,0,B|246:286|246:286|130:266,1,170,2|2,0:0|0:0,0:0:0:0:
476,334,64179,5,2,0:0:0:0:
247,274,64679,1,8,0:0:0:0:
476,334,65179,1,2,0:0:0:0:
247,274,65679,1,8,0:0:0:0:
36,334,66179,5,2,0:0:0:0:
265,274,66679,1,8,0:0:0:0:
36,334,67179,1,2,0:0:0:0:
265,274,67679,1,8,0:0:0:0:
479,308,68179,5,2,0:0:0:0:
250,258,68679,1,8,0:0:0:0:
21,294,69179,1,2,0:0:0:0:
479,308,70179,5,2,0:0:0:0:
250,258,70679,1,8,0:0:0:0:
21,294,71179,1,2,0:0:0:0:
33,308,72179,5,2,0:0:0:0:
262,258,72679,1,8,0:0:0:0:
491,294,73179,1,2,0:0:0:0:
33,308,74179,5,2,0:0:0:0:
262,258,74679,1,8,0:0:0:0:
491,294,75179,1,2,0:0:0:0:
256,192,76179,12,0,77679,0:0:0:0:
273,192,78179,5,2,0:0:0:0:
41,194,78679,1,8,0:0:0:0:
273,192,79179,1,2,0:0:0:0:
41,194,79679,1,8,0:0:0:0:
273,192,80179,1,2,0:0:0:0:
504,192,80679,1,8,0:0:0:0:
273,192,81179,1,2,0:0:0:0:
273,192,82179,5,2,0:0:0:0:
41,194,82679,1,8,0:0:0:0:
273,192,83179,1,2,0:0:0:0:
41,194,83679,1,8,0:0:0:0:
273,192,84179,1,2,0:0:0:0:
504,192,84679,1,8,0:0:0:0:
273,192,85179,1,2,0:0:0:0:
239,192,86179,5,2,0:0:0:0:
471,194,86679,1,8,0:0:0:0:
239,192,87179,1,2,0:0:0:0:
471,194,87679,1,8,0:0:0:0:
239,192,88179,1,2,0:0:0:0:
8,192,88679,1,8,0:0:0:0:
239,192,89179,1,2,0:0:0:0:
239,192,90179,5,2,0:0:0:0:
471,194,90679,1,8,0:0:0:0:
239,192,91179,1,2,0:0:0:0:
471,194,91679,1,8,0:0:0:0:
239,192,92179,1,2,0:0:0:0:
8,192,92679,1,8,0:0:0:0:
239,192,93179,1,2,0:0:0:0:
258,191,104179,5,6,0:0:0:0:
485,190,104679,1,8,0:0:0:0:
258,191,105179,1,2,0:0:0:0:
30,191,105679,1,8,0:0:0:0:
258,191,106179,1,2,0:0:0:0:
30,191,106679,1,8,0:0:0:0:
258,191,107179,1,2,0:0:0:0:
258,191,108179,5,6,0:0:0:0:
485,190,108679,1,8,0:0:0:0:
258,191,109179,1,2,0:0:0:0:
30,191,109679,1,8,0:0:0:0:
258,191,110179,1,2,0:0:0:0:
30,191,110679,1,8,0:0:0:0:
258,191,111179,1,2,0:0:0:0:
74,309,112179,6,0,L|68:128,1,170,2|2,0:0|0:0,0:0:0:0:
455,85,113179,2,0,L|283:73,1,170,8|2,0:0|0:0,0:0:0:0:
70,252,114179,2,0,L|75:63,1,170,2|2,0:0|0:0,0:0:0:0:
461,150,115179,2,0,L|282:132,1,170,8|2,0:0|0:0,0:0:0:0:
100,310,116179,6,0,L|94:129,1,170,2|2,0:0|0:0,0:0:0:0:
475,137,117179,2,0,L|302:115,1,170,8|2,0:0|0:0,0:0:0:0:
66,156,118179,1,0,0:0:0:0:
252,276,118679,2,0,L|355:256,1,85,8|0,0:0|0:0,0:0:0:0:
217,174,119179,2,0,L|109:157,1,85,2|0,0:0|0:0,0:0:0:0:
23,219,119679,1,8,0:0:0:0:
240,197,120179,6,0,L|230:132,1,42.5,2|0,0:0|0:0,0:0:0:0:
147,140,120429,2,0,L|136:80,1,42.5,0|0,0:0|0:0,0:0:0:0:
290,32,120679,1,8,0:0:0:0:
83,68,121179,1,2,0:0:0:0:
210,102,121429,1,0,0:0:0:0:
442,37,121679,1,8,0:0:0:0:
285,216,122179,6,0,L|275:151,1,42.5,2|0,0:0|0:0,0:0:0:0:
192,159,122429,2,0,L|181:99,1,42.5,0|0,0:0|0:0,0:0:0:0:
335,52,122679,1,8,0:0:0:0:
128,87,123179,1,2,0:0:0:0:
255,121,123429,1,2,0:0:0:0:
486,64,123679,1,8,0:0:0:0:
287,215,124179,6,0,L|460:199,1,170,2|8,0:0|0:0,0:0:0:0:
267,334,125179,2,0,L|460:313,1,170,2|8,0:0|0:0,0:0:0:0:
204,235,126179,2,0,L|204:62,1,170,2|8,0:0|0:0,0:0:0:0:
82,98,126929,1,0,0:0:0:0:
314,145,127179,2,0,L|316:36,1,85,8|0,0:0|0:0,0:0:0:0:
191,154,127679,2,0,L|187:266,1,85,8|0,0:0|0:0,0:0:0:0:
344,240,128179,6,0,L|334:175,1,42.5,2|0,0:0|0:0,0:0:0:0:
251,183,128429,2,0,L|240:123,1,42.5,0|0,0:0|0:0,0:0:0:0:
394,75,128679,1,8,0:0:0:0:
218,117,129179,1,2,0:0:0:0:
345,151,129429,1,2,0:0:0:0:
121,219,129679,1,8,0:0:0:0:
263,307,130179,6,0,L|253:242,1,42.5,2|0,0:0|0:0,0:0:0:0:
170,250,130429,2,0,L|159:190,1,42.5,0|0,0:0|0:0,0:0:0:0:
313,138,130679,1,8,0:0:0:0:
179,98,131179,1,2,0:0:0:0:
306,132,131429,1,2,0:0:0:0:
94,211,131679,1,8,0:0:0:0:
389,290,132179,5,4,0:0:0:0:
256,192,132679,12,0,134179,0:0:0:0:
