osu file format v14

[General]
AudioFilename: U.N. Owen Was Van.mp3
AudioLeadIn: 0
PreviewTime: -1
Countdown: 1
SampleSet: None
StackLeniency: 0.7
Mode: 0
LetterboxInBreaks: 1
WidescreenStoryboard: 1

[Editor]
Bookmarks: 22643,41456,60268,72893,79268,98268
DistanceSpacing: 0.9
BeatDivisor: 8
GridSize: 8
TimelineZoom: 2.899999

[Metadata]
Title:U.N. Owen Was Van - Take it boy
TitleUnicode:U.N. Owen Was Van - Take it boy
Artist:
ArtistUnicode:
Creator:Azazelko
Version:Take it boy
Source:
Tags:
BeatmapID:1249529
BeatmapSetID:590398

[Difficulty]
HPDrainRate:6
CircleSize:4
OverallDifficulty:7
ApproachRate:9
SliderMultiplier:2.99999990463257
SliderTickRate:1

[Events]
//Background and Video events
0,0,"14589312359940.png",0,0
//Break Periods
2,47218,53410
//Storyboard Layer 0 (Background)
//Storyboard Layer 1 (Fail)
//Storyboard Layer 2 (Pass)
//Storyboard Layer 3 (Foreground)
//Storyboard Sound Samples

[TimingPoints]
1331,500,4,3,0,100,1,0

[HitObjects]
128,120,1393,6,0,L|208:120,7,74.9999976158143
358,255,2518,5,0,0:0:0:0:
272,106,2768,1,0,0:0:0:0:
358,255,3018,1,0,0:0:0:0:
224,336,3268,2,0,L|304:336,8,74.9999976158143
376,344,4456,5,0,0:0:0:0:
112,336,4706,1,0,0:0:0:0:
376,344,4956,1,0,0:0:0:0:
248,48,5206,2,0,L|328:48,8,74.9999976158143
158,39,6393,5,0,0:0:0:0:
400,48,6643,1,0,0:0:0:0:
158,39,6893,1,0,0:0:0:0:
440,48,7171,5,0,0:0:0:0:
408,64,7268,1,0,0:0:0:0:
376,80,7364,1,0,0:0:0:0:
344,96,7461,1,0,0:0:0:0:
312,112,7558,1,0,0:0:0:0:
280,128,7655,1,0,0:0:0:0:
248,144,7751,1,0,0:0:0:0:
216,160,7848,1,0,0:0:0:0:
184,176,7945,1,0,0:0:0:0:
152,192,8042,1,0,0:0:0:0:
120,216,8138,1,0,0:0:0:0:
80,240,8283,2,0,L|152:208,5,74.9999976158143
224,184,9070,5,0,0:0:0:0:
240,152,9167,1,0,0:0:0:0:
264,120,9264,1,0,0:0:0:0:
288,96,9361,1,0,0:0:0:0:
320,72,9457,1,0,0:0:0:0:
352,56,9554,1,0,0:0:0:0:
384,48,9651,1,0,0:0:0:0:
416,56,9748,1,0,0:0:0:0:
440,80,9844,1,0,0:0:0:0:
456,112,9941,1,0,0:0:0:0:
464,144,10038,1,0,0:0:0:0:
464,184,10135,1,0,0:0:0:0:
432,200,10231,2,0,L|304:248,3,112.499996423721
264,272,11005,5,0,0:0:0:0:
224,272,11102,1,0,0:0:0:0:
184,272,11199,1,0,0:0:0:0:
144,272,11296,1,0,0:0:0:0:
112,248,11392,1,0,0:0:0:0:
88,208,11489,1,0,0:0:0:0:
96,176,11586,1,0,0:0:0:0:
120,152,11683,1,0,0:0:0:0:
152,136,11779,1,0,0:0:0:0:
184,136,11876,1,0,0:0:0:0:
216,136,11973,1,0,0:0:0:0:
256,136,12070,1,0,0:0:0:0:
296,136,12166,2,0,L|296:216,5,74.9999976158143
256,232,12940,5,0,0:0:0:0:
304,224,13037,1,0,0:0:0:0:
328,192,13134,1,0,0:0:0:0:
336,152,13231,1,0,0:0:0:0:
328,120,13327,1,0,0:0:0:0:
296,96,13424,1,0,0:0:0:0:
256,96,13521,1,0,0:0:0:0:
216,104,13618,1,0,0:0:0:0:
192,128,13714,1,0,0:0:0:0:
184,160,13811,1,0,0:0:0:0:
192,192,13908,1,0,0:0:0:0:
176,272,14143,5,0,0:0:0:0:
324,89,14393,1,0,0:0:0:0:
183,237,14643,1,0,0:0:0:0:
320,224,14893,2,0,L|320:139,3,74.9999976158143
162,126,15553,5,0,0:0:0:0:
288,240,15768,1,0,0:0:0:0:
344,136,15956,2,0,L|440:96,1,74.9999976158143
152,112,16331,1,0,0:0:0:0:
256,336,16581,1,0,0:0:0:0:
256,192,16810,12,0,17294,0:0:0:0:
256,192,17584,12,0,18067,0:0:0:0:
256,192,18358,12,0,18842,0:0:0:0:
256,192,19132,12,0,19616,0:0:0:0:
256,192,19906,12,0,20390,0:0:0:0:
256,192,20680,12,0,21164,0:0:0:0:
256,192,21454,12,0,21937,0:0:0:0:
256,192,22228,12,0,22712,0:0:0:0:
88,40,23018,5,0,0:0:0:0:
136,40,23206,2,0,P|208:40|184:40,2,74.9999976158143
232,40,23581,1,0,0:0:0:0:
276,40,23768,1,0,0:0:0:0:
320,40,23956,1,0,0:0:0:0:
368,56,24143,1,0,0:0:0:0:
400,80,24331,1,0,0:0:0:0:
424,120,24518,1,0,0:0:0:0:
400,160,24706,2,0,P|384:176|336:192,2,74.9999976158143
336,192,25081,5,0,0:0:0:0:
288,192,25268,1,0,0:0:0:0:
240,192,25456,1,0,0:0:0:0:
192,192,25643,1,0,0:0:0:0:
144,192,25831,1,0,0:0:0:0:
96,200,26018,1,0,0:0:0:0:
72,240,26206,2,0,P|88:264|144:288,2,74.9999976158143
144,296,26643,5,0,0:0:0:0:
192,296,26831,1,0,0:0:0:0:
232,296,27018,1,0,0:0:0:0:
272,296,27206,1,0,0:0:0:0:
312,296,27393,1,0,0:0:0:0:
256,48,27646,5,0,0:0:0:0:
368,200,28033,1,0,0:0:0:0:
152,200,28420,1,0,0:0:0:0:
64,336,29098,6,0,L|236:336,1,149.999995231629
304,336,29581,1,0,0:0:0:0:
128,260,29872,2,0,L|308:260,1,149.999995231629
364,248,30355,1,0,0:0:0:0:
160,176,30646,2,0,L|312:176,1,149.999995231629
224,120,31129,2,0,L|344:120,2,112.499996423721
248,204,31903,1,0,0:0:0:0:
472,36,32268,5,0,0:0:0:0:
428,248,32518,1,0,0:0:0:0:
196,228,32706,1,0,0:0:0:0:
128,72,32893,1,0,0:0:0:0:
272,136,33081,2,0,L|352:136,4,74.9999976158143
112,304,33838,6,0,L|256:304,1,112.499996423721
372,280,34268,1,0,0:0:0:0:
224,152,34456,1,0,0:0:0:0:
96,60,34643,1,0,0:0:0:0:
216,176,35018,2,0,P|312:176|328:208,1,112.499996423721
40,328,35393,6,0,L|136:256,1,112.499996423721
344,104,35831,1,0,0:0:0:0:
36,192,36143,2,0,L|152:192,1,112.499996423721
392,192,36581,1,0,0:0:0:0:
72,52,36956,2,0,L|200:112,1,112.499996423721
348,168,37331,2,0,L|456:224,3,112.499996423721
272,128,38143,1,0,0:0:0:0:
152,156,38518,5,0,0:0:0:0:
276,156,38706,1,0,0:0:0:0:
152,240,38893,1,0,0:0:0:0:
272,240,39081,1,0,0:0:0:0:
416,328,39268,5,0,0:0:0:0:
112,320,39706,1,0,0:0:0:0:
256,160,40081,1,0,0:0:0:0:
208,296,40456,2,0,L|408:288,3,187.499994039536
184,40,41581,5,0,0:0:0:0:
320,40,41956,1,0,0:0:0:0:
120,144,42331,1,0,0:0:0:0:
392,144,42706,1,0,0:0:0:0:
72,240,43143,1,0,0:0:0:0:
440,240,43456,1,0,0:0:0:0:
72,312,43706,1,0,0:0:0:0:
440,312,43893,1,0,0:0:0:0:
72,312,44331,1,0,0:0:0:0:
440,312,44706,1,0,0:0:0:0:
144,312,44893,1,0,0:0:0:0:
368,312,45081,1,0,0:0:0:0:
144,312,45206,1,0,0:0:0:0:
200,256,45456,5,0,0:0:0:0:
256,216,45643,1,0,0:0:0:0:
296,184,45738,1,0,0:0:0:0:
336,152,45835,1,0,0:0:0:0:
392,112,46018,1,0,0:0:0:0:
376,200,46268,5,0,0:0:0:0:
136,200,46455,1,0,0:0:0:0:
376,200,46643,1,0,0:0:0:0:
136,200,46830,1,0,0:0:0:0:
368,200,47018,1,0,0:0:0:0:
256,192,54010,12,0,60155,0:0:0:0:
464,336,60331,6,0,L|384:224,1,112.499996423721
288,72,60768,1,0,0:0:0:0:
88,304,61143,6,0,L|24:184,1,112.499996423721
232,72,61581,1,0,0:0:0:0:
464,336,61956,6,0,L|400:216,1,112.499996423721
192,72,62331,1,0,0:0:0:0:
88,304,62831,6,0,L|24:184,1,112.499996423721
336,72,63143,1,0,0:0:0:0:
464,336,63518,6,0,L|400:216,1,112.499996423721
144,72,63893,1,0,0:0:0:0:
88,304,64268,6,0,L|24:184,1,112.499996423721
368,80,64643,1,0,0:0:0:0:
464,336,65143,6,0,L|400:216,1,112.499996423721
88,80,65518,1,0,0:0:0:0:
88,304,65956,6,0,L|24:184,1,112.499996423721
416,80,66331,1,0,0:0:0:0:
464,336,66706,6,0,L|400:216,1,112.499996423721
64,112,67081,1,0,0:0:0:0:
88,304,67518,6,0,L|24:184,1,112.499996423721
448,104,67893,1,0,0:0:0:0:
464,336,68331,6,0,L|400:216,1,112.499996423721
80,160,68706,1,0,0:0:0:0:
88,304,69081,6,0,L|24:184,1,112.499996423721
448,160,69456,1,0,0:0:0:0:
464,336,69893,6,0,L|400:216,1,112.499996423721
96,224,70268,1,0,0:0:0:0:
88,304,70643,6,0,L|24:184,1,112.499996423721
440,216,71018,1,0,0:0:0:0:
464,336,71393,6,0,L|400:216,1,112.499996423721
208,224,71768,1,0,0:0:0:0:
88,304,72268,6,0,L|24:184,1,112.499996423721
304,224,72643,1,0,0:0:0:0:
400,72,73081,6,0,L|456:64,7,37.4999988079071
88,304,73768,6,0,L|144:296,7,37.4999988079071
144,128,74518,6,0,L|200:120,7,37.4999988079071
408,312,75268,6,0,L|464:304,7,37.4999988079071
432,56,76081,1,0,0:0:0:0:
168,72,76456,1,0,0:0:0:0:
384,224,76831,1,0,0:0:0:0:
128,288,77268,1,0,0:0:0:0:
248,56,77643,1,0,0:0:0:0:
208,320,78018,1,0,0:0:0:0:
272,96,78393,1,0,0:0:0:0:
384,320,78768,1,0,0:0:0:0:
256,56,79268,5,0,0:0:0:0:
256,72,79706,5,0,0:0:0:0:
256,88,80081,5,0,0:0:0:0:
256,104,80456,5,0,0:0:0:0:
256,120,80831,5,0,0:0:0:0:
256,144,81206,5,0,0:0:0:0:
256,160,81581,5,0,0:0:0:0:
256,176,81956,5,0,0:0:0:0:
256,192,82331,5,0,0:0:0:0:
256,208,82706,5,0,0:0:0:0:
256,224,83081,5,0,0:0:0:0:
256,248,83456,5,0,0:0:0:0:
256,264,83831,5,0,0:0:0:0:
256,288,84206,5,0,0:0:0:0:
256,312,84581,5,0,0:0:0:0:
256,328,84956,5,0,0:0:0:0:
56,352,85393,5,0,0:0:0:0:
424,88,85768,1,0,0:0:0:0:
96,80,86143,1,0,0:0:0:0:
400,312,86581,1,0,0:0:0:0:
72,224,86956,1,0,0:0:0:0:
232,40,87331,1,0,0:0:0:0:
432,360,87706,1,0,0:0:0:0:
80,224,88081,1,0,0:0:0:0:
336,40,88456,1,0,0:0:0:0:
352,336,88831,1,0,0:0:0:0:
56,272,89268,1,0,0:0:0:0:
248,48,89643,1,0,0:0:0:0:
344,336,90018,1,0,0:0:0:0:
72,192,90393,1,0,0:0:0:0:
304,192,90831,6,0,B|328:272|496:280|472:56|368:96|368:96,1,262.49999165535
120,136,91706,1,0,0:0:0:0:
416,112,92018,1,0,0:0:0:0:
144,280,92393,5,0,0:0:0:0:
432,280,92768,1,0,0:0:0:0:
152,152,93143,5,0,0:0:0:0:
456,96,93518,1,0,0:0:0:0:
152,296,93893,5,0,0:0:0:0:
432,272,94268,1,0,0:0:0:0:
112,128,94643,5,0,0:0:0:0:
424,96,95018,1,0,0:0:0:0:
104,288,95456,1,0,0:0:0:0:
424,296,95768,1,0,0:0:0:0:
80,144,96206,1,0,0:0:0:0:
392,120,96581,1,0,0:0:0:0:
96,312,96956,1,0,0:0:0:0:
