osu file format v14

[General]
AudioFilename: audio.ogg
AudioLeadIn: 0
PreviewTime: 77578
Countdown: 0
SampleSet: Soft
StackLeniency: 0.7
Mode: 0
LetterboxInBreaks: 0
WidescreenStoryboard: 1

[Editor]
Bookmarks: 6213,16585,26798,39564,60309,77862,82968,100521
DistanceSpacing: 0.96
BeatDivisor: 4
GridSize: 32
TimelineZoom: 2.600005

[Metadata]
Title:Iza, Mairimasu
TitleUnicode:いざ、参ります
Artist:U-ske feat. Natsume Itsuki
ArtistUnicode:U-ske feat. 棗いつき
Creator:August
Version:Loli's Expert
Source:Phigros
Tags:myre GlaZe zhuizhui xlolicore- bellicose video game pop jpop electronic japanese chainbeet rage quit my angel watame elsa valentine
BeatmapID:3833625
BeatmapSetID:1839317

[Difficulty]
HPDrainRate:6
CircleSize:4.2
OverallDifficulty:9
ApproachRate:9.5
SliderMultiplier:1.8
SliderTickRate:1

[Events]
//Background and Video events
0,0,"anime1.jpg",0,0
//Break Periods
//Storyboard Layer 0 (Background)
//Storyboard Layer 1 (Fail)
//Storyboard Layer 2 (Pass)
//Storyboard Layer 3 (Foreground)
//Storyboard Layer 4 (Overlay)
//Storyboard Sound Samples

[TimingPoints]
-10,319.148936170213,4,2,2,60,1,0
1107,-100,4,2,0,40,0,0
1266,-100,4,2,1,45,0,0
1425,-100,4,2,2,60,0,0
1585,-100,4,2,1,45,0,0
1745,-100,4,2,1,40,0,0
3819,-83.3333333333333,4,2,1,40,0,0
4298,-100,4,2,1,40,0,0
4777,-100,4,2,1,50,0,0
5016,-100,4,2,2,60,0,0
5096,-100,4,2,1,40,0,0
5734,-66.6666666666667,4,2,1,55,0,0
6133,-66.6666666666667,4,2,2,60,0,0
6213,-100,4,2,1,65,0,0
6532,-100,4,2,2,65,0,0
7090,-100,4,2,100,65,0,0
7170,-100,4,2,2,65,0,0
7250,-100,4,2,2,60,0,0
7330,-100,4,2,2,65,0,0
9803,-100,4,2,2,60,0,0
9883,-100,4,2,2,65,0,0
12357,-100,4,2,2,60,0,0
12436,-100,4,2,2,65,0,0
14910,-100,4,2,2,60,0,0
14990,-100,4,2,2,65,0,0
15228,-100,4,2,2,60,0,0
15309,-66.6666666666667,4,2,1,65,0,0
15548,-66.6666666666667,4,2,2,60,0,0
15628,-66.6666666666667,4,2,2,65,0,0
15707,-66.6666666666667,4,2,2,60,0,0
15787,-66.6666666666667,4,2,0,65,0,0
15807,-66.6666666666667,4,2,100,40,0,0
15826,-66.6666666666667,4,2,2,40,0,0
15847,-66.6666666666667,4,2,100,40,0,0
15866,-66.6666666666667,4,2,2,40,0,0
16107,-66.6666666666667,4,2,2,60,0,0
16266,-66.6666666666667,4,2,1,60,0,0
16465,-66.6666666666667,4,2,2,60,0,0
16585,-76.9230769230769,4,2,2,50,0,0
16904,-76.9230769230769,4,2,3,65,0,0
17781,-76.9230769230769,4,2,2,60,0,0
17862,-76.9230769230769,4,2,3,65,0,0
17941,-76.9230769230769,4,2,2,60,0,0
18021,-50,4,2,2,60,0,0
18100,-50,4,2,3,65,0,0
18181,-62.5,4,2,3,65,0,0
18500,-100,4,2,3,65,0,0
18979,-66.6666666666667,4,2,3,65,0,0
19217,-66.6666666666667,4,2,2,60,0,0
19298,-66.6666666666667,4,2,3,65,0,0
19377,-66.6666666666667,4,2,2,60,0,0
19458,-76.9230769230769,4,2,3,65,0,0
20374,-76.9230769230769,4,2,2,60,0,0
20415,-62.5,4,2,2,65,0,0
20574,-62.5,4,2,2,70,0,0
20894,-76.9230769230769,4,2,2,75,0,0
21213,-76.9230769230769,4,2,2,80,0,0
21451,-76.9230769230769,4,2,2,60,0,0
21532,-76.9230769230769,4,2,2,80,0,0
21611,-76.9230769230769,4,2,2,60,0,0
22011,-76.9230769230769,4,2,3,65,0,0
22369,-76.9230769230769,4,2,2,60,0,0
22410,-76.9230769230769,4,2,3,65,0,0
22449,-76.9230769230769,4,2,2,60,0,0
22490,-76.9230769230769,4,2,3,65,0,0
22529,-76.9230769230769,4,2,2,60,0,0
22570,-76.9230769230769,4,2,3,65,0,0
22609,-76.9230769230769,4,2,2,60,0,0
22649,-76.9230769230769,4,2,3,65,0,0
22888,-76.9230769230769,4,2,2,60,0,0
22968,-76.9230769230769,4,2,3,65,0,0
23047,-76.9230769230769,4,2,2,60,0,0
23128,-50,4,2,2,60,0,0
23207,-50,4,2,3,65,0,0
23287,-62.5,4,2,3,65,0,0
23607,-100,4,2,3,65,0,0
24085,-66.6666666666667,4,2,3,65,0,0
24324,-66.6666666666667,4,2,2,60,0,0
24404,-66.6666666666667,4,2,3,65,0,0
24483,-66.6666666666667,4,2,2,60,0,0
24564,-76.9230769230769,4,2,3,65,0,0
25122,-76.9230769230769,4,2,3,65,0,0
25202,-76.9230769230769,4,2,3,65,0,0
25521,-62.5,4,2,3,65,0,0
26479,-62.5,4,2,3,70,0,0
26639,-62.5,4,2,3,75,0,0
26798,-100,4,2,1,80,0,0
27277,-100,4,2,2,50,0,0
27995,-100,4,2,1,80,0,0
28075,-100,4,2,2,50,0,0
28234,-100,4,2,1,80,0,0
28394,-100,4,2,2,50,0,0
28872,-100,4,2,3,50,0,0
29351,-100,4,2,2,50,0,0
29511,-100,4,2,1,80,0,0
29670,-100,4,2,100,50,0,0
29830,-100,4,2,2,50,0,0
29910,-100,4,2,1,80,0,0
29990,-100,4,2,2,50,0,0
32064,-100,4,2,1,80,0,0
32224,-100,4,2,2,50,0,0
32702,-100,4,2,1,80,0,0
32862,-100,4,2,2,50,0,0
33979,-100,4,2,3,50,0,0
34458,-100,4,2,2,50,0,0
34618,-100,4,2,3,50,0,0
34937,-100,4,2,1,50,0,0
35016,-100,4,2,1,50,0,0
35096,-100,4,2,3,50,0,0
35335,-100,4,2,3,50,0,0
35415,-100,4,2,3,50,0,0
35734,-100,4,2,2,50,0,0
36851,-100,4,2,100,50,0,0
36931,-100,4,2,100,50,0,0
37011,-100,4,2,1,50,0,0
37170,-100,4,2,1,46,0,0
37330,-100,4,2,1,42,0,0
37490,-100,4,2,1,38,0,0
38128,-100,4,2,3,50,0,0
38287,-100,4,2,4,55,0,0
39085,-100,4,2,3,65,0,0
39245,-133.333333333333,4,2,1,65,0,0
39404,-133.333333333333,4,2,1,80,0,0
39564,-83.3333333333333,4,2,2,70,0,1
39723,-83.3333333333333,4,2,2,70,0,1
39803,-83.3333333333333,4,2,2,70,0,1
40281,-83.3333333333333,4,2,1,80,0,1
40362,-83.3333333333333,4,2,2,70,0,1
40681,-83.3333333333333,4,2,3,70,0,1
41000,-83.3333333333333,4,2,2,70,0,1
42117,-83.3333333333333,4,2,2,75,0,1
42196,-83.3333333333333,4,2,100,75,0,1
42276,-83.3333333333333,4,2,100,75,0,1
42356,-83.3333333333333,4,2,2,75,0,1
42515,-83.3333333333333,4,2,2,75,0,1
42596,-83.3333333333333,4,2,2,75,0,1
43234,-83.3333333333333,4,2,3,60,0,1
43553,-83.3333333333333,4,2,2,65,0,1
43593,-83.3333333333333,4,2,1,5,0,1
43713,-83.3333333333333,4,2,2,70,0,1
43753,-83.3333333333333,4,2,1,5,0,1
43872,-83.3333333333333,4,2,2,75,0,1
43912,-83.3333333333333,4,2,1,5,0,1
44032,-83.3333333333333,4,2,2,80,0,1
44351,-83.3333333333333,4,2,1,80,0,1
44510,-83.3333333333333,4,2,2,65,0,1
45787,-83.3333333333333,4,2,3,65,0,1
46107,-83.3333333333333,4,2,2,65,0,1
47224,-111.111111111111,4,2,2,55,0,0
48341,-66.6666666666667,4,2,2,65,0,0
48660,-83.3333333333333,4,2,2,65,0,0
49458,-83.3333333333333,4,2,2,75,0,0
49777,-83.3333333333333,4,2,2,70,0,1
50016,-83.3333333333333,4,2,2,70,0,1
50494,-83.3333333333333,4,2,2,65,0,1
50574,-83.3333333333333,4,2,2,70,0,1
50894,-83.3333333333333,4,2,3,70,0,1
51213,-83.3333333333333,4,2,2,70,0,1
52330,-83.3333333333333,4,2,2,75,0,1
52409,-83.3333333333333,4,2,100,75,0,1
52489,-83.3333333333333,4,2,100,75,0,1
52569,-83.3333333333333,4,2,2,75,0,1
52728,-83.3333333333333,4,2,2,75,0,1
52809,-83.3333333333333,4,2,2,75,0,1
53447,-83.3333333333333,4,2,3,60,0,1
53766,-83.3333333333333,4,2,2,65,0,1
53806,-83.3333333333333,4,2,3,5,0,1
53926,-83.3333333333333,4,2,2,70,0,1
53966,-83.3333333333333,4,2,3,5,0,1
54085,-83.3333333333333,4,2,2,75,0,1
54125,-83.3333333333333,4,2,3,5,0,1
54245,-83.3333333333333,4,2,2,80,0,1
54564,-83.3333333333333,4,2,1,80,0,1
54723,-83.3333333333333,4,2,2,65,0,1
55761,-83.3333333333333,4,2,2,80,0,1
55841,-83.3333333333333,4,2,2,65,0,1
56000,-83.3333333333333,4,2,3,65,0,1
56319,-83.3333333333333,4,2,2,65,0,1
56958,-83.3333333333333,4,2,3,65,0,1
57117,-83.3333333333333,4,2,2,75,0,1
57994,-83.3333333333333,4,2,2,80,0,1
58075,-83.3333333333333,4,2,2,75,0,1
58632,-83.3333333333333,4,2,2,80,0,1
58713,-83.3333333333333,4,2,2,75,0,1
59670,-83.3333333333333,4,2,2,70,0,1
59830,-83.3333333333333,4,2,2,64,0,1
59990,-83.3333333333333,4,2,2,58,0,1
60309,-66.6666666666667,4,2,2,58,0,0
60468,-66.6666666666667,4,2,3,58,0,0
60787,-83.3333333333333,4,2,2,58,0,0
61107,-66.6666666666667,4,2,2,58,0,0
61266,-66.6666666666667,4,2,2,80,0,0
61426,-100,4,2,3,58,0,0
61745,-100,4,2,2,58,0,0
62543,-66.6666666666667,4,2,2,58,0,0
62862,-83.3333333333333,4,2,3,58,0,0
63341,-83.3333333333333,4,2,1,58,0,0
63500,-83.3333333333333,4,2,2,58,0,0
63660,-58.8235294117647,4,2,2,58,0,0
63979,-83.3333333333333,4,2,3,58,0,0
64777,-83.3333333333333,4,2,2,58,0,0
64856,-83.3333333333333,4,2,2,80,0,0
64936,-83.3333333333333,4,2,2,58,0,0
65015,-83.3333333333333,4,2,2,80,0,0
65096,-76.9230769230769,4,2,2,58,0,0
65309,-76.9230769230769,4,2,2,80,0,0
65415,-76.9230769230769,4,2,2,58,0,0
65628,-76.9230769230769,4,2,2,80,0,0
65735,-76.9230769230769,4,2,2,58,0,0
65947,-76.9230769230769,4,2,2,80,0,0
66053,-76.9230769230769,4,2,2,58,0,0
66266,-76.9230769230769,4,2,2,80,0,0
66372,-76.9230769230769,4,2,2,58,0,0
67649,-76.9230769230769,4,2,2,65,0,0
68366,-76.9230769230769,4,2,2,80,0,0
68447,-76.9230769230769,4,2,2,65,0,0
68526,-76.9230769230769,4,2,2,80,0,0
68607,-76.9230769230769,4,2,2,65,0,0
69005,-76.9230769230769,4,2,2,80,0,0
69085,-76.9230769230769,4,2,2,65,0,0
69164,-76.9230769230769,4,2,2,80,0,0
69245,-76.9230769230769,4,2,2,65,0,0
69564,-58.8235294117647,4,2,2,70,0,0
69723,-58.8235294117647,4,2,4,70,0,0
69777,-58.8235294117647,4,2,2,80,0,0
69883,-76.9230769230769,4,2,4,70,0,0
70202,-133.333333333333,4,2,2,55,0,0
70361,-133.333333333333,4,2,4,50,0,0
70841,-66.6666666666667,4,2,4,50,0,0
71160,-133.333333333333,4,2,4,50,0,0
71479,-133.333333333333,4,2,4,55,0,0
71638,-133.333333333333,4,2,4,50,0,0
72755,-133.333333333333,4,2,4,55,0,0
72915,-133.333333333333,4,2,4,50,0,0
74032,-133.333333333333,4,2,4,60,0,0
75309,-133.333333333333,4,2,1,55,0,0
75468,-133.333333333333,4,2,1,51,0,0
75628,-133.333333333333,4,2,1,47,0,0
75787,-133.333333333333,4,2,1,43,0,0
75947,-133.333333333333,4,2,1,39,0,0
76426,-133.333333333333,4,2,2,45,0,0
77103,-133.333333333333,4,2,2,80,0,0
77117,-133.333333333333,4,2,100,45,0,0
77143,-133.333333333333,4,2,2,80,0,0
77224,-66.6666666666667,4,2,2,45,0,0
77543,-66.6666666666667,4,2,2,50,0,0
77862,-22.2222222222222,4,2,2,60,0,0
77942,-22.2222222222222,4,2,2,5,0,0
78181,-100,4,2,2,65,0,0
78979,-100,4,2,1,40,0,0
79856,-100,4,2,2,65,0,0
79936,-100,4,2,1,40,0,0
80335,-100,4,2,2,65,0,0
80415,-100,4,2,1,40,0,0
81532,-100,4,2,1,40,0,0
82170,-100,4,2,1,45,0,0
82490,-100,4,2,1,50,0,0
82649,-100,4,2,1,55,0,0
82808,-100,4,2,2,60,0,0
82968,-83.3333333333333,4,2,2,65,0,1
84085,-83.3333333333333,4,2,3,65,0,1
84404,-83.3333333333333,4,2,2,65,0,1
85521,-111.111111111111,4,2,2,60,0,0
86638,-66.6666666666667,4,2,2,70,0,0
86958,-83.3333333333333,4,2,2,70,0,0
87276,-83.3333333333333,4,2,2,65,0,0
87755,-83.3333333333333,4,2,2,80,0,0
88075,-83.3333333333333,4,2,2,75,0,1
88314,-83.3333333333333,4,2,2,75,0,1
88394,-83.3333333333333,4,2,2,75,0,1
88633,-83.3333333333333,4,2,2,65,0,1
88713,-83.3333333333333,4,2,2,75,0,1
88792,-83.3333333333333,4,2,2,65,0,1
88872,-83.3333333333333,4,2,2,75,0,1
89111,-83.3333333333333,4,2,2,65,0,1
89192,-83.3333333333333,4,2,3,75,0,1
89511,-83.3333333333333,4,2,2,75,0,1
90628,-83.3333333333333,4,2,2,80,0,1
90707,-83.3333333333333,4,2,100,80,0,1
90787,-83.3333333333333,4,2,100,80,0,1
90867,-83.3333333333333,4,2,2,80,0,1
90947,-83.3333333333333,4,2,2,80,0,1
91186,-83.3333333333333,4,2,2,80,0,1
91266,-83.3333333333333,4,2,2,80,0,1
91745,-83.3333333333333,4,2,3,60,0,1
92064,-83.3333333333333,4,2,2,65,0,1
92104,-83.3333333333333,4,2,2,5,0,1
92224,-83.3333333333333,4,2,2,71,0,1
92263,-83.3333333333333,4,2,2,5,0,1
92383,-83.3333333333333,4,2,2,77,0,1
92422,-83.3333333333333,4,2,2,5,0,1
92543,-83.3333333333333,4,2,2,83,0,1
92702,-83.3333333333333,4,2,2,88,0,1
92862,-83.3333333333333,4,2,1,88,0,1
93021,-83.3333333333333,4,2,2,70,0,1
94298,-83.3333333333333,4,2,3,70,0,1
94617,-83.3333333333333,4,2,2,70,0,1
95255,-71.4285714285714,4,2,3,70,0,1
95415,-71.4285714285714,4,2,2,80,0,1
95494,-71.4285714285714,4,2,2,70,0,1
95575,-71.4285714285714,4,2,2,80,0,1
95734,-83.3333333333333,4,2,2,80,0,1
96292,-83.3333333333333,4,2,2,70,0,1
96372,-83.3333333333333,4,2,2,80,0,1
96930,-83.3333333333333,4,2,2,70,0,1
97809,-83.3333333333333,4,2,2,80,0,1
98207,-83.3333333333333,4,2,2,70,0,1
98446,-83.3333333333333,4,2,4,70,0,1
98926,-83.3333333333333,4,2,2,80,0,1
99005,-83.3333333333333,4,2,4,80,0,1
99564,-83.3333333333333,4,2,2,75,0,1
100202,-83.3333333333333,4,2,2,80,0,1
100415,-83.3333333333333,4,2,2,70,0,1
100521,-83.3333333333333,4,2,1,70,0,1
100561,-83.3333333333333,4,2,2,5,0,0

[Colours]
Combo1 : 250,46,153
Combo2 : 30,251,240
Combo3 : 255,28,28
Combo4 : 0,240,186

[HitObjects]
4,328,1107,5,2,0:3:0:0:
10,344,1186,1,2,0:3:0:0:
24,353,1266,2,2,P|57:325|66:281,1,90,6|0,0:0|0:0,0:1:0:0:
190,233,1585,1,0,0:0:0:0:
98,99,1745,6,0,P|106:142|139:171,1,90,8|0,0:3|0:0,0:0:0:0:
119,303,2064,1,4,0:3:0:0:
281,290,2224,6,0,P|239:275|197:289,1,90,8|4,0:3|0:3,0:0:0:0:
94,206,2543,1,4,0:3:0:0:
179,14,2702,6,0,B|186:28|186:28|177:102,2,90,8|0|4,0:3|0:0|0:3,0:0:0:0:
190,233,3181,5,8,0:3:0:0:
338,209,3341,1,4,0:3:0:0:
190,233,3500,1,10,0:3:0:0:
338,209,3660,2,0,L|342:164,1,45,10|0,0:3|0:0,0:0:0:0:
490,8,3819,6,2,P|450:97|363:56,1,215.999993408203,10|0,0:3|0:0,0:1:0:0:
465,36,4298,6,0,P|442:71|400:61,2,90,8|0|4,0:3|0:0|0:3,0:0:0:0:
271,130,4777,2,0,P|266:85|261:40,1,90,8|4,0:3|0:3,0:0:0:0:
261,40,5016,1,0,0:0:0:0:
261,40,5096,1,4,0:3:0:0:
400,61,5255,5,10,0:3:0:0:
363,233,5415,1,0,0:0:0:0:
191,196,5575,1,4,0:3:0:0:
228,24,5734,6,0,P|225:57|220:91,1,67.5000025749208,10|0,0:3|0:0,0:0:0:0:
279,286,5894,2,0,P|214:214|119:232,1,202.500007724762,10|0,0:3|0:0,0:0:0:0:
79,367,6213,6,0,B|101:307|64:283|60:286|56:288|23:251|47:201,1,180,6|0,1:2|0:0,0:0:0:0:
6,15,6692,6,0,P|50:24|94:29,1,90,10|0,0:0|0:0,0:0:0:0:
207,217,7011,2,0,P|163:222|119:232,1,90,2|0,1:2|0:0,0:0:0:0:
119,232,7250,1,0,0:0:0:0:
119,232,7330,1,10,0:0:0:0:
216,116,7490,1,0,0:0:0:0:
46,202,7649,5,2,1:2:0:0:
217,230,7809,1,0,0:0:0:0:
140,342,7968,5,10,0:0:0:0:
113,149,8128,1,0,0:0:0:0:
140,342,8287,1,2,1:2:0:0:
483,353,8447,5,2,0:0:0:0:
442,363,8527,1,2,0:0:0:0:
403,347,8607,1,10,0:0:0:0:
385,311,8687,1,2,0:0:0:0:
365,278,8766,1,10,0:3:0:0:
326,263,8846,1,10,0:3:0:0:
286,273,8926,6,0,P|283:318|279:363,1,90,10|0,1:3|0:0,0:0:0:0:
432,235,9245,2,0,P|428:190|425:145,1,90,10|0,0:0|0:0,0:0:0:0:
313,183,9564,5,2,1:2:0:0:
512,271,9724,1,0,0:0:0:0:
512,271,9803,1,0,0:0:0:0:
512,271,9883,1,10,0:0:0:0:
385,311,10043,1,0,0:0:0:0:
387,54,10202,6,0,P|384:99|381:144,1,90,2|2,1:2|0:0,0:0:0:0:
388,221,10442,1,2,0:0:0:0:
358,219,10521,1,10,0:0:0:0:
331,205,10601,1,2,0:0:0:0:
313,183,10681,1,2,0:0:0:0:
178,6,10841,5,2,1:2:0:0:
190,34,10920,1,2,0:2:0:0:
185,65,11000,1,2,0:2:0:0:
166,90,11080,1,2,0:2:0:0:
89,108,11160,5,10,0:0:0:0:
51,123,11240,1,2,0:0:0:0:
39,161,11319,1,10,0:3:0:0:
50,199,11399,1,10,0:3:0:0:
60,278,11479,6,0,P|103:267|148:260,1,90,10|0,1:3|0:0,0:0:0:0:
333,295,11798,1,10,0:0:0:0:
174,186,11958,1,0,0:0:0:0:
155,376,12117,5,2,1:2:0:0:
271,244,12277,1,0,0:0:0:0:
271,244,12357,1,0,0:0:0:0:
271,244,12436,1,10,0:0:0:0:
387,112,12596,1,0,0:0:0:0:
250,120,12755,5,2,1:2:0:0:
333,295,12915,1,0,0:0:0:0:
486,324,13075,5,10,0:0:0:0:
271,244,13234,1,0,0:0:0:0:
486,324,13394,1,2,1:2:0:0:
212,383,13553,5,2,0:0:0:0:
208,351,13633,1,2,0:0:0:0:
203,319,13713,1,10,0:0:0:0:
198,287,13793,1,2,0:0:0:0:
192,256,13872,1,10,0:3:0:0:
187,224,13952,1,10,0:3:0:0:
183,191,14032,6,0,P|187:147|193:102,1,90,10|0,1:3|0:0,0:0:0:0:
418,23,14351,2,0,P|417:66|382:91,1,90,10|0,0:0|0:0,0:0:0:0:
285,60,14670,5,2,1:2:0:0:
455,178,14830,1,0,0:0:0:0:
465,157,14910,1,0,0:0:0:0:
485,146,14990,1,10,0:0:0:0:
310,240,15149,2,0,P|332:245|352:257,1,45
501,291,15309,6,0,L|301:320,1,202.500007724762,6|0,1:2|0:0,0:0:0:0:
508,298,15628,6,0,L|441:308,1,67.5000025749208,2|0,0:0|0:0,0:0:0:0:
276,332,15787,6,0,L|310:328,2,33.7500012874604,8|0|0,0:3|0:0|0:0,0:0:0:0:
309,328,16107,5,10,0:3:0:0:
370,279,16186,1,8,0:3:0:0:
384,358,16266,1,8,0:3:0:0:
356,200,16426,6,0,L|351:166,2,33.7500012874604,2|0|0,0:3|0:0|0:0,0:0:0:0:
357,37,16585,6,0,P|436:26|455:104,1,175.499991966248,4|0,1:0|0:0,0:0:0:0:
386,145,16904,6,2,P|358:136|340:114,1,58.4999973220826,0|0,1:0|0:0,0:1:0:0:
421,3,17064,6,2,P|448:11|466:33,1,58.4999973220826,8|0,0:3|0:0,0:1:0:0:
256,8,17224,5,2,1:3:0:0:
240,12,17303,1,2,0:3:0:0:
177,58,17383,5,2,0:3:0:0:
161,62,17462,1,2,0:3:0:0:
81,58,17543,6,0,L|91:0,1,58.4999973220826,2|0,1:3|0:0,0:0:0:0:
192,140,17702,2,0,L|202:82,1,58.4999973220826,2|0,0:0|0:0,0:0:0:0:
6,222,17862,6,2,P|34:229|56:211,1,58.4999973220826,0|0,1:0|0:0,0:1:0:0:
135,223,18021,6,0,P|177:217|204:251,1,90
280,227,18181,6,0,B|364:242|333:184|416:203,1,144,0|8,1:0|3:3,0:0:0:0:
394,279,18420,5,8,3:0:0:0:
405,293,18499,1,0,1:0:0:0:
420,302,18579,1,0,0:0:0:0:
437,305,18659,1,8,3:3:0:0:
455,302,18739,1,8,3:0:0:0:
500,366,18819,6,2,P|482:379|460:381,1,45,0|0,1:0|0:0,0:1:0:0:
322,309,18979,6,2,P|313:266|327:237,1,67.5000025749208,0|0,3:0|0:0,0:1:0:0:
395,92,19138,6,0,B|413:77|413:77|404:121,1,67.5000025749208,0|0,1:0|0:0,0:0:0:0:
460,268,19298,2,0,L|394:279,1,67.5000025749208
250,342,19458,5,2,1:2:0:0:
232,340,19537,1,2,0:2:0:0:
156,329,19617,5,2,0:2:0:0:
138,327,19696,1,2,0:2:0:0:
62,350,19777,6,0,B|55:297|55:297|46:288|46:288|39:237,1,116.999994644165,0|2,1:0|0:0,0:0:0:0:
0,170,20016,1,2,0:0:0:0:
53,112,20096,6,0,P|101:83|117:22,1,116.999994644165,2|8,1:2|0:3,0:0:0:0:
34,5,20335,6,0,L|39:34,1,29.2499986610413,8|0,0:3|0:0,0:0:0:0:
60,120,20415,6,0,L|203:129,1,144,2|10,1:2|0:3,0:0:0:0:
203,129,20654,1,2,0:2:0:0:
203,129,20734,1,10,1:3:0:0:
131,224,20894,6,0,B|114:200|114:200|120:172,1,58.4999973220826,10|2,0:3|0:0,0:0:0:0:
269,83,21053,1,10,1:3:0:0:
90,69,21213,6,0,P|108:91|137:95,1,58.4999973220826,2|8,0:0|0:3,0:0:0:0:
214,255,21372,2,0,P|225:229|214:203,1,58.4999973220826,10|0,1:3|0:0,0:0:0:0:
314,55,21532,2,0,P|286:59|269:82,1,58.4999973220826,2|0,0:0|0:0,0:0:0:0:
131,224,21692,5,2,1:2:0:0:
113,222,21771,1,0,0:0:0:0:
95,220,21851,1,0,0:0:0:0:
77,217,21931,1,0,0:0:0:0:
14,169,22011,6,2,L|71:176,1,58.4999973220826,0|0,1:0|0:0,0:1:0:0:
98,302,22170,6,2,L|155:309,1,58.4999973220826,0|0,0:0|0:0,0:1:0:0:
238,359,22330,5,2,1:3:0:0:
254,357,22410,1,2,0:3:0:0:
328,341,22490,5,2,0:3:0:0:
344,339,22570,1,2,0:3:0:0:
423,353,22649,6,0,L|480:360,1,58.4999973220826,2|0,1:3|0:0,0:0:0:0:
388,244,22809,2,0,L|445:251,1,58.4999973220826,2|0,0:0|0:0,0:0:0:0:
500,186,22968,6,2,P|487:160|461:148,1,58.4999973220826,0|0,1:0|0:0,0:1:0:0:
391,110,23128,6,0,P|359:139|316:133,1,90
241,158,23287,6,0,B|173:177|173:177|160:171|160:171|177:114,1,144,0|8,1:0|3:3,0:0:0:0:
111,54,23527,5,8,3:0:0:0:
106,72,23606,1,0,1:0:0:0:
101,89,23686,1,0,0:0:0:0:
96,106,23766,1,8,3:3:0:0:
92,124,23846,1,8,3:0:0:0:
170,159,23926,6,2,B|182:140|182:140|178:118,1,45,0|0,1:0|0:0,0:1:0:0:
22,78,24085,6,2,B|4:106|4:106|10:140,1,67.5000025749208,0|0,3:0|0:0,0:1:0:0:
188,273,24245,6,0,L|121:282,1,67.5000025749208,2|0,1:2|0:0,0:0:0:0:
0,232,24404,2,0,B|-10:220|-10:220|40:231,1,67.5000025749208
264,293,24564,5,2,1:2:0:0:
281,291,24644,1,2,0:2:0:0:
354,283,24724,5,2,0:2:0:0:
371,281,24804,1,2,0:2:0:0:
448,300,24883,6,0,P|501:296|501:242,1,116.999994644165,0|0,1:0|0:0,0:0:0:0:
487,155,25122,1,0,0:0:0:0:
481,165,25202,5,2,1:3:0:0:
414,113,25309,5,2,0:3:0:0:
347,61,25415,5,2,0:3:0:0:
452,40,25521,5,2,1:2:0:0:
426,223,25681,1,4,0:3:0:0:
405,229,25761,1,4,0:3:0:0:
384,234,25841,1,4,1:3:0:0:
243,254,26000,1,4,0:3:0:0:
231,236,26080,1,4,0:3:0:0:
220,218,26160,1,4,1:3:0:0:
156,89,26319,5,4,0:3:0:0:
349,129,26479,1,4,1:3:0:0:
309,322,26639,1,4,1:3:0:0:
114,280,26798,6,0,P|30:292|1:373,1,180,6|0,1:2|0:0,0:0:0:0:
79,366,27277,1,8,1:3:0:0:
26,117,27436,2,0,P|18:162|8:206,1,90,4|0,0:3|0:0,0:0:0:0:
190,309,27755,2,0,P|197:264|207:220,1,90,2|6,0:0|0:3,0:0:0:0:
207,220,27995,1,0,0:0:0:0:
207,220,28075,5,2,1:0:0:0:
337,194,28234,1,0,0:0:0:0:
227,127,28394,5,2,0:0:0:0:
190,309,28553,1,2,1:0:0:0:
190,309,28872,5,4,0:3:0:0:
192,322,28952,1,4,0:3:0:0:
200,332,29032,1,4,1:3:0:0:
339,364,29192,1,4,0:3:0:0:
438,240,29351,1,10,1:3:0:0:
493,297,29511,6,0,B|458:326|458:326|352:289|352:289|348:258,1,180,0|8,0:0|1:3,0:0:0:0:
349,266,29910,1,0,0:0:0:0:
349,266,29990,1,4,0:3:0:0:
335,109,30149,1,0,0:0:0:0:
206,200,30309,1,0,0:3:0:0:
206,200,30468,1,4,0:3:0:0:
296,191,30628,5,2,1:0:0:0:
210,38,30787,2,0,P|165:32|121:24,1,90,2|2,0:3|0:3,0:0:0:0:
79,182,31107,5,2,1:0:0:0:
246,122,31266,2,0,P|290:114|335:109,1,90,2|2,0:3|0:3,0:0:0:0:
335,109,31505,1,2,0:3:0:0:
335,109,31585,1,2,1:3:0:0:
210,38,31745,1,2,0:3:0:0:
326,195,31904,1,10,1:3:0:0:
183,169,32064,5,0,0:0:0:0:
252,269,32224,2,0,P|257:312|262:363,1,90,0|10,0:0|1:3,0:0:0:0:
184,361,32463,1,2,0:0:0:0:
184,373,32543,2,0,P|154:339|111:328,1,90,6|0,0:3|0:0,0:0:0:0:
3,253,32862,2,0,P|46:244|78:213,1,90,0|2,0:0|1:2,0:0:0:0:
78,212,33101,1,2,0:0:0:0:
78,212,33181,5,2,1:2:0:0:
60,73,33341,1,2,0:0:0:0:
200,55,33500,1,2,0:0:0:0:
225,190,33660,1,2,1:2:0:0:
145,135,33819,5,2,0:0:0:0:
286,17,33979,1,4,0:3:0:0:
286,17,34059,1,4,0:3:0:0:
286,17,34138,2,0,P|280:60|276:111,1,90,4|4,1:3|0:3,0:0:0:0:
353,197,34458,1,10,1:3:0:0:
469,175,34618,5,4,0:3:0:0:
448,171,34697,1,4,0:3:0:0:
429,184,34777,1,4,0:3:0:0:
276,106,34937,5,2,1:2:0:0:
282,127,35016,1,0,0:0:0:0:
303,137,35096,1,4,0:3:0:0:
313,308,35256,5,4,0:3:0:0:
326,291,35335,1,0,0:0:0:0:
325,269,35415,1,4,0:3:0:0:
353,197,35575,5,4,1:3:0:0:
480,352,35734,2,0,P|442:329|398:323,1,90,2|2,1:2|0:0,0:0:0:0:
262,369,36053,5,2,0:0:0:0:
168,264,36213,1,2,1:2:0:0:
239,143,36372,2,0,P|283:136|321:113,1,90,2|2,0:0|0:0,0:0:0:0:
331,101,36585,5,2,0:0:0:0:
336,87,36638,5,2,0:0:0:0:
335,71,36692,6,0,P|260:46|249:125,1,180,2|2,1:2|1:2,0:0:0:0:
181,198,37170,5,2,0:0:0:0:
119,144,37330,5,2,0:0:0:0:
72,137,37490,5,2,0:0:0:0:
43,143,37649,5,2,0:0:0:0:
26,150,37862,5,2,0:0:0:0:
18,161,38075,5,2,0:0:0:0:
12,169,38128,2,0,L|17:214,1,45,2|2,0:3|0:3,0:0:0:0:
33,339,38287,5,0,1:0:0:0:
52,355,38366,1,0,1:0:0:0:
76,364,38446,1,0,1:0:0:0:
101,365,38526,1,0,1:0:0:0:
126,358,38606,1,0,1:0:0:0:
147,343,38685,1,0,1:0:0:0:
162,323,38765,1,0,1:0:0:0:
170,298,38845,1,0,1:0:0:0:
222,239,38926,5,0,1:0:0:0:
267,196,39005,1,0,1:0:0:0:
330,195,39085,1,0,1:0:0:0:
379,234,39165,1,8,0:3:0:0:
387,296,39245,6,0,L|453:287,1,67.5000025749208,10|0,0:2|0:0,0:0:0:0:
495,131,39564,6,0,P|442:126|401:159,1,107.999996704102,6|0,1:0|0:0,0:0:0:0:
318,116,39803,1,0,0:0:0:0:
309,107,39883,2,0,L|322:0,1,107.999996704102,8|0,0:0|0:0,0:0:0:0:
379,234,40202,6,0,L|325:242,1,53.9999983520508,2|0,1:0|0:0,0:0:0:0:
463,107,40362,1,0,0:0:0:0:
431,294,40521,5,8,0:0:0:0:
275,182,40681,1,4,0:3:0:0:
258,179,40761,1,4,0:3:0:0:
241,176,40841,1,6,1:0:0:0:
138,273,41000,5,0,0:0:0:0:
325,242,41160,1,8,0:0:0:0:
294,55,41319,1,0,0:0:0:0:
132,108,41479,5,2,1:0:0:0:
275,182,41638,1,0,0:0:0:0:
200,325,41798,1,8,0:0:0:0:
57,251,41958,1,0,0:0:0:0:
132,187,42117,6,0,B|138:86|193:155|199:49,1,161.999995056153,6|0,1:2|0:0,0:0:0:0:
107,12,42436,6,0,P|101:37|120:56,1,53.9999983520508,12|0,0:1|0:0,0:0:0:0:
225,228,42596,2,0,P|231:203|213:185,1,53.9999983520508,0|0,1:0|0:0,0:0:0:0:
65,137,42755,5,0,1:0:0:0:
162,124,42915,1,0,0:0:0:0:
259,111,43075,1,12,0:1:0:0:
322,24,43234,5,4,1:3:0:0:
318,39,43314,1,4,0:3:0:0:
314,54,43394,1,4,0:3:0:0:
317,259,43553,6,0,L|290:265,1,26.9999991760254,10|0,1:3|0:0,0:0:0:0:
446,145,43713,6,0,L|452:118,1,26.9999991760254,10|0,1:3|0:0,0:0:0:0:
480,313,43872,6,0,L|499:332,1,26.9999991760254,10|0,1:3|0:0,0:0:0:0:
414,239,44032,5,10,1:3:0:0:
421,15,44192,5,10,1:3:0:0:
421,15,44271,1,2,0:3:0:0:
421,15,44351,2,0,P|432:68|451:118,1,107.999996704102,10|2,0:2|0:0,0:0:0:0:
91,370,44670,6,0,P|80:317|61:267,1,107.999996704102,6|0,1:0|0:0,0:0:0:0:
156,0,44990,5,8,0:0:0:0:
3,196,45149,1,0,0:0:0:0:
62,122,45309,5,2,1:0:0:0:
162,260,45468,1,0,0:0:0:0:
177,265,45548,1,0,0:0:0:0:
192,270,45628,1,8,0:0:0:0:
95,194,45787,6,0,L|147:182,1,53.9999983520508,4|4,0:3|0:3,0:0:0:0:
348,134,45947,5,6,1:0:0:0:
270,275,46107,1,0,0:0:0:0:
287,82,46266,5,8,0:0:0:0:
310,205,46426,1,0,0:0:0:0:
331,326,46585,1,2,1:0:0:0:
204,131,46745,5,0,0:0:0:0:
207,115,46825,1,0,0:0:0:0:
210,99,46904,1,8,0:0:0:0:
353,36,47064,1,0,0:0:0:0:
457,152,47224,5,2,1:2:0:0:
350,29,47383,2,0,L|338:110,1,80.9999975280763,2|10,0:2|0:2,0:0:0:0:
309,270,47702,5,6,0:3:0:0:
309,270,47862,1,2,0:2:0:0:
236,352,48021,5,6,0:3:0:0:
417,293,48181,1,2,0:2:0:0:
276,165,48341,2,2,P|182:152|172:58,1,202.500007724762,6|0,1:2|0:0,0:1:0:0:
178,53,48660,6,0,B|186:26|186:26|173:3,1,53.9999983520508,8|0,0:3|0:0,0:0:0:0:
29,209,48819,5,10,1:3:0:0:
35,231,48898,1,2,0:3:0:0:
51,247,48978,1,10,1:3:0:0:
73,253,49058,1,2,0:3:0:0:
95,246,49138,1,10,1:3:0:0:
110,230,49217,1,2,0:3:0:0:
115,207,49297,1,10,1:3:0:0:
109,186,49377,1,2,0:3:0:0:
116,104,49458,5,10,1:3:0:0:
162,78,49537,1,2,0:3:0:0:
216,82,49617,1,10,1:3:0:0:
258,114,49697,1,10,0:3:0:0:
275,164,49777,6,0,P|369:151|447:132,1,161.999995056153,6|0,1:0|0:0,0:0:0:0:
509,262,50096,2,0,P|471:225|419:223,1,107.999996704102,8|0,0:0|0:0,0:0:0:0:
485,20,50415,2,0,P|471:42|477:68,2,53.9999983520508,2|0|0,1:0|0:0|0:0,0:0:0:0:
418,223,50734,5,8,0:0:0:0:
337,46,50894,1,4,0:3:0:0:
333,61,50974,1,4,0:3:0:0:
329,76,51053,1,6,1:0:0:0:
238,234,51213,5,0,0:0:0:0:
441,300,51372,1,8,0:0:0:0:
238,234,51532,1,0,0:0:0:0:
418,223,51692,5,2,1:0:0:0:
321,345,51851,1,0,0:0:0:0:
174,292,52011,1,8,0:0:0:0:
179,136,52170,1,0,0:0:0:0:
328,93,52330,6,0,P|251:86|216:17,1,161.999995056153,6|0,1:2|0:0,0:0:0:0:
223,6,52649,6,0,P|225:33|210:55,1,53.9999983520508,12|0,0:1|0:0,0:0:0:0:
110,174,52809,2,0,P|86:162|74:139,1,53.9999983520508,0|0,1:0|0:0,0:0:0:0:
12,88,52968,5,0,1:0:0:0:
108,67,53127,1,0,0:0:0:0:
179,136,53287,1,12,0:1:0:0:
102,255,53447,5,4,1:3:0:0:
86,250,53527,1,4,0:3:0:0:
70,245,53607,1,4,0:3:0:0:
239,288,53766,6,0,L|266:294,1,26.9999991760254,10|0,1:3|0:0,0:0:0:0:
76,342,53926,6,0,L|57:361,1,26.9999991760254,10|0,1:3|0:0,0:0:0:0:
110,174,54085,6,0,L|104:147,1,26.9999991760254,10|0,1:3|0:0,0:0:0:0:
142,268,54245,5,10,1:3:0:0:
399,360,54404,5,10,1:3:0:0:
399,360,54484,1,2,0:3:0:0:
399,360,54564,2,0,P|390:306|387:252,1,107.999996704102,10|2,0:2|0:0,0:0:0:0:
112,23,54883,6,0,P|121:77|124:131,1,107.999996704102,6|0,1:0|0:0,0:0:0:0:
27,232,55202,5,8,0:0:0:0:
239,288,55362,1,0,0:0:0:0:
298,152,55521,5,2,1:0:0:0:
163,267,55681,1,0,0:0:0:0:
160,250,55761,1,0,0:0:0:0:
158,233,55841,1,8,0:0:0:0:
324,326,56000,6,0,L|316:273,1,53.9999983520508,4|4,0:3|0:3,0:0:0:0:
246,85,56160,5,6,1:0:0:0:
423,145,56319,1,0,0:0:0:0:
492,79,56479,5,8,0:0:0:0:
335,116,56638,1,0,0:0:0:0:
178,153,56798,1,2,1:0:0:0:
395,0,56958,6,0,L|404:53,1,53.9999983520508,8|0,0:3|0:0,0:0:0:0:
355,209,57117,5,8,0:0:0:0:
246,85,57277,1,0,1:0:0:0:
100,155,57436,6,0,P|93:101|81:48,1,107.999996704102,6|2,1:0|0:0,0:0:0:0:
7,84,57676,1,2,0:0:0:0:
11,95,57755,6,0,P|16:121|20:148,1,53.9999983520508,6|0,0:3|0:0,0:0:0:0:
175,121,57915,2,0,P|171:94|166:68,1,53.9999983520508,2|0,0:0|0:0,0:0:0:0:
415,9,58075,6,0,P|380:48|378:101,1,107.999996704102,6|2,1:0|0:0,0:0:0:0:
490,119,58314,1,2,0:0:0:0:
493,109,58394,6,0,P|479:86|454:78,1,53.9999983520508,6|0,0:3|0:0,0:0:0:0:
304,29,58553,2,0,P|291:52|295:78,1,53.9999983520508,2|0,0:0|0:0,0:0:0:0:
279,231,58713,5,6,1:0:0:0:
428,170,58872,1,8,0:3:0:0:
500,210,59032,5,8,0:3:0:0:
294,78,59192,1,8,0:3:0:0:
316,115,59271,1,0,0:0:0:0:
306,159,59351,1,14,0:3:0:0:
276,191,59431,1,2,0:3:0:0:
247,225,59511,1,10,0:3:0:0:
239,268,59590,1,10,0:3:0:0:
262,306,59670,5,10,0:3:0:0:
276,191,59830,1,10,0:3:0:0:
294,78,59990,1,10,0:3:0:0:
201,357,60309,6,0,B|159:348|159:348|129:312|129:312|84:302,1,135.000005149842,6|4,1:2|0:3,0:0:0:0:
84,302,60548,1,4,0:3:0:0:
84,302,60628,1,4,0:3:0:0:
22,169,60787,2,0,B|31:174|31:174|37:217,2,53.9999983520508,10|0|0,0:3|0:0|0:0,0:0:0:0:
77,107,61107,6,0,B|103:125|103:125|118:227,1,135.000005149842,10|0,1:3|0:0,0:0:0:0:
199,244,61426,5,8,0:3:0:0:
217,151,61585,1,4,0:3:0:0:
235,58,61745,1,10,0:3:0:0:
231,44,61825,1,10,0:3:0:0:
227,31,61904,1,10,0:3:0:0:
147,63,62064,5,10,0:3:0:0:
288,116,62224,1,8,0:0:0:0:
382,0,62383,1,4,0:3:0:0:
315,42,62543,6,0,B|303:144|303:144|306:149|306:149|295:242,1,202.500007724762,6|0,1:2|0:0,0:0:0:0:
295,242,62862,1,4,0:3:0:0:
344,353,63021,1,4,0:3:0:0:
328,357,63101,1,4,0:3:0:0:
312,361,63181,1,4,0:3:0:0:
224,276,63341,6,0,L|171:265,1,53.9999983520508,14|0,0:3|0:0,0:0:0:0:
412,313,63500,1,0,0:0:0:0:
251,350,63660,6,0,B|304:338|304:290|289:299|307:262|351:248|382:271|364:268|396:300|445:268,1,229.500004377365,10|0,1:3|0:0,0:0:0:0:
413,147,63979,6,0,L|405:200,1,53.9999983520508,2|2,0:3|0:3,0:0:0:0:
427,128,64138,6,0,L|419:181,1,53.9999983520508,10|0,0:3|0:0,0:0:0:0:
441,109,64298,6,0,L|433:162,1,53.9999983520508,2|0,0:3|0:0,0:0:0:0:
512,246,64458,5,10,0:3:0:0:
456,31,64617,5,10,0:3:0:0:
464,24,64697,1,2,0:3:0:0:
472,17,64777,2,0,L|418:22,1,53.9999983520508,10|0,0:0|0:0,0:0:0:0:
315,66,64936,2,0,L|261:71,1,53.9999983520508,2|0,0:0|0:0,0:0:0:0:
130,6,65096,6,0,P|174:41|168:97,1,116.999994644165,6|2,1:2|0:0,0:0:0:0:
105,147,65309,5,0,0:0:0:0:
111,156,65362,5,0,0:0:0:0:
116,166,65415,6,0,L|0:155,1,116.999994644165,2|2,0:0|0:0,0:0:0:0:
23,236,65628,5,0,0:0:0:0:
12,238,65681,5,0,0:0:0:0:
0,240,65735,6,0,P|-5:295|38:330,1,116.999994644165,2|10,0:0|0:3,0:0:0:0:
115,334,65947,5,0,0:0:0:0:
122,342,66000,5,0,0:0:0:0:
129,351,66053,6,0,B|148:340|148:340|157:245,1,116.999994644165,2|10,0:0|1:3,0:0:0:0:
235,237,66266,5,0,0:0:0:0:
234,248,66319,5,0,0:0:0:0:
233,259,66372,5,2,0:0:0:0:
356,328,66532,5,2,0:0:0:0:
378,316,66612,1,2,0:0:0:0:
388,295,66692,5,6,0:3:0:0:
385,342,66771,1,2,0:0:0:0:
419,374,66851,1,2,0:0:0:0:
466,367,66931,1,2,0:0:0:0:
491,327,67011,1,14,0:3:0:0:
475,282,67090,1,2,0:0:0:0:
431,266,67170,5,14,0:3:0:0:
394,228,67250,1,2,0:0:0:0:
403,176,67330,1,10,0:0:0:0:
451,155,67410,1,2,0:0:0:0:
485,115,67490,1,2,0:0:0:0:
472,64,67569,1,2,0:0:0:0:
411,16,67649,6,0,B|393:27|393:27|297:14,1,116.999994644165,14|2,1:0|0:0,0:0:0:0:
35,128,67968,1,2,0:0:0:0:
18,96,68048,1,2,0:0:0:0:
28,62,68128,1,2,1:2:0:0:
55,40,68208,1,2,0:0:0:0:
89,37,68287,6,0,P|116:45|134:68,1,58.4999973220826,14|0,1:0|0:0,0:0:0:0:
206,210,68447,2,0,P|198:182|209:155,1,58.4999973220826,2|0,0:0|0:0,0:0:0:0:
297,14,68607,1,2,0:0:0:0:
303,48,68686,1,2,0:0:0:0:
310,82,68766,1,2,1:2:0:0:
317,116,68846,1,2,0:2:0:0:
325,150,68926,6,0,L|317:207,1,58.4999973220826,14|0,1:0|0:0,0:0:0:0:
477,172,69085,2,0,L|484:114,1,58.4999973220826,2|0,0:0|0:0,0:0:0:0:
447,335,69245,5,2,0:0:0:0:
415,292,69325,1,2,0:0:0:0:
365,276,69404,1,2,1:2:0:0:
315,293,69484,1,2,0:0:0:0:
251,338,69564,6,0,B|231:356|231:356|105:342,1,153.000002918243,14|2,1:0|1:2,0:0:0:0:
33,316,69777,5,0,0:0:0:0:
24,303,69830,5,0,0:0:0:0:
24,287,69883,5,0,1:0:0:0:
44,238,69963,1,0,1:0:0:0:
95,225,70043,1,2,1:2:0:0:
143,243,70122,1,0,1:0:0:0:
155,260,70202,6,0,L|147:192,1,67.5000025749208,14|0,1:0|1:0,0:0:0:0:
233,253,70521,2,0,L|225:185,1,67.5000025749208,0|8,1:0|1:3,0:0:0:0:
87,19,70841,6,0,B|135:25|135:25|160:54|160:54|207:61,1,135.000005149842,2|2,1:3|1:3,0:0:0:0:
271,12,71080,1,0,0:0:0:0:
288,18,71160,2,0,L|295:85,1,67.5000025749208,10|2,1:3|1:3,0:0:0:0:
313,210,71479,5,8,1:3:0:0:
386,209,71638,1,0,1:0:0:0:
438,156,71798,1,0,1:0:0:0:
428,82,71958,1,8,1:3:0:0:
374,30,72117,5,0,1:0:0:0:
379,79,72196,1,0,1:0:0:0:
415,113,72276,1,4,1:3:0:0:
463,117,72356,1,0,1:0:0:0:
505,88,72436,5,8,1:3:0:0:
482,225,72596,1,0,1:0:0:0:
459,362,72755,1,4,1:0:0:0:
447,371,72915,6,0,P|428:343|397:331,1,67.5000025749208,0|0,1:0|1:0,0:0:0:0:
294,259,73234,1,8,1:3:0:0:
294,259,73314,1,0,0:0:0:0:
294,259,73394,2,0,P|260:261|234:282,1,67.5000025749208,0|0,1:0|1:0,0:0:0:0:
82,310,73713,2,0,P|67:339|72:372,1,67.5000025749208,8|0,1:3|1:0,0:0:0:0:
160,299,73952,1,0,1:0:0:0:
156,281,74032,5,8,1:3:0:0:
145,260,74111,1,0,1:0:0:0:
128,244,74191,1,0,1:0:0:0:
106,233,74271,1,0,1:0:0:0:
82,230,74351,1,0,1:0:0:0:
58,233,74430,1,0,1:0:0:0:
37,244,74510,1,4,1:3:0:0:
19,260,74590,1,0,1:0:0:0:
82,310,74670,5,0,1:0:0:0:
86,271,74749,1,0,1:0:0:0:
90,233,74829,1,4,1:3:0:0:
95,195,74909,1,0,1:0:0:0:
143,136,74990,5,8,1:3:0:0:
147,97,75069,1,0,1:0:0:0:
151,59,75149,1,0,1:0:0:0:
156,21,75229,1,0,1:0:0:0:
146,6,75309,5,2,0:0:0:0:
233,14,75468,5,2,0:0:0:0:
307,21,75628,5,2,0:0:0:0:
367,26,75787,5,2,0:0:0:0:
414,31,75947,6,0,B|487:18|487:18|471:12,2,90.0000034332277,2|2|2,0:0|0:0|0:0,0:0:0:0:
351,113,76426,6,0,L|384:106,1,33.7500012874604,2|2,0:0|0:0,0:0:0:0:
483,123,76585,2,2,P|502:183|453:223,1,135.000005149842,10|0,0:3|0:0,0:1:0:0:
238,198,77064,6,0,L|228:212,2,16.8750006437302,4|0|0,0:3|0:0|0:0,0:0:0:0:
152,227,77224,6,0,B|128:230|93:220|81:169|81:169|109:126|148:130|168:145,1,202.500007724762,0|0,1:0|0:0,0:0:0:0:
287,257,77543,6,0,B|302:275|310:310|272:346|272:346|220:344|205:308|207:283,1,202.500007724762,0|0,1:0|0:0,0:0:0:0:
246,126,77862,6,0,B|254:103|280:78|331:93|331:93|354:139|331:171|308:181,1,202.500007724762,4|0,1:0|0:0,0:0:0:0:
34,358,78979,5,10,0:3:0:0:
30,341,79059,1,2,0:3:0:0:
26,324,79138,1,10,0:3:0:0:
9,189,79617,6,0,P|70:210|86:273,1,135,2|0,0:3|0:0,0:0:0:0:
85,273,79936,1,2,0:3:0:0:
189,367,80096,2,0,P|227:315|292:320,1,135,10|0,0:3|0:0,0:0:0:0:
292,320,80415,5,10,0:3:0:0:
478,358,81532,5,10,0:3:0:0:
482,341,81612,1,2,0:3:0:0:
486,324,81691,1,10,0:3:0:0:
478,26,82170,5,2,0:3:0:0:
482,43,82250,1,2,0:3:0:0:
486,60,82329,1,6,0:3:0:0:
389,183,82490,1,2,0:0:0:0:
242,129,82649,2,0,P|249:84|251:39,1,90,10|2,0:0|0:0,0:0:0:0:
88,4,82968,5,6,1:0:0:0:
163,203,83128,1,0,0:0:0:0:
321,122,83287,5,8,0:0:0:0:
116,80,83447,1,0,0:0:0:0:
30,204,83607,5,2,1:0:0:0:
192,108,83766,1,0,0:0:0:0:
195,92,83846,1,0,0:0:0:0:
198,76,83926,1,8,0:0:0:0:
285,253,84085,6,0,L|293:199,1,53.9999983520508,4|4,0:3|0:3,0:0:0:0:
375,69,84245,5,6,1:0:0:0:
450,215,84404,1,0,0:0:0:0:
432,13,84564,5,8,0:0:0:0:
414,142,84724,1,0,0:0:0:0:
396,270,84883,1,2,1:0:0:0:
494,149,85043,5,0,0:0:0:0:
492,133,85122,1,0,0:0:0:0:
490,116,85202,1,8,0:0:0:0:
357,198,85362,1,0,0:0:0:0:
238,97,85521,5,2,1:2:0:0:
360,205,85681,2,0,L|372:124,1,80.9999975280763,2|10,0:2|0:2,0:0:0:0:
240,276,86000,5,6,0:3:0:0:
240,276,86160,1,2,0:2:0:0:
215,174,86319,5,6,0:3:0:0:
343,306,86479,1,2,0:2:0:0:
162,351,86638,2,2,P|69:364|30:278,1,202.500007724762,6|0,1:2|0:0,0:1:0:0:
20,275,86958,6,0,P|44:263|57:239,1,53.9999983520508,8|0,0:3|0:0,0:0:0:0:
3,59,87117,5,10,1:3:0:0:
8,36,87196,1,2,0:3:0:0:
24,20,87276,1,10,1:3:0:0:
46,15,87356,1,2,0:3:0:0:
68,21,87436,1,10,1:3:0:0:
83,39,87515,1,2,0:3:0:0:
87,61,87595,1,10,1:3:0:0:
79,82,87675,1,2,0:3:0:0:
89,161,87755,5,10,1:3:0:0:
132,191,87834,1,2,0:3:0:0:
185,188,87914,1,10,1:3:0:0:
226,154,87994,1,10,0:3:0:0:
237,102,88075,6,0,P|222:182|211:262,1,161.999995056153,6|0,1:0|0:0,0:0:0:0:
308,344,88394,2,0,P|321:294|291:252,1,107.999996704102,8|0,0:0|0:0,0:0:0:0:
163,343,88633,1,0,0:0:0:0:
176,355,88713,2,0,P|202:349|228:340,2,53.9999983520508,2|0|0,1:0|0:0|0:0,0:0:0:0:
405,215,89032,6,0,P|379:205|353:199,1,53.9999983520508,8|0,0:0|0:0,0:0:0:0:
228,340,89192,1,4,0:3:0:0:
220,326,89271,1,4,0:3:0:0:
222,309,89351,1,6,1:0:0:0:
363,102,89511,5,0,0:0:0:0:
291,252,89670,1,8,0:0:0:0:
124,231,89830,1,0,0:0:0:0:
99,95,89990,5,2,1:0:0:0:
202,222,90149,1,0,0:0:0:0:
355,164,90309,1,8,0:0:0:0:
346,0,90468,1,0,0:0:0:0:
245,109,90628,6,0,P|323:91|400:65,1,161.999995056153,6|0,1:2|0:0,0:0:0:0:
474,166,90947,2,0,P|456:146|431:138,1,53.9999983520508,12|0,0:1|0:0,0:0:0:0:
222,32,91107,2,0,P|247:23|265:3,1,53.9999983520508,0|0,1:0|0:0,0:0:0:0:
400,64,91266,5,0,1:0:0:0:
351,146,91426,1,0,0:0:0:0:
412,219,91585,1,12,0:1:0:0:
494,74,91745,5,4,1:3:0:0:
497,58,91825,1,4,0:3:0:0:
500,42,91904,1,4,0:3:0:0:
249,273,92064,6,0,L|230:292,1,26.9999991760254,10|0,1:3|0:0,0:0:0:0:
412,219,92224,6,0,L|439:225,1,26.9999991760254,10|0,1:3|0:0,0:0:0:0:
283,105,92383,6,0,L|277:78,1,26.9999991760254,10|0,1:3|0:0,0:0:0:0:
315,199,92543,5,10,1:3:0:0:
113,11,92702,5,10,1:3:0:0:
113,11,92782,1,2,0:3:0:0:
113,11,92862,2,0,P|106:64|91:117,1,107.999996704102,10|2,0:2|0:0,0:0:0:0:
399,373,93181,6,0,P|406:320|421:267,1,107.999996704102,6|0,1:0|0:0,0:0:0:0:
496,198,93500,5,8,0:0:0:0:
283,105,93660,1,0,0:0:0:0:
510,31,93819,5,2,1:0:0:0:
380,141,93979,1,0,0:0:0:0:
364,146,94059,1,0,0:0:0:0:
349,151,94138,1,8,0:0:0:0:
471,284,94298,6,0,P|445:274|420:267,1,53.9999983520508,4|4,0:3|0:3,0:0:0:0:
229,279,94458,5,6,1:0:0:0:
283,105,94617,1,0,0:0:0:0:
221,35,94777,5,8,0:0:0:0:
256,192,94936,1,0,0:0:0:0:
291,349,95096,1,2,1:0:0:0:
102,222,95255,6,0,P|133:215|165:211,1,62.9999980773926,8|0,0:3|0:0,0:0:0:0:
409,161,95415,6,0,P|378:168|346:172,1,62.9999980773926,8|0,0:0|0:0,0:0:0:0:
256,192,95575,5,0,1:0:0:0:
138,49,95734,6,0,P|149:101|120:145,1,107.999996704102,6|2,1:0|0:0,0:0:0:0:
41,161,95974,1,2,0:0:0:0:
45,170,96053,6,0,P|18:168|0:149,1,53.9999983520508,6|0,0:3|0:0,0:0:0:0:
83,15,96213,2,0,P|109:16|128:35,1,53.9999983520508,2|0,0:0|0:0,0:0:0:0:
153,225,96372,6,0,P|142:276|171:320,1,107.999996704102,6|2,1:0|0:0,0:0:0:0:
251,337,96612,1,2,0:0:0:0:
247,346,96691,6,0,P|273:344|292:325,1,53.9999983520508,6|0,0:3|0:0,0:0:0:0:
209,191,96851,2,0,P|182:192|163:211,1,53.9999983520508,2|0,0:0|0:0,0:0:0:0:
372,368,97011,6,0,P|377:314|390:261,1,107.999996704102,6|8,1:0|0:3,0:0:0:0:
487,160,97330,5,8,0:3:0:0:
288,205,97490,1,8,0:3:0:0:
413,186,97649,5,12,0:3:0:0:
222,81,97809,1,8,0:0:0:0:
226,97,97889,1,8,0:0:0:0:
230,113,97968,1,8,1:0:0:0:
474,30,98128,6,0,P|465:56|460:83,1,53.9999983520508,0|0,1:0|0:0,0:0:0:0:
288,205,98287,2,0,P|296:258|298:312,1,107.999996704102,6|0,1:0|1:0,0:0:0:0:
227,349,98527,5,0,1:0:0:0:
192,365,98607,1,8,1:3:0:0:
155,356,98686,1,0,1:0:0:0:
134,324,98766,1,4,1:3:0:0:
133,286,98846,1,0,1:0:0:0:
156,257,98926,6,0,P|180:247|207:252,1,53.9999983520508,6|0,1:0|1:0,0:0:0:0:
350,220,99085,5,0,1:0:0:0:
385,165,99164,1,0,1:0:0:0:
343,116,99244,1,8,1:3:0:0:
283,140,99324,1,0,1:0:0:0:
288,205,99404,1,4,1:3:0:0:
381,300,99564,5,14,1:0:0:0:
363,30,99723,1,8,1:0:0:0:
221,261,99883,1,8,1:0:0:0:
471,157,100042,1,8,1:0:0:0:
208,93,100202,1,8,1:0:0:0:
330,168,100362,5,2,0:0:0:0:
332,161,100415,5,2,0:0:0:0:
334,154,100468,5,2,0:0:0:0:
336,147,100521,6,0,L|343:120,1,26.9999991760254,10|0,0:3|0:0,0:0:0:0:
