osu file format v14

[General]
AudioFilename: tempest_zone_-code_blood-.mp3
AudioLeadIn: 2000
PreviewTime: -1
Countdown: 1
SampleSet: None
StackLeniency: 0.7
Mode: 1
LetterboxInBreaks: 1
WidescreenStoryboard: 1

[Editor]
DistanceSpacing: 0.1
BeatDivisor: 4
GridSize: 32
TimelineZoom: 2.1

[Metadata]
Title:TEMPEST ZONE -code BLOOD-
TitleUnicode:TEMPEST ZONE -code BLOOD-
Artist:U-F SEQUENCER
ArtistUnicode:U-F SEQUENCER
Creator:Nyan
Version:Taiko Inner Oni (OD7)
Source:
Tags:
BeatmapID:1433533
BeatmapSetID:653906

[Difficulty]
HPDrainRate:5
CircleSize:2
OverallDifficulty:7
ApproachRate:0
SliderMultiplier:1.4
SliderTickRate:1

[Events]
//Background and Video events
0,0,"bb55770c20d0ce0b53688cec26e780b5a2d0c749.jpg",0,0
//Break Periods
//Storyboard Layer 0 (Background)
//Storyboard Layer 1 (Fail)
//Storyboard Layer 2 (Pass)
//Storyboard Layer 3 (Foreground)
//Storyboard Sound Samples

[TimingPoints]
4510,300,4,1,0,80,1,0
19210,300,4,1,0,100,1,1
19360,-100,4,1,0,100,0,0
26410,-100,4,1,0,75,0,0
26710,-90.9090909090909,4,1,0,75,0,0
27010,-83.3333333333333,4,1,0,75,0,0
28810,-100,4,1,0,100,0,0
36010,-100,4,1,0,75,0,0
38485,-133.333333333333,4,1,0,40,0,0
42985,-125,4,1,0,100,0,0
43285,-125,4,1,0,70,0,0
44410,-119.047619047619,4,1,0,70,0,0
44710,-113.636363636364,4,1,0,70,0,0
45010,-108.695652173913,4,1,0,70,0,0
45310,-104.166666666667,4,1,0,70,0,0
45610,-100,4,1,0,80,0,0
46810,-100,4,1,0,5,0,0
48010,-100,4,1,0,100,0,1
67210,-100,4,1,0,100,0,0
75310,-66.6666666666667,4,1,0,100,0,0
76210,300,4,1,0,100,1,0
80410,-66.6666666666667,4,1,0,100,0,0
80710,300,4,1,0,100,1,0
85510,-100,4,1,0,100,0,1
85660,-100,4,1,0,100,0,0
107110,-100,4,1,0,100,0,1
126010,-100,4,1,0,100,0,0
130510,-100,4,1,0,20,0,0
131110,-100,4,1,0,100,0,0
134710,-66.6666666666667,4,1,0,20,0,0
135910,-90.9090909090909,4,1,0,70,0,0
140110,-55.5555555555556,4,1,0,5,0,0
140710,-80,4,1,0,35,0,0

[HitObjects]
256,192,10,5,0,0:0:0:0:
256,192,85,1,2,0:0:0:0:
256,192,160,1,2,0:0:0:0:
256,192,310,1,2,0:0:0:0:
256,192,385,1,2,0:0:0:0:
256,192,535,1,2,0:0:0:0:
256,192,610,1,2,0:0:0:0:
256,192,685,1,2,0:0:0:0:
256,192,760,1,2,0:0:0:0:
256,192,910,1,2,0:0:0:0:
256,192,985,1,2,0:0:0:0:
256,192,1060,1,2,0:0:0:0:
256,192,1135,1,2,0:0:0:0:
256,192,1210,1,2,0:0:0:0:
256,192,1360,1,2,0:0:0:0:
256,192,1435,1,2,0:0:0:0:
256,192,1510,1,2,0:0:0:0:
256,192,1660,1,2,0:0:0:0:
256,192,1735,1,2,0:0:0:0:
256,192,1810,1,2,0:0:0:0:
256,192,1885,1,2,0:0:0:0:
256,192,1960,1,2,0:0:0:0:
256,192,2110,1,2,0:0:0:0:
256,192,2185,1,2,0:0:0:0:
256,192,2335,1,2,0:0:0:0:
256,192,2410,1,2,0:0:0:0:
256,192,2485,1,2,0:0:0:0:
256,192,2560,1,2,0:0:0:0:
256,192,2710,1,2,0:0:0:0:
256,192,2785,1,2,0:0:0:0:
256,192,2935,1,2,0:0:0:0:
256,192,3010,1,2,0:0:0:0:
256,192,3085,1,2,0:0:0:0:
256,192,3160,1,2,0:0:0:0:
256,192,3310,1,2,0:0:0:0:
256,192,3385,1,2,0:0:0:0:
256,192,3460,1,2,0:0:0:0:
256,192,3535,1,2,0:0:0:0:
256,192,3610,1,2,0:0:0:0:
256,192,3760,1,2,0:0:0:0:
256,192,3835,1,2,0:0:0:0:
256,192,3910,1,2,0:0:0:0:
256,192,4060,1,2,0:0:0:0:
256,192,4135,1,2,0:0:0:0:
256,192,4210,1,2,0:0:0:0:
256,192,4285,1,2,0:0:0:0:
256,192,4360,1,2,0:0:0:0:
256,192,4510,1,0,0:0:0:0:
256,192,4585,1,2,0:0:0:0:
256,192,4735,1,0,0:0:0:0:
256,192,4810,1,2,0:0:0:0:
256,192,4885,1,2,0:0:0:0:
256,192,4960,1,2,0:0:0:0:
256,192,5110,1,2,0:0:0:0:
256,192,5185,1,2,0:0:0:0:
256,192,5335,1,2,0:0:0:0:
256,192,5410,1,2,0:0:0:0:
256,192,5485,1,2,0:0:0:0:
256,192,5560,1,2,0:0:0:0:
256,192,5710,1,0,0:0:0:0:
256,192,5785,1,2,0:0:0:0:
256,192,5860,1,2,0:0:0:0:
256,192,5935,1,2,0:0:0:0:
256,192,6010,1,2,0:0:0:0:
256,192,6160,1,2,0:0:0:0:
256,192,6235,1,2,0:0:0:0:
256,192,6310,1,2,0:0:0:0:
256,192,6460,1,0,0:0:0:0:
256,192,6535,1,2,0:0:0:0:
256,192,6610,1,2,0:0:0:0:
256,192,6685,1,2,0:0:0:0:
256,192,6760,1,2,0:0:0:0:
256,192,6910,1,2,0:0:0:0:
256,192,6985,1,2,0:0:0:0:
256,192,7135,1,2,0:0:0:0:
256,192,7210,1,2,0:0:0:0:
256,192,7285,1,2,0:0:0:0:
256,192,7360,1,2,0:0:0:0:
256,192,7510,1,2,0:0:0:0:
256,192,7585,1,2,0:0:0:0:
256,192,7735,1,2,0:0:0:0:
256,192,7810,1,2,0:0:0:0:
256,192,7885,1,2,0:0:0:0:
256,192,7960,1,2,0:0:0:0:
256,192,8110,1,2,0:0:0:0:
256,192,8185,1,2,0:0:0:0:
256,192,8260,1,2,0:0:0:0:
256,192,8335,1,2,0:0:0:0:
256,192,8410,1,2,0:0:0:0:
256,192,8560,1,2,0:0:0:0:
256,192,8635,1,2,0:0:0:0:
256,192,8710,1,2,0:0:0:0:
256,192,8860,1,2,0:0:0:0:
256,192,8935,1,2,0:0:0:0:
256,192,9010,1,2,0:0:0:0:
256,192,9085,1,2,0:0:0:0:
256,192,9160,1,2,0:0:0:0:
256,192,9310,5,4,0:0:0:0:
256,192,9610,1,2,0:0:0:0:
256,192,9685,1,2,0:0:0:0:
256,192,9760,1,2,0:0:0:0:
256,192,9835,1,2,0:0:0:0:
256,192,9910,1,0,0:0:0:0:
256,192,9985,1,2,0:0:0:0:
256,192,10135,1,2,0:0:0:0:
256,192,10210,1,2,0:0:0:0:
256,192,10285,1,2,0:0:0:0:
256,192,10360,1,2,0:0:0:0:
256,192,10510,1,0,0:0:0:0:
256,192,10585,1,0,0:0:0:0:
256,192,10660,1,2,0:0:0:0:
256,192,10735,1,2,0:0:0:0:
256,192,10810,1,2,0:0:0:0:
256,192,10960,1,0,0:0:0:0:
256,192,11035,1,2,0:0:0:0:
256,192,11110,1,2,0:0:0:0:
256,192,11260,1,0,0:0:0:0:
256,192,11335,1,0,0:0:0:0:
256,192,11410,1,2,0:0:0:0:
256,192,11485,1,2,0:0:0:0:
256,192,11560,1,2,0:0:0:0:
256,192,11710,1,0,0:0:0:0:
256,192,11785,1,2,0:0:0:0:
256,192,11935,1,0,0:0:0:0:
256,192,12010,1,0,0:0:0:0:
256,192,12085,1,2,0:0:0:0:
256,192,12160,1,2,0:0:0:0:
256,192,12310,1,0,0:0:0:0:
256,192,12385,1,2,0:0:0:0:
256,192,12535,1,2,0:0:0:0:
256,192,12610,1,2,0:0:0:0:
256,192,12685,1,2,0:0:0:0:
256,192,12760,1,2,0:0:0:0:
256,192,12910,1,2,0:0:0:0:
256,192,12985,1,2,0:0:0:0:
256,192,13060,1,2,0:0:0:0:
256,192,13135,1,2,0:0:0:0:
256,192,13210,1,0,0:0:0:0:
256,192,13360,1,2,0:0:0:0:
256,192,13435,1,2,0:0:0:0:
256,192,13510,1,0,0:0:0:0:
256,192,13660,1,0,0:0:0:0:
256,192,13735,1,0,0:0:0:0:
256,192,13810,1,2,0:0:0:0:
256,192,13885,1,2,0:0:0:0:
256,192,13960,1,2,0:0:0:0:
256,192,14035,1,2,0:0:0:0:
256,192,14110,1,0,0:0:0:0:
256,192,14185,1,0,0:0:0:0:
256,192,14260,1,0,0:0:0:0:
256,192,14335,1,0,0:0:0:0:
256,192,14410,1,2,0:0:0:0:
256,192,14485,1,2,0:0:0:0:
256,192,14560,1,0,0:0:0:0:
256,192,14710,1,2,0:0:0:0:
256,192,14860,1,0,0:0:0:0:
256,192,14935,1,0,0:0:0:0:
256,192,15010,1,0,0:0:0:0:
256,192,15085,1,0,0:0:0:0:
224,192,15160,1,2,0:0:0:0:
224,192,15310,1,0,0:0:0:0:
224,192,15385,1,0,0:0:0:0:
224,192,15460,1,0,0:0:0:0:
224,192,15535,1,0,0:0:0:0:
256,192,15610,1,2,0:0:0:0:
256,192,15760,1,0,0:0:0:0:
256,192,15835,1,0,0:0:0:0:
256,192,15910,1,2,0:0:0:0:
256,192,16060,1,2,0:0:0:0:
256,192,16135,1,2,0:0:0:0:
256,192,16210,1,0,0:0:0:0:
256,192,16285,1,0,0:0:0:0:
256,192,16360,1,2,0:0:0:0:
256,192,16510,1,2,0:0:0:0:
256,192,16585,1,2,0:0:0:0:
256,192,16660,1,2,0:0:0:0:
256,192,16735,1,2,0:0:0:0:
256,192,16810,1,0,0:0:0:0:
256,192,16960,1,2,0:0:0:0:
256,192,17035,1,2,0:0:0:0:
256,192,17110,1,0,0:0:0:0:
256,192,17260,1,2,0:0:0:0:
256,192,17335,1,2,0:0:0:0:
256,192,17410,1,0,0:0:0:0:
256,192,17485,1,2,0:0:0:0:
256,192,17560,1,2,0:0:0:0:
256,192,17710,1,0,0:0:0:0:
256,192,17860,1,2,0:0:0:0:
256,192,17935,1,2,0:0:0:0:
256,192,18010,1,0,0:0:0:0:
256,192,18085,1,2,0:0:0:0:
256,192,18160,1,0,0:0:0:0:
256,192,18310,1,2,0:0:0:0:
256,192,18385,1,2,0:0:0:0:
256,192,18460,1,0,0:0:0:0:
256,192,18535,1,2,0:0:0:0:
256,192,18610,1,0,0:0:0:0:
256,192,18685,1,2,0:0:0:0:
256,192,18760,1,2,0:0:0:0:
256,192,18835,1,2,0:0:0:0:
256,192,18910,1,2,0:0:0:0:
256,192,18960,1,2,0:0:0:0:
256,192,19010,1,2,0:0:0:0:
256,192,19060,1,0,0:0:0:0:
256,192,19210,1,4,0:0:0:0:
256,192,19360,1,0,0:0:0:0:
256,192,19435,1,0,0:0:0:0:
256,192,19510,1,2,0:0:0:0:
256,192,19660,1,2,0:0:0:0:
256,192,19735,1,0,0:0:0:0:
256,192,19810,1,0,0:0:0:0:
256,192,19885,1,0,0:0:0:0:
256,192,19960,1,2,0:0:0:0:
256,192,20110,1,0,0:0:0:0:
256,192,20185,1,0,0:0:0:0:
256,192,20260,1,2,0:0:0:0:
256,192,20410,1,4,0:0:0:0:
256,192,20560,1,0,0:0:0:0:
256,192,20635,1,0,0:0:0:0:
256,192,20710,1,2,0:0:0:0:
256,192,20860,1,0,0:0:0:0:
256,192,20935,1,0,0:0:0:0:
256,192,21010,1,0,0:0:0:0:
256,192,21085,1,2,0:0:0:0:
256,192,21160,1,0,0:0:0:0:
256,192,21235,1,0,0:0:0:0:
256,192,21310,1,2,0:0:0:0:
256,192,21460,1,2,0:0:0:0:
256,192,21610,1,4,0:0:0:0:
256,192,21760,1,0,0:0:0:0:
256,192,21835,1,0,0:0:0:0:
256,192,21910,1,2,0:0:0:0:
256,192,22060,1,2,0:0:0:0:
256,192,22135,1,0,0:0:0:0:
256,192,22210,1,0,0:0:0:0:
256,192,22285,1,0,0:0:0:0:
256,192,22360,1,2,0:0:0:0:
256,192,22510,1,2,0:0:0:0:
256,192,22585,1,2,0:0:0:0:
256,192,22660,1,0,0:0:0:0:
256,192,22735,1,2,0:0:0:0:
256,192,22810,1,0,0:0:0:0:
256,192,22885,1,2,0:0:0:0:
256,192,22960,1,0,0:0:0:0:
256,192,23035,1,0,0:0:0:0:
256,192,23110,1,2,0:0:0:0:
256,192,23260,1,2,0:0:0:0:
256,192,23335,1,2,0:0:0:0:
256,192,23410,1,0,0:0:0:0:
256,192,23485,1,2,0:0:0:0:
256,192,23560,1,0,0:0:0:0:
256,192,23635,1,0,0:0:0:0:
256,192,23710,1,2,0:0:0:0:
256,192,23785,1,0,0:0:0:0:
256,192,23860,1,2,0:0:0:0:
256,192,23935,1,0,0:0:0:0:
256,192,24010,1,0,0:0:0:0:
256,192,24160,1,0,0:0:0:0:
256,192,24235,1,0,0:0:0:0:
256,192,24310,1,2,0:0:0:0:
256,192,24460,1,2,0:0:0:0:
256,192,24535,1,0,0:0:0:0:
256,192,24610,1,0,0:0:0:0:
256,192,24685,1,0,0:0:0:0:
256,192,24760,1,2,0:0:0:0:
256,192,24835,1,0,0:0:0:0:
256,192,24910,1,0,0:0:0:0:
256,192,25060,1,2,0:0:0:0:
256,192,25210,1,0,0:0:0:0:
256,192,25285,1,2,0:0:0:0:
256,192,25360,1,0,0:0:0:0:
256,192,25435,1,0,0:0:0:0:
256,192,25510,1,0,0:0:0:0:
256,192,25585,1,2,0:0:0:0:
256,192,25660,1,2,0:0:0:0:
256,192,25810,1,0,0:0:0:0:
256,192,25885,1,0,0:0:0:0:
256,192,25960,1,0,0:0:0:0:
256,192,26035,1,0,0:0:0:0:
256,192,26110,1,2,0:0:0:0:
256,192,26260,1,0,0:0:0:0:
256,192,26335,1,2,0:0:0:0:
256,192,26410,1,2,0:0:0:0:
256,192,26710,1,0,0:0:0:0:
256,192,27010,1,2,0:0:0:0:
256,192,27160,1,0,0:0:0:0:
256,192,27235,1,0,0:0:0:0:
256,192,27310,1,2,0:0:0:0:
256,192,27460,1,0,0:0:0:0:
256,192,27535,1,0,0:0:0:0:
256,192,27610,1,0,0:0:0:0:
256,192,27685,1,2,0:0:0:0:
256,192,27760,1,0,0:0:0:0:
256,192,27835,1,0,0:0:0:0:
256,192,27910,1,2,0:0:0:0:
256,192,27985,1,2,0:0:0:0:
256,192,28060,1,2,0:0:0:0:
256,192,28135,1,2,0:0:0:0:
256,192,28210,1,0,0:0:0:0:
256,192,28285,1,0,0:0:0:0:
256,192,28360,1,0,0:0:0:0:
256,192,28435,1,0,0:0:0:0:
256,192,28510,1,2,0:0:0:0:
256,192,28560,1,2,0:0:0:0:
256,192,28610,1,2,0:0:0:0:
256,192,28660,1,0,0:0:0:0:
256,192,28810,1,4,0:0:0:0:
256,192,28960,1,0,0:0:0:0:
256,192,29035,1,0,0:0:0:0:
256,192,29110,1,2,0:0:0:0:
256,192,29260,1,2,0:0:0:0:
256,192,29335,1,0,0:0:0:0:
256,192,29410,1,0,0:0:0:0:
256,192,29485,1,0,0:0:0:0:
256,192,29560,1,2,0:0:0:0:
256,192,29710,1,0,0:0:0:0:
256,192,29785,1,0,0:0:0:0:
256,192,29860,1,2,0:0:0:0:
256,192,30010,1,0,0:0:0:0:
256,192,30085,1,0,0:0:0:0:
256,192,30160,1,0,0:0:0:0:
256,192,30235,1,0,0:0:0:0:
256,192,30310,1,2,0:0:0:0:
256,192,30460,1,0,0:0:0:0:
256,192,30535,1,2,0:0:0:0:
256,192,30610,1,0,0:0:0:0:
256,192,30685,1,2,0:0:0:0:
256,192,30760,1,0,0:0:0:0:
256,192,30835,1,0,0:0:0:0:
256,192,30910,1,2,0:0:0:0:
256,192,30985,1,0,0:0:0:0:
256,192,31060,1,2,0:0:0:0:
256,192,31210,1,4,0:0:0:0:
256,192,31360,1,0,0:0:0:0:
256,192,31435,1,0,0:0:0:0:
256,192,31510,1,2,0:0:0:0:
256,192,31660,1,2,0:0:0:0:
256,192,31735,1,0,0:0:0:0:
256,192,31810,1,0,0:0:0:0:
256,192,31885,1,0,0:0:0:0:
256,192,31960,1,2,0:0:0:0:
256,192,32035,1,0,0:0:0:0:
256,192,32110,1,0,0:0:0:0:
256,192,32260,1,2,0:0:0:0:
256,192,32335,1,0,0:0:0:0:
256,192,32410,1,2,0:0:0:0:
256,192,32485,1,0,0:0:0:0:
256,192,32560,1,2,0:0:0:0:
256,192,32635,1,0,0:0:0:0:
256,192,32710,1,2,0:0:0:0:
256,192,32785,1,0,0:0:0:0:
256,192,32860,1,2,0:0:0:0:
256,192,32935,1,2,0:0:0:0:
256,192,33010,1,0,0:0:0:0:
256,192,33085,1,2,0:0:0:0:
256,192,33160,1,0,0:0:0:0:
256,192,33235,1,0,0:0:0:0:
256,192,33310,1,2,0:0:0:0:
256,192,33460,1,2,0:0:0:0:
256,192,33535,1,2,0:0:0:0:
256,192,33610,1,0,0:0:0:0:
256,192,33685,1,2,0:0:0:0:
256,192,33760,1,0,0:0:0:0:
256,192,33835,1,0,0:0:0:0:
256,192,33910,1,2,0:0:0:0:
256,192,34060,1,2,0:0:0:0:
256,192,34135,1,0,0:0:0:0:
256,192,34210,1,0,0:0:0:0:
256,192,34285,1,0,0:0:0:0:
256,192,34360,1,2,0:0:0:0:
256,192,34435,1,0,0:0:0:0:
256,192,34510,1,0,0:0:0:0:
256,192,34585,1,0,0:0:0:0:
256,192,34660,1,2,0:0:0:0:
256,192,34810,1,0,0:0:0:0:
256,192,34885,1,2,0:0:0:0:
256,192,34960,1,0,0:0:0:0:
256,192,35035,1,0,0:0:0:0:
256,192,35110,1,0,0:0:0:0:
256,192,35185,1,2,0:0:0:0:
256,192,35260,1,2,0:0:0:0:
256,192,35410,1,0,0:0:0:0:
256,192,35485,1,0,0:0:0:0:
256,192,35560,1,0,0:0:0:0:
256,192,35635,1,0,0:0:0:0:
256,192,35710,1,2,0:0:0:0:
256,192,35785,1,2,0:0:0:0:
256,192,35860,1,2,0:0:0:0:
256,192,35935,1,2,0:0:0:0:
256,192,36010,1,0,0:0:0:0:
256,192,36085,1,2,0:0:0:0:
256,192,36160,1,2,0:0:0:0:
256,192,36310,1,0,0:0:0:0:
256,192,36385,1,2,0:0:0:0:
256,192,36535,1,2,0:0:0:0:
256,192,36610,1,2,0:0:0:0:
256,192,36760,1,2,0:0:0:0:
256,192,36835,1,2,0:0:0:0:
256,192,36910,1,0,0:0:0:0:
256,192,37060,1,2,0:0:0:0:
256,192,37210,1,2,0:0:0:0:
256,192,37360,1,2,0:0:0:0:
256,192,37435,1,2,0:0:0:0:
256,192,37510,1,0,0:0:0:0:
256,192,37585,1,0,0:0:0:0:
256,192,37660,1,2,0:0:0:0:
256,192,37810,1,0,0:0:0:0:
256,192,37885,1,0,0:0:0:0:
256,192,37960,1,0,0:0:0:0:
256,192,38035,1,0,0:0:0:0:
256,192,38110,1,2,0:0:0:0:
256,192,38185,1,2,0:0:0:0:
256,192,38260,1,2,0:0:0:0:
256,192,38335,1,2,0:0:0:0:
256,192,38410,1,0,0:0:0:0:
256,192,38560,1,2,0:0:0:0:
256,192,38710,1,0,0:0:0:0:
256,192,38785,1,0,0:0:0:0:
256,192,38860,1,0,0:0:0:0:
256,192,38935,1,0,0:0:0:0:
256,192,39010,1,2,0:0:0:0:
256,192,39160,1,0,0:0:0:0:
256,192,39310,1,0,0:0:0:0:
256,192,39385,1,0,0:0:0:0:
256,192,39460,1,2,0:0:0:0:
256,192,39610,1,0,0:0:0:0:
256,192,39660,1,0,0:0:0:0:
256,192,39710,1,0,0:0:0:0:
256,192,39760,1,0,0:0:0:0:
256,192,39910,1,2,0:0:0:0:
256,192,40060,1,0,0:0:0:0:
256,192,40110,1,0,0:0:0:0:
256,192,40160,1,0,0:0:0:0:
256,192,40210,1,0,0:0:0:0:
256,192,40360,1,2,0:0:0:0:
256,192,40510,1,0,0:0:0:0:
256,192,40660,1,2,0:0:0:0:
256,192,40735,1,2,0:0:0:0:
256,192,40810,1,0,0:0:0:0:
256,192,40885,1,2,0:0:0:0:
256,192,40960,1,0,0:0:0:0:
256,192,41110,1,2,0:0:0:0:
256,192,41160,1,2,0:0:0:0:
256,192,41210,1,2,0:0:0:0:
256,192,41260,1,2,0:0:0:0:
256,192,41410,1,0,0:0:0:0:
256,192,41560,1,0,0:0:0:0:
256,192,41710,1,0,0:0:0:0:
256,192,41785,1,0,0:0:0:0:
256,192,41860,1,2,0:0:0:0:
256,192,42010,1,0,0:0:0:0:
256,192,42060,1,0,0:0:0:0:
256,192,42110,1,0,0:0:0:0:
256,192,42160,1,0,0:0:0:0:
256,192,42310,1,2,0:0:0:0:
256,192,42460,1,0,0:0:0:0:
256,192,42510,1,0,0:0:0:0:
256,192,42560,1,0,0:0:0:0:
256,192,42610,1,0,0:0:0:0:
256,192,42760,1,2,0:0:0:0:
256,192,42910,1,2,0:0:0:0:
256,192,43060,1,4,0:0:0:0:
256,192,43210,1,4,0:0:0:0:
256,192,43360,1,2,0:0:0:0:
256,192,43510,1,0,0:0:0:0:
256,192,43560,1,0,0:0:0:0:
256,192,43610,1,0,0:0:0:0:
256,192,43660,1,0,0:0:0:0:
256,192,43810,1,0,0:0:0:0:
256,192,43960,1,0,0:0:0:0:
256,192,44110,1,0,0:0:0:0:
256,192,44185,1,0,0:0:0:0:
256,192,44260,1,2,0:0:0:0:
256,192,44410,1,0,0:0:0:0:
256,192,44460,1,0,0:0:0:0:
256,192,44510,1,0,0:0:0:0:
256,192,44560,1,0,0:0:0:0:
256,192,44710,1,2,0:0:0:0:
256,192,44860,1,0,0:0:0:0:
256,192,44910,1,0,0:0:0:0:
256,192,44960,1,0,0:0:0:0:
256,192,45010,1,0,0:0:0:0:
256,192,45160,1,2,0:0:0:0:
256,192,45310,1,2,0:0:0:0:
256,192,45460,1,0,0:0:0:0:
256,192,45535,1,0,0:0:0:0:
256,192,45610,1,0,0:0:0:0:
256,192,45760,1,2,0:0:0:0:
256,192,45835,1,2,0:0:0:0:
256,192,45910,1,0,0:0:0:0:
256,192,46060,1,2,0:0:0:0:
256,192,46135,1,2,0:0:0:0:
256,192,46210,1,0,0:0:0:0:
256,192,46360,1,0,0:0:0:0:
256,192,46435,1,0,0:0:0:0:
256,192,46510,1,2,0:0:0:0:
256,192,46585,1,2,0:0:0:0:
256,192,46660,1,2,0:0:0:0:
256,192,46735,1,2,0:0:0:0:
256,192,46810,1,0,0:0:0:0:
256,192,46860,1,0,0:0:0:0:
256,192,46910,1,0,0:0:0:0:
256,192,46960,1,0,0:0:0:0:
256,192,47010,1,0,0:0:0:0:
256,192,47060,1,0,0:0:0:0:
256,192,47110,1,2,0:0:0:0:
256,192,47160,1,2,0:0:0:0:
256,192,47210,1,2,0:0:0:0:
256,192,47260,1,2,0:0:0:0:
256,192,47310,1,2,0:0:0:0:
256,192,47360,1,2,0:0:0:0:
192,160,47410,1,2,0:0:0:0:
192,160,47560,1,2,0:0:0:0:
192,160,47710,1,0,0:0:0:0:
192,160,47785,1,0,0:0:0:0:
192,160,47860,1,0,0:0:0:0:
192,160,47935,1,0,0:0:0:0:
192,160,48010,1,0,0:0:0:0:
192,160,48160,1,0,0:0:0:0:
192,160,48235,1,0,0:0:0:0:
192,160,48310,1,2,0:0:0:0:
192,160,48460,1,0,0:0:0:0:
192,160,48535,1,0,0:0:0:0:
192,160,48610,1,0,0:0:0:0:
192,160,48685,1,2,0:0:0:0:
192,160,48760,1,0,0:0:0:0:
192,160,48835,1,2,0:0:0:0:
192,160,48910,1,0,0:0:0:0:
192,160,48985,1,0,0:0:0:0:
192,160,49060,1,2,0:0:0:0:
192,160,49210,1,0,0:0:0:0:
192,160,49360,1,2,0:0:0:0:
192,160,49435,1,2,0:0:0:0:
192,160,49510,1,0,0:0:0:0:
192,160,49585,1,0,0:0:0:0:
192,160,49660,1,2,0:0:0:0:
192,160,49735,1,2,0:0:0:0:
192,160,49810,1,0,0:0:0:0:
192,160,49885,1,2,0:0:0:0:
192,160,49960,1,0,0:0:0:0:
192,160,50035,1,0,0:0:0:0:
192,160,50110,1,2,0:0:0:0:
192,160,50185,1,2,0:0:0:0:
192,160,50260,1,0,0:0:0:0:
192,160,50335,1,2,0:0:0:0:
192,160,50410,1,0,0:0:0:0:
192,160,50560,1,0,0:0:0:0:
192,160,50635,1,0,0:0:0:0:
192,160,50710,1,2,0:0:0:0:
192,160,50860,1,2,0:0:0:0:
192,160,50935,1,0,0:0:0:0:
192,160,51010,1,0,0:0:0:0:
192,160,51085,1,0,0:0:0:0:
192,160,51160,1,2,0:0:0:0:
192,160,51235,1,0,0:0:0:0:
192,160,51310,1,0,0:0:0:0:
192,160,51385,1,0,0:0:0:0:
192,160,51460,1,2,0:0:0:0:
192,160,51610,1,0,0:0:0:0:
192,160,51685,1,0,0:0:0:0:
192,160,51760,1,0,0:0:0:0:
192,160,51835,1,0,0:0:0:0:
192,160,51910,1,2,0:0:0:0:
192,160,51985,1,0,0:0:0:0:
192,160,52060,1,0,0:0:0:0:
192,160,52135,1,2,0:0:0:0:
192,160,52210,1,0,0:0:0:0:
192,160,52285,1,2,0:0:0:0:
192,160,52360,1,0,0:0:0:0:
192,160,52435,1,0,0:0:0:0:
192,160,52510,1,2,0:0:0:0:
192,160,52585,1,2,0:0:0:0:
192,160,52660,1,0,0:0:0:0:
192,160,52735,1,2,0:0:0:0:
192,160,52810,1,0,0:0:0:0:
192,160,52960,1,0,0:0:0:0:
192,160,53035,1,0,0:0:0:0:
192,160,53110,1,2,0:0:0:0:
192,160,53260,1,0,0:0:0:0:
192,160,53335,1,0,0:0:0:0:
192,160,53410,1,0,0:0:0:0:
192,160,53485,1,2,0:0:0:0:
192,160,53560,1,0,0:0:0:0:
192,160,53635,1,0,0:0:0:0:
192,160,53710,1,0,0:0:0:0:
192,160,53785,1,2,0:0:0:0:
192,160,53860,1,2,0:0:0:0:
192,160,54010,1,0,0:0:0:0:
192,160,54085,1,2,0:0:0:0:
192,160,54160,1,2,0:0:0:0:
192,160,54235,1,2,0:0:0:0:
192,160,54310,1,0,0:0:0:0:
192,160,54385,1,0,0:0:0:0:
192,160,54460,1,2,0:0:0:0:
192,160,54535,1,0,0:0:0:0:
192,160,54610,1,2,0:0:0:0:
192,160,54685,1,2,0:0:0:0:
192,160,54760,1,0,0:0:0:0:
192,160,54835,1,0,0:0:0:0:
192,160,54910,1,0,0:0:0:0:
192,160,54985,1,0,0:0:0:0:
192,160,55060,1,2,0:0:0:0:
192,160,55210,1,0,0:0:0:0:
192,160,55285,1,2,0:0:0:0:
192,160,55360,1,0,0:0:0:0:
192,160,55435,1,0,0:0:0:0:
192,160,55510,1,2,0:0:0:0:
192,160,55660,1,2,0:0:0:0:
192,160,55735,1,0,0:0:0:0:
192,160,55810,1,0,0:0:0:0:
192,160,55885,1,0,0:0:0:0:
192,160,55960,1,2,0:0:0:0:
192,160,56035,1,2,0:0:0:0:
192,160,56110,1,0,0:0:0:0:
192,160,56185,1,0,0:0:0:0:
192,160,56260,1,2,0:0:0:0:
192,160,56410,1,0,0:0:0:0:
192,160,56485,1,0,0:0:0:0:
192,160,56560,1,0,0:0:0:0:
192,160,56635,1,0,0:0:0:0:
192,160,56710,1,0,0:0:0:0:
192,160,56785,1,2,0:0:0:0:
192,160,56860,1,0,0:0:0:0:
192,160,56935,1,0,0:0:0:0:
192,160,57010,1,2,0:0:0:0:
192,160,57085,1,2,0:0:0:0:
192,160,57160,1,0,0:0:0:0:
192,160,57235,1,2,0:0:0:0:
192,160,57310,1,2,0:0:0:0:
192,160,57385,1,2,0:0:0:0:
192,160,57460,1,0,0:0:0:0:
192,160,57535,1,2,0:0:0:0:
192,160,57610,1,0,0:0:0:0:
192,160,57760,1,0,0:0:0:0:
192,160,57835,1,0,0:0:0:0:
192,160,57910,1,2,0:0:0:0:
192,160,57985,1,0,0:0:0:0:
192,160,58060,1,0,0:0:0:0:
192,160,58135,1,2,0:0:0:0:
192,160,58210,1,2,0:0:0:0:
192,160,58285,1,2,0:0:0:0:
192,160,58360,1,0,0:0:0:0:
192,160,58435,1,2,0:0:0:0:
192,160,58510,1,2,0:0:0:0:
192,160,58585,1,2,0:0:0:0:
192,160,58660,1,0,0:0:0:0:
192,160,58810,1,0,0:0:0:0:
192,160,58885,1,2,0:0:0:0:
192,160,58960,1,2,0:0:0:0:
192,160,59035,1,0,0:0:0:0:
192,160,59110,1,2,0:0:0:0:
192,160,59185,1,2,0:0:0:0:
192,160,59260,1,0,0:0:0:0:
192,160,59335,1,0,0:0:0:0:
192,160,59410,1,0,0:0:0:0:
192,160,59485,1,2,0:0:0:0:
192,160,59560,1,0,0:0:0:0:
192,160,59635,1,0,0:0:0:0:
192,160,59710,1,2,0:0:0:0:
192,160,59785,1,2,0:0:0:0:
192,160,59860,1,0,0:0:0:0:
192,160,59935,1,2,0:0:0:0:
192,160,60010,1,0,0:0:0:0:
192,160,60160,1,0,0:0:0:0:
192,160,60235,1,0,0:0:0:0:
192,160,60310,1,2,0:0:0:0:
192,160,60385,1,2,0:0:0:0:
192,160,60460,1,0,0:0:0:0:
192,160,60535,1,0,0:0:0:0:
192,160,60610,1,0,0:0:0:0:
192,160,60685,1,2,0:0:0:0:
192,160,60760,1,0,0:0:0:0:
192,160,60835,1,0,0:0:0:0:
192,160,60910,1,2,0:0:0:0:
192,160,60985,1,2,0:0:0:0:
192,160,61060,1,0,0:0:0:0:
192,160,61135,1,2,0:0:0:0:
192,160,61210,1,0,0:0:0:0:
192,160,61260,1,2,0:0:0:0:
192,160,61310,1,0,0:0:0:0:
192,160,61360,1,2,0:0:0:0:
192,160,61410,1,0,0:0:0:0:
192,160,61460,1,2,0:0:0:0:
192,160,61510,1,0,0:0:0:0:
192,160,61660,1,0,0:0:0:0:
192,160,61735,1,0,0:0:0:0:
192,160,61810,1,0,0:0:0:0:
192,160,61885,1,2,0:0:0:0:
192,160,61960,1,0,0:0:0:0:
192,160,62035,1,2,0:0:0:0:
192,160,62110,1,2,0:0:0:0:
192,160,62185,1,2,0:0:0:0:
192,160,62260,1,0,0:0:0:0:
192,160,62335,1,2,0:0:0:0:
192,160,62410,1,0,0:0:0:0:
192,160,62485,1,0,0:0:0:0:
192,160,62560,1,0,0:0:0:0:
192,160,62635,1,0,0:0:0:0:
192,160,62710,1,2,0:0:0:0:
192,160,62860,1,0,0:0:0:0:
192,160,62935,1,0,0:0:0:0:
192,160,63010,1,0,0:0:0:0:
192,160,63085,1,0,0:0:0:0:
192,160,63160,1,2,0:0:0:0:
192,160,63235,1,2,0:0:0:0:
192,160,63310,1,0,0:0:0:0:
192,160,63385,1,0,0:0:0:0:
192,160,63460,1,2,0:0:0:0:
192,160,63610,1,0,0:0:0:0:
192,160,63685,1,2,0:0:0:0:
192,160,63760,1,2,0:0:0:0:
192,160,63835,1,0,0:0:0:0:
192,160,63910,1,2,0:0:0:0:
192,160,63985,1,2,0:0:0:0:
192,160,64060,1,0,0:0:0:0:
192,160,64135,1,0,0:0:0:0:
192,160,64210,1,0,0:0:0:0:
192,160,64285,1,2,0:0:0:0:
192,160,64360,1,0,0:0:0:0:
192,160,64435,1,0,0:0:0:0:
192,160,64510,1,2,0:0:0:0:
192,160,64585,1,2,0:0:0:0:
192,160,64660,1,0,0:0:0:0:
192,160,64735,1,2,0:0:0:0:
192,160,64810,1,0,0:0:0:0:
192,160,64885,1,0,0:0:0:0:
192,160,64960,1,0,0:0:0:0:
192,160,65035,1,0,0:0:0:0:
192,160,65110,1,2,0:0:0:0:
192,160,65260,1,2,0:0:0:0:
192,160,65335,1,0,0:0:0:0:
192,160,65410,1,0,0:0:0:0:
192,160,65485,1,0,0:0:0:0:
192,160,65560,1,2,0:0:0:0:
192,160,65635,1,0,0:0:0:0:
192,160,65710,1,0,0:0:0:0:
192,160,65785,1,0,0:0:0:0:
192,160,65860,1,2,0:0:0:0:
192,160,65935,1,2,0:0:0:0:
192,160,66010,1,0,0:0:0:0:
192,160,66085,1,0,0:0:0:0:
192,160,66160,1,0,0:0:0:0:
192,160,66235,1,0,0:0:0:0:
192,160,66310,1,2,0:0:0:0:
192,160,66460,1,0,0:0:0:0:
192,160,66535,1,0,0:0:0:0:
192,160,66610,1,0,0:0:0:0:
192,160,66685,1,2,0:0:0:0:
192,160,66760,1,0,0:0:0:0:
192,160,66835,1,0,0:0:0:0:
192,160,66910,1,2,0:0:0:0:
192,160,66985,1,2,0:0:0:0:
192,160,67060,1,2,0:0:0:0:
192,160,67135,1,2,0:0:0:0:
192,160,67210,1,0,0:0:0:0:
256,192,67360,1,0,0:0:0:0:
256,192,67435,1,0,0:0:0:0:
256,192,67510,1,2,0:0:0:0:
256,192,67660,1,2,0:0:0:0:
256,192,67735,1,0,0:0:0:0:
256,192,67810,1,0,0:0:0:0:
256,192,67885,1,0,0:0:0:0:
256,192,67960,1,2,0:0:0:0:
256,192,68110,1,0,0:0:0:0:
256,192,68185,1,2,0:0:0:0:
256,192,68260,1,2,0:0:0:0:
256,192,68410,1,0,0:0:0:0:
256,192,68485,1,0,0:0:0:0:
256,192,68560,1,0,0:0:0:0:
256,192,68635,1,2,0:0:0:0:
256,192,68710,1,0,0:0:0:0:
256,192,68860,1,2,0:0:0:0:
256,192,68935,1,0,0:0:0:0:
256,192,69010,1,0,0:0:0:0:
256,192,69085,1,2,0:0:0:0:
256,192,69160,1,0,0:0:0:0:
256,192,69235,1,0,0:0:0:0:
256,192,69310,1,2,0:0:0:0:
256,192,69385,1,0,0:0:0:0:
256,192,69460,1,2,0:0:0:0:
256,192,69610,1,4,0:0:0:0:
256,192,69760,1,0,0:0:0:0:
256,192,69835,1,0,0:0:0:0:
256,192,69910,1,2,0:0:0:0:
256,192,70060,1,2,0:0:0:0:
256,192,70135,1,0,0:0:0:0:
256,192,70210,1,0,0:0:0:0:
256,192,70285,1,0,0:0:0:0:
256,192,70360,1,2,0:0:0:0:
256,192,70510,1,0,0:0:0:0:
256,192,70585,1,2,0:0:0:0:
256,192,70660,1,2,0:0:0:0:
256,192,70810,1,0,0:0:0:0:
256,192,70885,1,2,0:0:0:0:
256,192,70960,1,0,0:0:0:0:
256,192,71035,1,0,0:0:0:0:
256,192,71110,1,2,0:0:0:0:
256,192,71185,1,0,0:0:0:0:
256,192,71260,1,2,0:0:0:0:
256,192,71335,1,2,0:0:0:0:
256,192,71410,1,2,0:0:0:0:
256,192,71460,1,2,0:0:0:0:
256,192,71510,1,2,0:0:0:0:
256,192,71560,1,0,0:0:0:0:
256,192,71710,1,0,0:0:0:0:
256,192,71785,1,2,0:0:0:0:
256,192,71860,1,0,0:0:0:0:
256,192,71935,1,0,0:0:0:0:
256,192,72010,1,2,0:0:0:0:
256,192,72160,1,2,0:0:0:0:
256,192,72235,1,0,0:0:0:0:
256,192,72310,1,0,0:0:0:0:
256,192,72385,1,0,0:0:0:0:
256,192,72460,1,2,0:0:0:0:
256,192,72535,1,0,0:0:0:0:
256,192,72610,1,0,0:0:0:0:
256,192,72685,1,2,0:0:0:0:
256,192,72760,1,2,0:0:0:0:
256,192,72910,1,0,0:0:0:0:
256,192,72985,1,2,0:0:0:0:
256,192,73060,1,2,0:0:0:0:
256,192,73135,1,0,0:0:0:0:
256,192,73210,1,2,0:0:0:0:
256,192,73285,1,2,0:0:0:0:
256,192,73360,1,0,0:0:0:0:
256,192,73435,1,2,0:0:0:0:
256,192,73510,1,2,0:0:0:0:
256,192,73660,1,0,0:0:0:0:
256,192,73735,1,0,0:0:0:0:
256,192,73810,1,2,0:0:0:0:
256,192,73885,1,2,0:0:0:0:
256,192,73960,1,0,0:0:0:0:
256,192,74035,1,2,0:0:0:0:
256,192,74110,1,0,0:0:0:0:
256,192,74185,1,2,0:0:0:0:
256,192,74260,1,2,0:0:0:0:
256,192,74410,1,2,0:0:0:0:
256,192,74560,1,0,0:0:0:0:
256,192,74635,1,2,0:0:0:0:
256,192,74710,1,2,0:0:0:0:
256,192,74785,1,2,0:0:0:0:
256,192,74860,1,0,0:0:0:0:
256,192,74935,1,2,0:0:0:0:
256,192,75010,1,2,0:0:0:0:
256,192,75160,1,0,0:0:0:0:
256,192,75310,1,0,0:0:0:0:
256,192,75385,1,0,0:0:0:0:
256,192,75460,1,0,0:0:0:0:
256,192,75535,1,0,0:0:0:0:
256,192,75610,1,2,0:0:0:0:
256,192,75760,1,2,0:0:0:0:
256,192,75910,1,2,0:0:0:0:
256,192,75985,1,2,0:0:0:0:
256,192,76060,1,2,0:0:0:0:
256,192,76135,1,2,0:0:0:0:
256,192,76210,1,0,0:0:0:0:
256,192,76360,1,0,0:0:0:0:
256,192,76435,1,0,0:0:0:0:
256,192,76510,1,2,0:0:0:0:
256,192,76660,1,2,0:0:0:0:
256,192,76735,1,0,0:0:0:0:
256,192,76810,1,0,0:0:0:0:
256,192,76885,1,0,0:0:0:0:
256,192,76960,1,2,0:0:0:0:
256,192,77035,1,0,0:0:0:0:
256,192,77110,1,0,0:0:0:0:
256,192,77185,1,2,0:0:0:0:
256,192,77260,1,2,0:0:0:0:
256,192,77410,1,0,0:0:0:0:
256,192,77485,1,2,0:0:0:0:
256,192,77560,1,2,0:0:0:0:
256,192,77635,1,2,0:0:0:0:
256,192,77710,1,0,0:0:0:0:
256,192,77860,1,2,0:0:0:0:
256,192,77935,1,0,0:0:0:0:
256,192,78010,1,0,0:0:0:0:
256,192,78085,1,2,0:0:0:0:
256,192,78160,1,0,0:0:0:0:
256,192,78235,1,0,0:0:0:0:
256,192,78310,1,2,0:0:0:0:
256,192,78385,1,0,0:0:0:0:
256,192,78460,1,2,0:0:0:0:
256,192,78535,1,2,0:0:0:0:
256,192,78610,1,0,0:0:0:0:
256,192,78760,1,0,0:0:0:0:
256,192,78835,1,0,0:0:0:0:
256,192,78910,1,2,0:0:0:0:
256,192,78985,1,0,0:0:0:0:
256,192,79060,1,2,0:0:0:0:
256,192,79135,1,0,0:0:0:0:
256,192,79210,1,0,0:0:0:0:
256,192,79285,1,0,0:0:0:0:
256,192,79360,1,2,0:0:0:0:
256,192,79510,1,0,0:0:0:0:
256,192,79585,1,0,0:0:0:0:
256,192,79660,1,2,0:0:0:0:
256,192,79735,1,2,0:0:0:0:
256,192,79810,1,0,0:0:0:0:
256,192,79885,1,2,0:0:0:0:
256,192,79960,1,0,0:0:0:0:
256,192,80035,1,0,0:0:0:0:
256,192,80110,1,2,0:0:0:0:
256,192,80260,1,0,0:0:0:0:
256,192,80335,1,0,0:0:0:0:
256,192,80410,1,2,0:0:0:0:
256,192,80485,1,2,0:0:0:0:
256,192,80560,1,2,0:0:0:0:
256,192,80635,1,2,0:0:0:0:
256,192,80710,1,0,0:0:0:0:
256,192,80860,1,0,0:0:0:0:
256,192,80935,1,0,0:0:0:0:
256,192,81010,1,2,0:0:0:0:
256,192,81160,1,2,0:0:0:0:
256,192,81235,1,0,0:0:0:0:
256,192,81310,1,0,0:0:0:0:
256,192,81385,1,0,0:0:0:0:
256,192,81460,1,2,0:0:0:0:
256,192,81535,1,0,0:0:0:0:
256,192,81610,1,0,0:0:0:0:
256,192,81685,1,2,0:0:0:0:
256,192,81760,1,2,0:0:0:0:
256,192,81910,1,0,0:0:0:0:
256,192,81985,1,2,0:0:0:0:
256,192,82060,1,2,0:0:0:0:
256,192,82135,1,0,0:0:0:0:
256,192,82210,1,2,0:0:0:0:
256,192,82285,1,2,0:0:0:0:
256,192,82360,1,0,0:0:0:0:
256,192,82435,1,0,0:0:0:0:
256,192,82510,1,2,0:0:0:0:
256,192,82585,1,2,0:0:0:0:
256,192,82660,1,0,0:0:0:0:
256,192,82810,1,2,0:0:0:0:
256,192,82885,1,2,0:0:0:0:
256,192,82960,1,0,0:0:0:0:
256,192,83035,1,2,0:0:0:0:
256,192,83110,1,0,0:0:0:0:
256,192,83260,1,0,0:0:0:0:
256,192,83335,1,0,0:0:0:0:
256,192,83410,1,2,0:0:0:0:
256,192,83560,1,2,0:0:0:0:
256,192,83635,1,0,0:0:0:0:
256,192,83710,1,0,0:0:0:0:
256,192,83785,1,0,0:0:0:0:
256,192,83860,1,2,0:0:0:0:
256,192,83935,1,0,0:0:0:0:
256,192,84010,1,0,0:0:0:0:
256,192,84085,1,0,0:0:0:0:
256,192,84160,1,2,0:0:0:0:
256,192,84310,1,2,0:0:0:0:
256,192,84610,1,2,0:0:0:0:
256,192,84910,1,0,0:0:0:0:
256,192,85060,1,0,0:0:0:0:
256,192,85135,1,0,0:0:0:0:
256,192,85210,1,2,0:0:0:0:
256,192,85260,1,2,0:0:0:0:
256,192,85310,1,2,0:0:0:0:
256,192,85360,1,0,0:0:0:0:
256,192,85510,1,4,0:0:0:0:
256,192,85660,1,0,0:0:0:0:
256,192,85735,1,0,0:0:0:0:
256,192,85810,1,2,0:0:0:0:
256,192,85885,1,2,0:0:0:0:
256,192,85960,1,0,0:0:0:0:
256,192,86035,1,0,0:0:0:0:
256,192,86110,1,0,0:0:0:0:
256,192,86185,1,2,0:0:0:0:
256,192,86260,1,0,0:0:0:0:
256,192,86335,1,2,0:0:0:0:
256,192,86410,1,2,0:0:0:0:
256,192,86485,1,2,0:0:0:0:
256,192,86560,1,0,0:0:0:0:
256,192,86710,1,0,0:0:0:0:
256,192,86785,1,2,0:0:0:0:
256,192,86860,1,0,0:0:0:0:
256,192,86935,1,0,0:0:0:0:
256,192,87010,1,2,0:0:0:0:
256,192,87085,1,2,0:0:0:0:
256,192,87160,1,0,0:0:0:0:
256,192,87235,1,0,0:0:0:0:
256,192,87310,1,0,0:0:0:0:
256,192,87460,1,0,0:0:0:0:
256,192,87535,1,2,0:0:0:0:
256,192,87610,1,0,0:0:0:0:
256,192,87685,1,2,0:0:0:0:
256,192,87760,1,0,0:0:0:0:
256,192,87835,1,0,0:0:0:0:
256,192,87910,1,0,0:0:0:0:
256,192,88060,1,0,0:0:0:0:
256,192,88135,1,0,0:0:0:0:
256,192,88210,1,2,0:0:0:0:
256,192,88285,1,2,0:0:0:0:
256,192,88360,1,0,0:0:0:0:
256,192,88435,1,0,0:0:0:0:
256,192,88510,1,0,0:0:0:0:
256,192,88585,1,2,0:0:0:0:
256,192,88660,1,0,0:0:0:0:
256,192,88810,1,2,0:0:0:0:
256,192,88885,1,2,0:0:0:0:
256,192,88960,1,0,0:0:0:0:
256,192,89035,1,2,0:0:0:0:
256,192,89110,1,0,0:0:0:0:
256,192,89260,1,0,0:0:0:0:
256,192,89335,1,2,0:0:0:0:
256,192,89410,1,2,0:0:0:0:
256,192,89485,1,2,0:0:0:0:
256,192,89560,1,0,0:0:0:0:
256,192,89635,1,2,0:0:0:0:
256,192,89710,1,0,0:0:0:0:
256,192,89785,1,2,0:0:0:0:
256,192,89860,1,0,0:0:0:0:
256,192,89935,1,0,0:0:0:0:
256,192,90010,1,2,0:0:0:0:
256,192,90085,1,2,0:0:0:0:
256,192,90160,1,2,0:0:0:0:
256,192,90235,1,2,0:0:0:0:
256,192,90310,1,0,0:0:0:0:
256,192,90460,1,0,0:0:0:0:
256,192,90535,1,0,0:0:0:0:
256,192,90610,1,2,0:0:0:0:
256,192,90685,1,2,0:0:0:0:
256,192,90760,1,0,0:0:0:0:
256,192,90835,1,0,0:0:0:0:
256,192,90910,1,0,0:0:0:0:
256,192,90985,1,2,0:0:0:0:
256,192,91060,1,0,0:0:0:0:
256,192,91135,1,2,0:0:0:0:
256,192,91210,1,2,0:0:0:0:
256,192,91360,1,0,0:0:0:0:
256,192,91435,1,2,0:0:0:0:
256,192,91510,1,0,0:0:0:0:
256,192,91585,1,2,0:0:0:0:
256,192,91660,1,0,0:0:0:0:
256,192,91735,1,2,0:0:0:0:
256,192,91810,1,2,0:0:0:0:
256,192,91960,1,0,0:0:0:0:
256,192,92035,1,0,0:0:0:0:
256,192,92110,1,0,0:0:0:0:
256,192,92185,1,2,0:0:0:0:
256,192,92260,1,0,0:0:0:0:
256,192,92335,1,2,0:0:0:0:
256,192,92410,1,2,0:0:0:0:
256,192,92485,1,2,0:0:0:0:
256,192,92560,1,0,0:0:0:0:
256,192,92710,1,0,0:0:0:0:
256,192,92785,1,2,0:0:0:0:
256,192,92860,1,0,0:0:0:0:
256,192,92935,1,0,0:0:0:0:
256,192,93010,1,2,0:0:0:0:
256,192,93160,1,0,0:0:0:0:
256,192,93235,1,0,0:0:0:0:
256,192,93310,1,0,0:0:0:0:
256,192,93385,1,2,0:0:0:0:
256,192,93460,1,0,0:0:0:0:
256,192,93535,1,0,0:0:0:0:
256,192,93610,1,2,0:0:0:0:
256,192,93685,1,2,0:0:0:0:
256,192,93760,1,0,0:0:0:0:
256,192,93910,1,6,0:0:0:0:
256,192,94060,1,0,0:0:0:0:
256,192,94210,1,6,0:0:0:0:
256,192,94360,1,0,0:0:0:0:
256,192,94510,1,2,0:0:0:0:
256,192,94585,1,2,0:0:0:0:
256,192,94660,1,0,0:0:0:0:
256,192,94735,1,0,0:0:0:0:
256,192,94810,1,2,0:0:0:0:
256,192,94885,1,0,0:0:0:0:
256,192,94960,1,2,0:0:0:0:
256,192,95035,1,0,0:0:0:0:
256,192,95110,1,0,0:0:0:0:
256,192,95260,1,0,0:0:0:0:
256,192,95335,1,0,0:0:0:0:
256,192,95410,1,2,0:0:0:0:
256,192,95485,1,2,0:0:0:0:
256,192,95560,1,0,0:0:0:0:
256,192,95635,1,0,0:0:0:0:
256,192,95710,1,0,0:0:0:0:
256,192,95785,1,2,0:0:0:0:
256,192,95860,1,0,0:0:0:0:
256,192,95935,1,0,0:0:0:0:
256,192,96010,1,2,0:0:0:0:
256,192,96085,1,2,0:0:0:0:
256,192,96160,1,0,0:0:0:0:
256,192,96310,1,0,0:0:0:0:
256,192,96385,1,2,0:0:0:0:
256,192,96460,1,0,0:0:0:0:
256,192,96535,1,0,0:0:0:0:
256,192,96610,1,2,0:0:0:0:
256,192,96685,1,2,0:0:0:0:
256,192,96760,1,0,0:0:0:0:
256,192,96835,1,0,0:0:0:0:
256,192,96910,1,0,0:0:0:0:
256,192,96985,1,2,0:0:0:0:
256,192,97060,1,0,0:0:0:0:
256,192,97210,1,2,0:0:0:0:
256,192,97285,1,2,0:0:0:0:
256,192,97360,1,0,0:0:0:0:
256,192,97435,1,0,0:0:0:0:
256,192,97510,1,0,0:0:0:0:
256,192,97585,1,2,0:0:0:0:
256,192,97660,1,0,0:0:0:0:
256,192,97735,1,0,0:0:0:0:
256,192,97810,1,2,0:0:0:0:
256,192,97960,1,0,0:0:0:0:
256,192,98035,1,0,0:0:0:0:
256,192,98110,1,0,0:0:0:0:
256,192,98185,1,2,0:0:0:0:
256,192,98260,1,0,0:0:0:0:
256,192,98335,1,0,0:0:0:0:
256,192,98410,1,2,0:0:0:0:
256,192,98485,1,2,0:0:0:0:
256,192,98560,1,0,0:0:0:0:
256,192,98635,1,2,0:0:0:0:
256,192,98710,1,0,0:0:0:0:
256,192,98860,1,0,0:0:0:0:
256,192,98935,1,2,0:0:0:0:
256,192,99010,1,2,0:0:0:0:
256,192,99085,1,2,0:0:0:0:
256,192,99160,1,0,0:0:0:0:
256,192,99235,1,2,0:0:0:0:
256,192,99310,1,0,0:0:0:0:
256,192,99385,1,0,0:0:0:0:
256,192,99460,1,2,0:0:0:0:
256,192,99535,1,2,0:0:0:0:
256,192,99610,1,0,0:0:0:0:
256,192,99760,1,0,0:0:0:0:
256,192,99835,1,2,0:0:0:0:
256,192,99910,1,0,0:0:0:0:
256,192,100060,1,0,0:0:0:0:
256,192,100135,1,0,0:0:0:0:
256,192,100210,1,2,0:0:0:0:
256,192,100285,1,2,0:0:0:0:
256,192,100360,1,0,0:0:0:0:
256,192,100435,1,0,0:0:0:0:
256,192,100510,1,0,0:0:0:0:
256,192,100585,1,2,0:0:0:0:
256,192,100660,1,0,0:0:0:0:
256,192,100735,1,0,0:0:0:0:
256,192,100810,1,2,0:0:0:0:
256,192,100960,1,0,0:0:0:0:
256,192,101110,1,0,0:0:0:0:
256,192,101185,1,2,0:0:0:0:
256,192,101260,1,0,0:0:0:0:
256,192,101335,1,0,0:0:0:0:
256,192,101410,1,2,0:0:0:0:
256,192,101485,1,2,0:0:0:0:
256,192,101560,1,0,0:0:0:0:
256,192,101635,1,0,0:0:0:0:
256,192,101710,1,2,0:0:0:0:
256,192,101785,1,0,0:0:0:0:
256,192,101860,1,2,0:0:0:0:
256,192,101935,1,2,0:0:0:0:
256,192,102010,1,0,0:0:0:0:
256,192,102085,1,2,0:0:0:0:
256,192,102160,1,0,0:0:0:0:
256,192,102235,1,0,0:0:0:0:
256,192,102310,1,0,0:0:0:0:
256,192,102460,1,2,0:0:0:0:
256,192,102535,1,2,0:0:0:0:
256,192,102610,1,0,0:0:0:0:
256,192,102685,1,2,0:0:0:0:
256,192,102760,1,2,0:0:0:0:
256,192,102835,1,2,0:0:0:0:
256,192,102910,1,0,0:0:0:0:
256,192,102985,1,2,0:0:0:0:
256,192,103060,1,2,0:0:0:0:
256,192,103135,1,0,0:0:0:0:
256,192,103210,1,2,0:0:0:0:
256,192,103285,1,2,0:0:0:0:
256,192,103360,1,0,0:0:0:0:
256,192,103510,1,0,0:0:0:0:
256,192,103585,1,2,0:0:0:0:
256,192,103660,1,0,0:0:0:0:
256,192,103735,1,0,0:0:0:0:
256,192,103810,1,2,0:0:0:0:
256,192,103885,1,2,0:0:0:0:
256,192,103960,1,2,0:0:0:0:
256,192,104035,1,2,0:0:0:0:
256,192,104110,1,0,0:0:0:0:
256,192,104185,1,0,0:0:0:0:
256,192,104260,1,0,0:0:0:0:
256,192,104335,1,2,0:0:0:0:
256,192,104410,1,0,0:0:0:0:
256,192,104485,1,2,0:0:0:0:
256,192,104560,1,0,0:0:0:0:
256,192,104635,1,0,0:0:0:0:
256,192,104710,12,0,106360,0:0:0:0:
256,192,106510,5,2,0:0:0:0:
256,192,106660,1,2,0:0:0:0:
256,192,106810,1,0,0:0:0:0:
256,192,106885,1,0,0:0:0:0:
256,192,106960,1,0,0:0:0:0:
256,192,107035,1,0,0:0:0:0:
256,192,107110,1,0,0:0:0:0:
256,192,107260,1,2,0:0:0:0:
256,192,107335,1,2,0:0:0:0:
256,192,107410,1,0,0:0:0:0:
256,192,107485,1,2,0:0:0:0:
256,192,107560,1,2,0:0:0:0:
256,192,107635,1,2,0:0:0:0:
256,192,107710,1,0,0:0:0:0:
256,192,107785,1,2,0:0:0:0:
256,192,107860,1,2,0:0:0:0:
256,192,107935,1,0,0:0:0:0:
256,192,108010,1,2,0:0:0:0:
256,192,108085,1,2,0:0:0:0:
256,192,108160,1,0,0:0:0:0:
256,192,108235,1,2,0:0:0:0:
256,192,108310,1,0,0:0:0:0:
256,192,108385,1,0,0:0:0:0:
256,192,108460,1,0,0:0:0:0:
256,192,108610,1,0,0:0:0:0:
256,192,108685,1,0,0:0:0:0:
256,192,108760,1,2,0:0:0:0:
256,192,108835,1,2,0:0:0:0:
256,192,108910,1,0,0:0:0:0:
256,192,108985,1,2,0:0:0:0:
256,192,109060,1,2,0:0:0:0:
256,192,109135,1,2,0:0:0:0:
256,192,109210,1,0,0:0:0:0:
256,192,109285,1,2,0:0:0:0:
256,192,109360,1,0,0:0:0:0:
256,192,109435,1,0,0:0:0:0:
256,192,109510,1,0,0:0:0:0:
256,192,109660,1,2,0:0:0:0:
256,192,109735,1,2,0:0:0:0:
256,192,109810,1,0,0:0:0:0:
256,192,109885,1,2,0:0:0:0:
256,192,109960,1,2,0:0:0:0:
256,192,110035,1,2,0:0:0:0:
256,192,110110,1,0,0:0:0:0:
256,192,110185,1,2,0:0:0:0:
256,192,110260,1,2,0:0:0:0:
256,192,110335,1,0,0:0:0:0:
256,192,110410,1,2,0:0:0:0:
256,192,110485,1,2,0:0:0:0:
256,192,110560,1,0,0:0:0:0:
256,192,110635,1,0,0:0:0:0:
256,192,110710,1,0,0:0:0:0:
256,192,110785,1,2,0:0:0:0:
256,192,110860,1,0,0:0:0:0:
256,192,110935,1,0,0:0:0:0:
256,192,111010,1,0,0:0:0:0:
256,192,111160,1,2,0:0:0:0:
256,192,111235,1,2,0:0:0:0:
256,192,111310,1,0,0:0:0:0:
256,192,111385,1,2,0:0:0:0:
256,192,111460,1,0,0:0:0:0:
256,192,111535,1,2,0:0:0:0:
256,192,111610,1,0,0:0:0:0:
256,192,111685,1,0,0:0:0:0:
256,192,111760,1,2,0:0:0:0:
256,192,111810,1,2,0:0:0:0:
256,192,111860,1,2,0:0:0:0:
256,192,111910,1,0,0:0:0:0:
256,192,112060,1,2,0:0:0:0:
256,192,112135,1,2,0:0:0:0:
256,192,112210,1,0,0:0:0:0:
256,192,112285,1,2,0:0:0:0:
256,192,112360,1,2,0:0:0:0:
256,192,112435,1,2,0:0:0:0:
256,192,112510,1,0,0:0:0:0:
256,192,112585,1,2,0:0:0:0:
256,192,112660,1,2,0:0:0:0:
256,192,112735,1,0,0:0:0:0:
256,192,112810,1,2,0:0:0:0:
256,192,112885,1,2,0:0:0:0:
256,192,112960,1,0,0:0:0:0:
256,192,113035,1,2,0:0:0:0:
256,192,113110,1,0,0:0:0:0:
256,192,113185,1,0,0:0:0:0:
256,192,113260,1,0,0:0:0:0:
256,192,113335,1,2,0:0:0:0:
256,192,113410,1,0,0:0:0:0:
256,192,113560,1,2,0:0:0:0:
256,192,113635,1,2,0:0:0:0:
256,192,113710,1,0,0:0:0:0:
256,192,113785,1,0,0:0:0:0:
256,192,113860,1,2,0:0:0:0:
256,192,113935,1,2,0:0:0:0:
256,192,114010,1,0,0:0:0:0:
256,192,114085,1,0,0:0:0:0:
256,192,114160,1,0,0:0:0:0:
256,192,114235,1,0,0:0:0:0:
256,192,114310,1,0,0:0:0:0:
256,192,114460,1,0,0:0:0:0:
256,192,114535,1,2,0:0:0:0:
256,192,114610,1,0,0:0:0:0:
256,192,114685,1,2,0:0:0:0:
256,192,114760,1,2,0:0:0:0:
256,192,114835,1,2,0:0:0:0:
256,192,114910,1,0,0:0:0:0:
256,192,114985,1,2,0:0:0:0:
256,192,115060,1,2,0:0:0:0:
256,192,115135,1,0,0:0:0:0:
256,192,115210,1,2,0:0:0:0:
256,192,115360,1,0,0:0:0:0:
256,192,115435,1,2,0:0:0:0:
256,192,115510,1,0,0:0:0:0:
256,192,115585,1,0,0:0:0:0:
256,192,115660,1,0,0:0:0:0:
256,192,115735,1,0,0:0:0:0:
256,192,115810,1,0,0:0:0:0:
256,192,115885,1,0,0:0:0:0:
256,192,115960,1,2,0:0:0:0:
256,192,116010,1,2,0:0:0:0:
256,192,116060,1,2,0:0:0:0:
256,192,116110,1,0,0:0:0:0:
256,192,116185,1,2,0:0:0:0:
256,192,116260,1,2,0:0:0:0:
256,192,116335,1,2,0:0:0:0:
256,192,116410,1,0,0:0:0:0:
256,192,116485,1,2,0:0:0:0:
256,192,116560,1,0,0:0:0:0:
256,192,116635,1,0,0:0:0:0:
256,192,116710,1,0,0:0:0:0:
256,192,116860,1,2,0:0:0:0:
256,192,116935,1,2,0:0:0:0:
256,192,117010,1,0,0:0:0:0:
256,192,117085,1,2,0:0:0:0:
256,192,117160,1,2,0:0:0:0:
256,192,117235,1,2,0:0:0:0:
256,192,117310,1,0,0:0:0:0:
256,192,117385,1,2,0:0:0:0:
256,192,117460,1,2,0:0:0:0:
256,192,117535,1,0,0:0:0:0:
256,192,117610,1,2,0:0:0:0:
256,192,117685,1,2,0:0:0:0:
256,192,117760,1,0,0:0:0:0:
256,192,117835,1,2,0:0:0:0:
256,192,117910,1,0,0:0:0:0:
256,192,117985,1,0,0:0:0:0:
256,192,118060,1,0,0:0:0:0:
256,192,118135,1,2,0:0:0:0:
256,192,118210,1,0,0:0:0:0:
256,192,118360,1,2,0:0:0:0:
256,192,118435,1,2,0:0:0:0:
256,192,118510,1,0,0:0:0:0:
256,192,118585,1,2,0:0:0:0:
256,192,118660,1,2,0:0:0:0:
256,192,118735,1,2,0:0:0:0:
256,192,118810,1,0,0:0:0:0:
256,192,118885,1,0,0:0:0:0:
256,192,118960,1,0,0:0:0:0:
256,192,119035,1,2,0:0:0:0:
256,192,119110,1,0,0:0:0:0:
256,192,119260,1,2,0:0:0:0:
256,192,119335,1,2,0:0:0:0:
256,192,119410,1,0,0:0:0:0:
256,192,119485,1,2,0:0:0:0:
256,192,119560,1,2,0:0:0:0:
256,192,119635,1,2,0:0:0:0:
256,192,119710,1,0,0:0:0:0:
256,192,119785,1,0,0:0:0:0:
256,192,119860,1,2,0:0:0:0:
256,192,119935,1,0,0:0:0:0:
256,192,120010,1,2,0:0:0:0:
256,192,120085,1,2,0:0:0:0:
256,192,120160,1,0,0:0:0:0:
256,192,120235,1,2,0:0:0:0:
256,192,120310,1,0,0:0:0:0:
256,192,120460,1,0,0:0:0:0:
256,192,120535,1,2,0:0:0:0:
256,192,120610,1,0,0:0:0:0:
256,192,120685,1,2,0:0:0:0:
256,192,120760,1,2,0:0:0:0:
256,192,120835,1,2,0:0:0:0:
256,192,120910,1,0,0:0:0:0:
256,192,120985,1,0,0:0:0:0:
256,192,121060,1,0,0:0:0:0:
256,192,121135,1,2,0:0:0:0:
256,192,121210,1,0,0:0:0:0:
256,192,121285,1,2,0:0:0:0:
256,192,121360,1,0,0:0:0:0:
256,192,121410,1,0,0:0:0:0:
256,192,121460,1,0,0:0:0:0:
256,192,121510,1,0,0:0:0:0:
256,192,121660,1,2,0:0:0:0:
256,192,121735,1,2,0:0:0:0:
256,192,121810,1,0,0:0:0:0:
256,192,121885,1,0,0:0:0:0:
256,192,121960,1,2,0:0:0:0:
256,192,122035,1,2,0:0:0:0:
256,192,122110,1,0,0:0:0:0:
256,192,122185,1,2,0:0:0:0:
256,192,122260,1,2,0:0:0:0:
256,192,122335,1,0,0:0:0:0:
256,192,122410,1,0,0:0:0:0:
256,192,122485,1,2,0:0:0:0:
256,192,122560,1,0,0:0:0:0:
256,192,122635,1,2,0:0:0:0:
256,192,122710,1,0,0:0:0:0:
256,192,122785,1,0,0:0:0:0:
256,192,122860,1,0,0:0:0:0:
256,192,122935,1,2,0:0:0:0:
256,192,123010,1,0,0:0:0:0:
256,192,123160,1,2,0:0:0:0:
256,192,123235,1,2,0:0:0:0:
256,192,123310,1,0,0:0:0:0:
256,192,123385,1,0,0:0:0:0:
256,192,123460,1,2,0:0:0:0:
256,192,123535,1,2,0:0:0:0:
256,192,123610,1,0,0:0:0:0:
256,192,123685,1,0,0:0:0:0:
256,192,123760,1,2,0:0:0:0:
256,192,123835,1,0,0:0:0:0:
256,192,123910,1,0,0:0:0:0:
256,192,124060,1,2,0:0:0:0:
256,192,124135,1,2,0:0:0:0:
256,192,124210,1,0,0:0:0:0:
256,192,124285,1,2,0:0:0:0:
256,192,124360,1,2,0:0:0:0:
256,192,124435,1,2,0:0:0:0:
256,192,124510,1,0,0:0:0:0:
256,192,124585,1,0,0:0:0:0:
256,192,124660,1,2,0:0:0:0:
256,192,124735,1,0,0:0:0:0:
256,192,124810,1,0,0:0:0:0:
256,192,124885,1,2,0:0:0:0:
256,192,124960,1,0,0:0:0:0:
256,192,125035,1,2,0:0:0:0:
256,192,125110,1,0,0:0:0:0:
256,192,125185,1,0,0:0:0:0:
256,192,125260,1,0,0:0:0:0:
256,192,125335,1,0,0:0:0:0:
256,192,125410,1,2,0:0:0:0:
256,192,125485,1,2,0:0:0:0:
256,192,125560,1,2,0:0:0:0:
256,192,125635,1,2,0:0:0:0:
256,192,125710,1,0,0:0:0:0:
256,192,125760,1,0,0:0:0:0:
256,192,125810,1,0,0:0:0:0:
256,192,125860,1,2,0:0:0:0:
256,192,125910,1,2,0:0:0:0:
256,192,125960,1,2,0:0:0:0:
256,192,126010,1,0,0:0:0:0:
256,192,126310,1,4,0:0:0:0:
256,192,126460,1,0,0:0:0:0:
256,192,126535,1,0,0:0:0:0:
256,192,126610,1,2,0:0:0:0:
256,192,126760,1,2,0:0:0:0:
256,192,126835,1,0,0:0:0:0:
256,192,126910,1,0,0:0:0:0:
256,192,126985,1,0,0:0:0:0:
256,192,127060,1,2,0:0:0:0:
256,192,127210,1,0,0:0:0:0:
256,192,127285,1,0,0:0:0:0:
256,192,127360,1,2,0:0:0:0:
256,192,127510,1,0,0:0:0:0:
256,192,127585,1,0,0:0:0:0:
256,192,127660,1,0,0:0:0:0:
256,192,127735,1,0,0:0:0:0:
256,192,127810,1,2,0:0:0:0:
256,192,127960,1,0,0:0:0:0:
256,192,128035,1,0,0:0:0:0:
256,192,128110,1,0,0:0:0:0:
256,192,128185,1,2,0:0:0:0:
256,192,128260,1,0,0:0:0:0:
256,192,128335,1,0,0:0:0:0:
256,192,128410,1,2,0:0:0:0:
256,192,128560,1,2,0:0:0:0:
256,192,128710,1,4,0:0:0:0:
256,192,128860,1,0,0:0:0:0:
256,192,128935,1,0,0:0:0:0:
256,192,129010,1,2,0:0:0:0:
256,192,129160,1,2,0:0:0:0:
256,192,129235,1,0,0:0:0:0:
256,192,129310,1,0,0:0:0:0:
256,192,129385,1,0,0:0:0:0:
256,192,129460,1,2,0:0:0:0:
256,192,129535,1,0,0:0:0:0:
256,192,129610,1,0,0:0:0:0:
256,192,129685,1,0,0:0:0:0:
256,192,129760,1,2,0:0:0:0:
256,192,129910,1,0,0:0:0:0:
256,192,129985,1,2,0:0:0:0:
256,192,130060,1,2,0:0:0:0:
256,192,130135,1,2,0:0:0:0:
256,192,130210,1,0,0:0:0:0:
256,192,130285,1,0,0:0:0:0:
256,192,130360,1,0,0:0:0:0:
256,192,130435,1,0,0:0:0:0:
256,192,130510,1,0,0:0:0:0:
256,192,130560,1,0,0:0:0:0:
256,192,130610,1,0,0:0:0:0:
256,192,130660,1,2,0:0:0:0:
256,192,130810,1,2,0:0:0:0:
256,192,130860,1,2,0:0:0:0:
256,192,130910,1,2,0:0:0:0:
256,192,130960,1,0,0:0:0:0:
256,192,131110,1,4,0:0:0:0:
256,192,131260,1,0,0:0:0:0:
256,192,131335,1,0,0:0:0:0:
256,192,131410,1,2,0:0:0:0:
256,192,131560,1,2,0:0:0:0:
256,192,131635,1,0,0:0:0:0:
256,192,131710,1,0,0:0:0:0:
256,192,131785,1,0,0:0:0:0:
256,192,131860,1,2,0:0:0:0:
256,192,131935,1,2,0:0:0:0:
256,192,132010,1,0,0:0:0:0:
256,192,132085,1,0,0:0:0:0:
256,192,132160,1,2,0:0:0:0:
256,192,132310,1,0,0:0:0:0:
256,192,132385,1,2,0:0:0:0:
256,192,132460,1,0,0:0:0:0:
256,192,132535,1,2,0:0:0:0:
256,192,132610,1,2,0:0:0:0:
256,192,132760,1,0,0:0:0:0:
256,192,132835,1,2,0:0:0:0:
256,192,132910,1,0,0:0:0:0:
256,192,132985,1,0,0:0:0:0:
256,192,133060,1,2,0:0:0:0:
256,192,133135,1,0,0:0:0:0:
256,192,133210,1,0,0:0:0:0:
256,192,133285,1,0,0:0:0:0:
256,192,133360,1,2,0:0:0:0:
256,192,133510,1,4,0:0:0:0:
256,192,133660,1,0,0:0:0:0:
256,192,133735,1,0,0:0:0:0:
256,192,133810,1,2,0:0:0:0:
256,192,133960,1,2,0:0:0:0:
256,192,134035,1,0,0:0:0:0:
256,192,134110,1,0,0:0:0:0:
256,192,134185,1,0,0:0:0:0:
256,192,134260,1,2,0:0:0:0:
256,192,134410,1,0,0:0:0:0:
256,192,134485,1,0,0:0:0:0:
256,192,134560,1,0,0:0:0:0:
256,192,134635,1,0,0:0:0:0:
256,192,134710,2,0,L|128:192,1,105.000004005432
256,192,135010,2,4,L|128:192,1,105.000004005432
256,192,135310,2,0,L|128:192,1,105.000004005432
256,192,135610,2,4,L|128:192,1,105.000004005432
256,192,135910,1,4,0:0:0:0:
256,192,136060,1,0,0:0:0:0:
256,192,136135,1,0,0:0:0:0:
256,192,136210,1,2,0:0:0:0:
256,192,136360,1,2,0:0:0:0:
256,192,136435,1,0,0:0:0:0:
256,192,136510,1,0,0:0:0:0:
256,192,136585,1,0,0:0:0:0:
256,192,136660,1,2,0:0:0:0:
256,192,136810,1,0,0:0:0:0:
256,192,136885,1,0,0:0:0:0:
256,192,136960,1,2,0:0:0:0:
256,192,137110,1,0,0:0:0:0:
256,192,137185,1,0,0:0:0:0:
256,192,137260,1,0,0:0:0:0:
256,192,137335,1,0,0:0:0:0:
256,192,137410,1,2,0:0:0:0:
256,192,137560,1,0,0:0:0:0:
256,192,137635,1,2,0:0:0:0:
256,192,137710,1,0,0:0:0:0:
256,192,137785,1,0,0:0:0:0:
256,192,137860,1,0,0:0:0:0:
256,192,138010,1,0,0:0:0:0:
256,192,138085,1,0,0:0:0:0:
256,192,138160,1,2,0:0:0:0:
256,192,138310,1,4,0:0:0:0:
256,192,138460,1,0,0:0:0:0:
256,192,138535,1,0,0:0:0:0:
256,192,138610,1,2,0:0:0:0:
256,192,138760,1,2,0:0:0:0:
256,192,138835,1,0,0:0:0:0:
256,192,138910,1,0,0:0:0:0:
256,192,138985,1,0,0:0:0:0:
256,192,139060,1,2,0:0:0:0:
256,192,139135,1,0,0:0:0:0:
256,192,139210,1,2,0:0:0:0:
256,192,139360,1,4,0:0:0:0:
256,192,139510,1,4,0:0:0:0:
256,192,139660,1,2,0:0:0:0:
256,192,139810,1,0,0:0:0:0:
256,192,139885,1,0,0:0:0:0:
256,192,139960,1,0,0:0:0:0:
256,192,140035,1,0,0:0:0:0:
256,192,140110,1,2,0:0:0:0:
256,192,140185,1,2,0:0:0:0:
256,192,140260,1,2,0:0:0:0:
256,192,140335,1,2,0:0:0:0:
256,192,140410,1,2,0:0:0:0:
256,192,140485,1,2,0:0:0:0:
256,192,140560,1,2,0:0:0:0:
256,192,140710,1,4,0:0:0:0:
256,192,140860,1,0,0:0:0:0:
256,192,140935,1,0,0:0:0:0:
256,192,141010,1,2,0:0:0:0:
256,192,141160,1,2,0:0:0:0:
256,192,141235,1,0,0:0:0:0:
256,192,141310,1,0,0:0:0:0:
256,192,141385,1,0,0:0:0:0:
256,192,141460,1,2,0:0:0:0:
256,192,141610,1,0,0:0:0:0:
256,192,141685,1,0,0:0:0:0:
256,192,141760,1,2,0:0:0:0:
256,192,141910,1,0,0:0:0:0:
256,192,141985,1,2,0:0:0:0:
256,192,142060,1,0,0:0:0:0:
256,192,142135,1,0,0:0:0:0:
256,192,142210,1,0,0:0:0:0:
256,192,142285,1,2,0:0:0:0:
256,192,142360,1,2,0:0:0:0:
256,192,142510,1,0,0:0:0:0:
256,192,142585,1,2,0:0:0:0:
256,192,142660,1,0,0:0:0:0:
256,192,142735,1,0,0:0:0:0:
256,192,142810,1,0,0:0:0:0:
256,192,142885,1,0,0:0:0:0:
256,192,142960,1,2,0:0:0:0:
224,192,143110,1,2,0:0:0:0:
224,192,143260,1,0,0:0:0:0:
224,192,143335,1,0,0:0:0:0:
224,192,143410,1,2,0:0:0:0:
224,192,143560,1,0,0:0:0:0:
224,192,143635,1,0,0:0:0:0:
224,192,143710,1,2,0:0:0:0:
224,192,143860,1,0,0:0:0:0:
224,192,143935,1,0,0:0:0:0:
224,192,144010,1,2,0:0:0:0:
224,192,144160,1,0,0:0:0:0:
288,192,144235,1,0,0:0:0:0:
256,192,144310,1,0,0:0:0:0:
256,192,144385,1,2,0:0:0:0:
256,192,144460,1,0,0:0:0:0:
256,192,144535,1,0,0:0:0:0:
256,192,144610,1,2,0:0:0:0:
256,192,144760,1,0,0:0:0:0:
256,192,144835,1,0,0:0:0:0:
256,192,144910,1,2,0:0:0:0:
224,192,145210,1,6,0:0:0:0:
