osu file format v14

[General]
AudioFilename: audio.mp3
AudioLeadIn: 0
PreviewTime: 70580
Countdown: 1
SampleSet: Soft
StackLeniency: 0.7
Mode: 0
LetterboxInBreaks: 0
WidescreenStoryboard: 0

[Editor]
Bookmarks: 46247
DistanceSpacing: 0.4
BeatDivisor: 4
GridSize: 32
TimelineZoom: 1

[Metadata]
Title:little my star
TitleUnicode:little my star
Artist:U
ArtistUnicode:U
Creator:Log Off Now
Version:Eternal Worm Attack
Source:魔界天使ジブリール -episode2-
Tags:eroge visual novel makai tenshi djibril episode 2 jibril the angel frontwing japanese tentacle devil lolis
BeatmapID:2140745
BeatmapSetID:1023311

[Difficulty]
HPDrainRate:5.4
CircleSize:4
OverallDifficulty:9
ApproachRate:9.2
SliderMultiplier:1.4
SliderTickRate:1

[Events]
//Background and Video events
0,0,"little-my-star.jpg",0,0
//Break Periods
//Storyboard Layer 0 (Background)
//Storyboard Layer 1 (Fail)
//Storyboard Layer 2 (Pass)
//Storyboard Layer 3 (Foreground)
//Storyboard Layer 4 (Overlay)
//Storyboard Sound Samples

[TimingPoints]
157,338.983050847458,4,2,1,10,1,0
2699,-100,4,2,1,10,0,0
2868,-133.333333333333,4,2,1,50,0,0
4140,-133.333333333333,4,2,1,20,0,0
4224,-133.333333333333,4,2,1,50,0,0
9563,-133.333333333333,4,2,1,20,0,0
9648,-133.333333333333,4,2,1,50,0,0
13716,-83.3333333333333,4,2,1,65,0,0
24563,-100,4,2,1,55,0,0
67953,-100,4,2,1,40,0,0
69648,-133.333333333333,4,2,1,45,0,0
69902,-133.333333333333,4,2,1,10,0,0
69987,-66.6666666666667,4,2,1,55,0,0
70665,-76.9230769230769,4,2,1,70,0,1
81173,-100,4,2,1,70,0,1
81428,-100,4,2,1,10,0,1
81512,-76.9230769230769,4,2,1,70,0,1
92021,-100,4,2,1,70,0,1
92275,-100,4,2,1,10,0,1
92360,-83.3333333333333,4,2,1,65,0,0

[Colours]
Combo1 : 241,80,84
Combo2 : 165,244,85
Combo3 : 119,181,255
Combo4 : 248,135,152

[HitObjects]
256,192,157,12,0,2699,0:0:0:0:
141,378,2868,6,0,L|130:267,1,105.000004005432,2|0,1:2|0:0,0:0:0:0:
189,199,3377,1,2,1:2:0:0:
189,199,3546,2,0,P|217:222|244:226,1,52.5000020027161,2|0,1:2|0:0,0:0:0:0:
303,175,3885,2,0,P|337:156|391:154,1,78.7500030040742,8|0,0:0|0:0,0:0:0:0:
407,172,4224,6,0,L|400:244,2,52.5000020027161,2|0|0,1:2|0:0|0:0,0:0:0:0:
418,39,4733,1,2,1:2:0:0:
418,39,4902,2,0,P|390:62|363:66,1,52.5000020027161,2|0,1:2|0:0,0:0:0:0:
215,19,5241,1,8,0:0:0:0:
195,41,5580,6,0,L|200:93,2,52.5000020027161,2|0|0,1:2|0:0|0:0,0:0:0:0:
122,4,6089,1,2,1:2:0:0:
76,105,6258,2,0,P|105:84|132:81,1,52.5000020027161,2|0,1:2|0:0,0:0:0:0:
138,215,6597,2,0,L|130:143,1,52.5000020027161,8|0,0:0|0:0,0:0:0:0:
292,92,6936,6,0,P|247:138|191:134,1,105.000004005432,2|0,1:2|0:0,0:0:0:0:
217,61,7445,1,2,1:2:0:0:
283,174,7614,2,0,L|277:226,1,52.5000020027161,2|0,1:2|0:0,0:0:0:0:
181,331,7953,1,8,0:0:0:0:
197,358,8292,6,0,P|239:328|303:329,1,105.000004005432,2|0,1:2|0:0,0:0:0:0:
368,363,8801,1,2,1:2:0:0:
424,301,8970,2,0,L|419:242,1,52.5000020027161,2|0,1:2|0:0,0:0:0:0:
413,147,9309,2,0,P|359:180|328:180,1,78.7500030040742,8|0,0:0|0:0,0:0:0:0:
318,178,9648,5,2,1:2:0:0:
344,95,9818,1,2,0:0:0:0:
255,54,9987,2,0,L|262:119,1,52.5000020027161,2|0,0:0|1:0,0:0:0:0:
327,256,10326,2,0,L|334:191,1,52.5000020027161,2|0,1:2|0:0,0:0:0:0:
362,9,10665,1,8,0:0:0:0:
376,26,11004,5,2,1:2:0:0:
323,109,11173,1,2,0:0:0:0:
463,107,11343,2,0,L|406:102,1,52.5000020027161,2|0,0:0|1:0,0:0:0:0:
234,199,11682,2,0,L|286:194,1,52.5000020027161,2|0,1:2|0:0,0:0:0:0:
91,77,12021,1,8,0:0:0:0:
77,97,12360,5,2,1:2:0:0:
169,59,12529,1,2,0:0:0:0:
141,198,12699,2,0,L|148:130,1,52.5000020027161,2|0,0:0|1:0,0:0:0:0:
255,25,13038,5,0,1:0:0:0:
237,177,13207,1,0,1:0:0:0:
39,57,13377,1,10,0:0:0:0:
18,77,13716,6,0,L|27:179,1,83.9999974365235,6|0,1:2|0:0,0:0:0:0:
125,363,14055,2,0,L|134:261,1,83.9999974365235,8|0,0:0|0:0,0:0:0:0:
149,85,14394,1,0,1:0:0:0:
37,292,14563,1,0,0:0:0:0:
27,69,14733,1,8,0:0:0:0:
169,275,14902,1,0,0:0:0:0:
252,75,15072,6,0,P|207:62|161:70,1,83.9999974365235,2|0,1:2|0:0,0:0:0:0:
270,287,15411,2,0,P|311:291|351:278,1,83.9999974365235,8|0,0:0|0:0,0:0:0:0:
449,77,15750,1,0,1:0:0:0:
474,284,15919,1,0,0:0:0:0:
327,80,16089,1,8,0:0:0:0:
322,293,16258,1,0,1:0:0:0:
512,171,16428,6,0,L|427:180,1,83.9999974365235,2|0,1:2|0:0,0:0:0:0:
231,320,16767,2,0,L|314:328,1,83.9999974365235,8|0,0:0|0:0,0:0:0:0:
497,344,17106,1,0,1:0:0:0:
316,223,17275,1,0,0:0:0:0:
512,195,17445,1,8,0:0:0:0:
345,332,17614,1,0,0:0:0:0:
395,142,17784,6,0,P|402:99|408:57,1,83.9999974365235,2|0,1:2|0:0,0:0:0:0:
245,236,18123,1,10,0:0:0:0:
375,360,18292,2,0,P|367:317|362:275,1,83.9999974365235,2|0,0:0|1:0,0:0:0:0:
428,74,18631,1,0,1:0:0:0:
428,74,18716,1,0,1:0:0:0:
428,74,18801,1,8,0:0:0:0:
461,271,18970,1,2,1:2:0:0:
210,136,19140,6,0,L|305:148,1,83.9999974365235,6|0,1:2|0:0,0:0:0:0:
86,314,19479,2,0,L|181:302,1,83.9999974365235,8|0,0:0|0:0,0:0:0:0:
367,289,19818,1,0,1:0:0:0:
177,130,19987,1,0,0:0:0:0:
263,351,20157,1,8,0:0:0:0:
347,106,20326,1,0,0:0:0:0:
479,304,20495,6,0,L|384:292,1,83.9999974365235,2|0,1:2|0:0,0:0:0:0:
177,130,20834,2,0,L|260:119,1,83.9999974365235,8|0,0:0|0:0,0:0:0:0:
466,100,21173,1,0,1:0:0:0:
308,246,21342,1,0,0:0:0:0:
366,25,21512,1,8,0:0:0:0:
471,274,21682,1,0,1:0:0:0:
507,10,21851,6,0,L|495:105,1,83.9999974365235,2|0,1:2|0:0,0:0:0:0:
382,305,22190,2,0,L|370:210,1,83.9999974365235,8|0,0:0|0:0,0:0:0:0:
355,52,22529,1,0,1:0:0:0:
260,263,22699,1,0,0:0:0:0:
220,5,22868,1,8,0:0:0:0:
454,168,23038,1,0,1:0:0:0:
461,192,23377,5,8,1:0:0:0:
110,115,23546,1,8,1:0:0:0:
460,69,23716,1,8,1:0:0:0:
127,217,23885,1,8,0:3:0:0:
127,217,23970,1,8,0:3:0:0:
127,217,24055,1,8,0:3:0:0:
206,367,24224,2,0,P|199:312|199:277,1,83.9999974365235,4|0,0:3|0:0,0:0:0:0:
325,139,24563,6,0,P|297:181|192:178,1,140,4|0,1:2|1:0,0:0:0:0:
200,71,25072,1,2,0:0:0:0:
200,71,25241,2,0,P|240:98|248:131,1,70,2|2,1:2|0:0,0:0:0:0:
182,271,25580,1,0,1:0:0:0:
115,67,25750,1,10,0:0:0:0:
31,227,25919,6,0,L|104:219,2,70,0|2|0,1:0|0:0|1:0,0:0:0:0:
157,145,26428,1,2,0:0:0:0:
104,322,26597,1,2,1:2:0:0:
59,143,26767,1,2,0:0:0:0:
9,334,26936,1,0,1:0:0:0:
258,229,27106,1,10,0:0:0:0:
197,369,27275,6,0,L|188:277,1,70,0|2,1:0|0:0,0:0:0:0:
290,150,27614,2,0,L|281:242,1,70,0|2,1:0|0:0,0:0:0:0:
348,314,27953,1,2,1:2:0:0:
348,314,28123,2,0,P|383:294|415:291,1,70,2|0,0:0|1:0,0:0:0:0:
209,175,28462,1,10,0:0:0:0:
368,48,28631,6,0,L|382:199,2,140,0|0|0,1:0|1:0|1:0,0:0:0:0:
315,262,29479,1,8,0:0:0:0:
454,48,29648,1,0,1:0:0:0:
479,314,29818,1,8,0:0:0:0:
296,96,29987,6,0,P|259:80|219:78,1,70,0|2,1:2|0:0,0:0:0:0:
192,213,30326,2,0,P|224:188|246:155,1,70,0|2,1:0|0:0,0:0:0:0:
141,59,30665,1,2,1:2:0:0:
141,59,30834,2,0,P|145:99|163:134,1,70,2|0,0:0|1:0,0:0:0:0:
367,48,31173,1,10,0:0:0:0:
327,198,31343,6,0,L|318:113,2,70,0|2|0,1:0|0:0|1:0,0:0:0:0:
339,314,31851,1,2,0:0:0:0:
407,152,32021,1,2,1:2:0:0:
461,279,32190,2,0,P|408:251|378:252,1,70,2|0,0:0|1:0,0:0:0:0:
202,325,32529,1,10,0:0:0:0:
347,384,32699,6,0,L|338:299,1,70,0|2,1:0|0:0,0:0:0:0:
218,173,33038,2,0,L|209:258,1,70,0|2,1:0|0:0,0:0:0:0:
373,103,33377,1,2,1:2:0:0:
373,103,33546,2,0,L|382:188,1,70,2|0,0:0|1:0,0:0:0:0:
402,355,33885,1,10,0:0:0:0:
210,242,34055,6,0,L|224:102,2,140,0|0|0,1:0|1:0|1:0,0:0:0:0:
105,34,34902,1,8,0:0:0:0:
105,34,34987,1,8,0:0:0:0:
105,34,35072,1,0,1:0:0:0:
127,280,35241,1,8,0:0:0:0:
250,82,35411,6,0,P|285:113|316:117,1,70,4|2,1:2|0:0,0:0:0:0:
380,6,35750,2,0,P|335:20|316:45,1,70,0|2,1:0|0:0,0:0:0:0:
381,152,36089,1,2,1:2:0:0:
381,152,36258,2,0,P|390:106|378:77,1,70,2|0,0:0|1:0,0:0:0:0:
200,17,36597,1,10,0:0:0:0:
244,214,36767,6,0,P|269:204|318:200,2,70,0|2|0,1:0|0:0|1:0,0:0:0:0:
108,308,37275,1,2,0:0:0:0:
179,155,37445,1,2,1:2:0:0:
258,299,37614,2,0,P|223:296|190:284,1,70,2|0,0:0|1:0,0:0:0:0:
381,152,37953,1,10,0:0:0:0:
338,292,38123,6,0,L|332:214,1,70,0|2,1:0|0:0,0:0:0:0:
184,85,38462,2,0,L|178:163,1,70,0|2,1:0|0:0,0:0:0:0:
167,296,38801,1,2,1:2:0:0:
257,133,38970,2,0,L|251:211,1,70,2|0,0:0|1:0,0:0:0:0:
242,384,39309,1,10,0:0:0:0:
79,262,39479,6,0,L|85:340,1,70,0|0,1:0|0:0,0:0:0:0:
178,154,39818,2,0,P|129:189|95:188,1,70,0|0,1:0|0:0,0:0:0:0:
7,132,40157,1,0,1:0:0:0:
257,104,40326,1,8,0:0:0:0:
13,51,40495,1,0,1:0:0:0:
255,197,40665,1,8,0:0:0:0:
27,281,40834,6,0,L|15:188,1,70,0|2,1:0|0:0,0:0:0:0:
139,76,41173,2,0,L|127:169,1,70,0|2,1:0|0:0,0:0:0:0:
234,282,41512,1,2,1:2:0:0:
234,282,41682,2,0,L|222:189,1,70,2|0,0:0|1:0,0:0:0:0:
285,17,42021,1,10,0:0:0:0:
401,97,42190,6,0,L|323:88,1,70,0|2,1:0|0:0,0:0:0:0:
225,212,42529,2,0,P|256:163|230:85,1,140,2|0,1:2|1:0,0:0:0:0:
103,138,43038,2,0,L|172:146,1,70,2|0,0:0|1:0,0:0:0:0:
414,170,43377,1,10,0:0:0:0:
212,227,43546,6,0,P|249:194|345:204,1,140,2|2,1:2|1:2,0:0:0:0:
320,383,44055,2,0,B|274:352|274:352|289:251,1,140,2|2,0:0|0:0,0:0:0:0:
313,108,44563,1,0,1:0:0:0:
365,315,44733,1,8,0:0:0:0:
486,243,44902,6,0,L|394:252,1,70,0|0,1:0|0:0,0:0:0:0:
212,135,45241,2,0,P|241:175|241:209,1,70,8|0,0:0|0:0,0:0:0:0:
184,371,45580,1,0,1:0:0:0:
162,206,45750,1,8,0:0:0:0:
162,206,45834,1,0,1:0:0:0:
162,206,45919,1,0,1:0:0:0:
294,362,46089,1,8,0:0:0:0:
319,154,46258,6,0,L|306:6,1,140,6|8,1:2|0:0,0:0:0:0:
486,243,46767,2,0,P|445:210|353:239,1,140,2|0,1:2|1:0,0:0:0:0:
424,357,47275,2,0,L|417:283,1,70,8|0,0:0|0:0,0:0:0:0:
403,84,47614,2,0,P|376:129|280:135,1,140,2|8,1:2|0:0,0:0:0:0:
189,2,48123,2,0,B|220:37|220:37|209:129,1,140,2|0,1:2|1:0,0:0:0:0:
186,320,48631,1,8,0:0:0:0:
184,344,48970,6,0,P|143:306|52:317,1,140,2|8,1:2|0:0,0:0:0:0:
276,175,49479,2,0,L|263:323,1,140,2|0,1:2|1:0,0:0:0:0:
417,194,49987,2,0,P|377:217|337:211,1,70,10|0,0:0|0:0,0:0:0:0:
176,106,50326,6,0,L|189:254,1,140,2|8,1:2|0:0,0:0:0:0:
281,310,50834,1,0,1:0:0:0:
268,125,51004,1,2,0:0:0:0:
190,275,51173,1,2,1:2:0:0:
115,58,51343,2,0,P|155:81|195:75,1,70,8|0,0:0|0:0,0:0:0:0:
317,8,51682,6,0,P|281:35|272:133,1,140,2|8,1:2|0:0,0:0:0:0:
470,132,52190,2,0,B|437:95|437:95|336:86,1,140,2|0,1:2|1:0,0:0:0:0:
401,245,52699,2,0,L|394:169,1,70,8|0,0:0|0:0,0:0:0:0:
202,254,53038,2,0,P|245:211|325:225,1,140,2|8,1:2|0:0,0:0:0:0:
411,36,53546,2,0,L|394:177,1,140,2|0,1:2|1:0,0:0:0:0:
274,290,54055,1,8,0:0:0:0:
257,320,54394,6,0,B|336:313|303:352|408:336,1,140,2|8,1:2|0:0,0:0:0:0:
410,146,54902,2,0,P|365:186|382:287,1,140,2|0,1:2|1:0,0:0:0:0:
509,233,55411,2,0,L|424:224,1,70,10|0,0:0|0:0,0:0:0:0:
275,209,55750,6,0,B|314:172|314:172|305:78,1,140,2|8,1:2|0:0,0:0:0:0:
250,15,56258,1,0,0:0:0:0:
220,146,56428,1,2,1:2:0:0:
391,60,56597,1,2,0:0:0:0:
391,60,56682,1,8,0:0:0:0:
391,60,56767,1,8,0:0:0:0:
404,227,56936,1,8,0:0:0:0:
201,128,57106,6,0,B|122:121|155:160|50:144,1,140,6|8,1:2|0:0,0:0:0:0:
138,327,57614,2,0,P|184:270|179:203,1,140,2|0,1:2|1:0,0:0:0:0:
92,0,58123,2,0,L|98:69,1,70,8|0,0:0|0:0,0:0:0:0:
181,207,58462,2,0,B|227:178|227:178|340:198,1,140,2|8,1:2|0:0,0:0:0:0:
434,35,58970,2,0,P|374:72|368:138,1,140,2|0,1:2|1:0,0:0:0:0:
397,354,59479,1,8,0:0:0:0:
415,335,59818,6,0,L|426:191,1,140,2|8,1:2|0:0,0:0:0:0:
275,57,60326,2,0,P|339:72|362:159,1,140,2|0,1:2|1:0,0:0:0:0:
482,21,60834,2,0,L|404:25,1,70,10|0,0:0|0:0,0:0:0:0:
301,272,61173,6,0,B|275:230|275:230|288:127,1,140,2|8,1:2|0:0,0:0:0:0:
493,196,61682,2,0,B|414:189|447:228|342:212,1,140,0|0,1:0|1:0,0:0:0:0:
190,193,62190,1,8,0:0:0:0:
395,0,62360,1,8,0:0:0:0:
395,0,62445,1,8,0:0:0:0:
395,0,62529,6,0,P|378:95|379:141,1,140,6|8,1:2|0:0,0:0:0:0:
512,256,63038,2,0,P|464:232|370:245,1,140,2|0,1:2|1:0,0:0:0:0:
269,335,63546,2,0,P|279:301|283:254,1,70,8|0,0:0|0:0,0:0:0:0:
137,227,63885,6,0,P|157:258|200:279,1,70,2|0,1:2|0:0,0:0:0:0:
290,172,64224,1,10,0:0:0:0:
290,172,64394,2,0,P|253:173|212:200,1,70,2|0,1:2|0:0,0:0:0:0:
105,325,64733,1,0,1:0:0:0:
282,266,64902,1,8,0:0:0:0:
50,233,65072,1,2,0:0:0:0:
205,377,65241,6,0,L|199:292,1,70,2|0,1:2|0:0,0:0:0:0:
192,152,65580,1,10,0:0:0:0:
104,310,65750,1,2,1:2:0:0:
92,101,65919,1,2,0:0:0:0:
252,263,66089,5,8,0:0:0:0:
281,32,66258,1,8,0:0:0:0:
54,208,66428,1,8,0:0:0:0:
372,252,66597,1,8,0:0:0:0:
61,97,66767,1,8,0:0:0:0:
186,342,66936,1,8,0:0:0:0:
256,35,67106,1,8,0:0:0:0:
341,297,67275,6,0,L|331:382,2,46.6666666666667,8|8|8,0:3|0:3|0:3,0:0:0:0:
172,142,67614,2,0,L|162:57,2,46.6666666666667,4|4|4,0:3|0:3|0:3,0:0:0:0:
202,375,67953,5,2,0:0:0:0:
311,278,68292,1,2,0:0:0:0:
202,181,68631,1,2,0:0:0:0:
311,84,68970,1,2,0:0:0:0:
293,100,69648,6,0,L|301:182,1,78.7500030040742,2|0,0:0|0:0,0:0:0:0:
321,208,69987,2,0,L|316:250,6,35.0000013351441,0|0|0|0|0|0|8,1:0|1:0|1:0|1:0|1:0|1:0|1:2,0:0:0:0:
447,27,70665,6,0,P|403:69|356:69,1,90.9999958343508,6|0,1:2|0:0,0:0:0:0:
121,16,71004,2,0,P|170:52|178:98,1,90.9999958343508,10|0,0:0|0:0,0:0:0:0:
461,46,71343,2,0,P|417:88|370:88,1,90.9999958343508,2|0,1:2|0:0,0:0:0:0:
101,22,71682,2,0,P|150:58|158:104,1,90.9999958343508,10|0,0:2|0:0,0:0:0:0:
121,310,72021,5,2,1:2:0:0:
77,98,72190,1,2,0:0:0:0:
21,357,72360,2,0,P|62:341|123:344,1,90.9999958343508,10|0,0:0|0:0,0:0:0:0:
301,380,72699,2,0,L|290:283,1,90.9999958343508,2|0,1:2|0:0,0:0:0:0:
188,85,73038,2,0,L|177:182,1,90.9999958343508,8|0,0:0|0:0,0:0:0:0:
424,37,73377,5,2,1:2:0:0:
406,256,73546,1,2,0:0:0:0:
208,50,73716,2,0,L|219:147,1,90.9999958343508,10|0,0:0|0:0,0:0:0:0:
377,234,74055,2,0,P|331:207|294:207,1,90.9999958343508,2|0,1:2|0:0,0:0:0:0:
132,294,74394,2,0,P|178:267|196:235,1,90.9999958343508,10|0,0:0|0:0,0:0:0:0:
180,7,74733,5,2,1:2:0:0:
114,205,74902,1,2,0:0:0:0:
304,71,75072,1,10,0:0:0:0:
0,165,75241,1,2,0:0:0:0:
280,359,75411,5,8,0:1:0:0:
62,37,75580,1,8,0:1:0:0:
99,368,75750,1,8,0:1:0:0:
324,45,75919,1,8,0:1:0:0:
485,360,76089,6,0,L|390:348,1,90.9999958343508,6|0,1:2|0:0,0:0:0:0:
193,182,76428,2,0,L|283:170,1,90.9999958343508,10|0,0:0|0:0,0:0:0:0:
475,381,76767,2,0,L|380:369,1,90.9999958343508,2|0,1:2|0:0,0:0:0:0:
178,163,77106,2,0,L|268:151,1,90.9999958343508,10|0,0:0|0:0,0:0:0:0:
512,127,77445,5,2,1:2:0:0:
233,44,77614,1,2,0:0:0:0:
459,278,77784,2,0,P|443:232|447:175,1,90.9999958343508,10|0,0:0|0:0,0:0:0:0:
505,0,78123,2,0,P|473:35|397:38,1,90.9999958343508,2|0,1:2|0:0,0:0:0:0:
203,33,78462,2,0,P|219:79|215:136,1,90.9999958343508,8|0,0:0|0:0,0:0:0:0:
197,333,78801,5,2,1:2:0:0:
311,98,78970,1,2,0:0:0:0:
383,349,79140,2,0,L|283:340,1,90.9999958343508,10|0,0:0|0:0,0:0:0:0:
91,203,79479,2,0,P|112:251|111:293,1,90.9999958343508,2|0,1:2|0:0,0:0:0:0:
298,129,79818,2,0,L|198:120,1,90.9999958343508,10|0,0:0|0:0,0:0:0:0:
431,216,80157,6,0,L|369:211,1,45.4999979171754,8|8,0:3|0:3,0:0:0:0:
332,276,80326,2,0,L|276:281,1,45.4999979171754,8|8,0:3|0:3,0:0:0:0:
236,211,80495,2,0,L|174:206,2,45.4999979171754,4|4|4,0:3|0:3|0:3,0:0:0:0:
31,308,80834,1,8,0:0:0:0:
221,20,81173,6,0,L|231:129,1,105,2|0,0:0|0:0,0:0:0:0:
234,157,81512,6,0,P|285:124|331:133,1,90.9999958343508,6|0,1:2|0:0,0:0:0:0:
486,317,81851,2,0,L|494:223,1,90.9999958343508,10|0,0:0|0:0,0:0:0:0:
241,176,82190,2,0,P|292:143|338:152,1,90.9999958343508,2|0,1:2|0:0,0:0:0:0:
505,332,82529,2,0,L|513:238,1,90.9999958343508,10|0,0:0|0:0,0:0:0:0:
347,26,82868,5,2,1:2:0:0:
390,273,83037,1,2,0:0:0:0:
512,36,83207,2,0,P|479:65|411:75,1,90.9999958343508,10|0,0:0|0:0,0:0:0:0:
230,20,83546,2,0,L|240:110,1,90.9999958343508,2|0,1:2|0:0,0:0:0:0:
347,366,83885,2,0,L|357:275,1,90.9999958343508,8|0,0:0|0:0,0:0:0:0:
405,70,84224,5,2,1:2:0:0:
469,339,84393,1,2,0:0:0:0:
247,157,84563,2,0,L|337:146,1,90.9999958343508,10|0,0:0|0:0,0:0:0:0:
437,326,84902,2,0,P|391:299|354:299,1,90.9999958343508,2|0,1:2|0:0,0:0:0:0:
155,376,85241,2,0,P|186:333|190:296,1,90.9999958343508,10|0,0:0|0:0,0:0:0:0:
97,101,85580,5,2,1:2:0:0:
292,255,85749,1,2,0:0:0:0:
272,48,85919,1,10,0:0:0:0:
100,308,86088,1,2,0:0:0:0:
130,12,86258,5,8,0:1:0:0:
349,344,86427,1,8,0:1:0:0:
359,8,86597,1,8,0:1:0:0:
155,376,86767,1,8,0:1:0:0:
249,7,86936,6,0,L|261:102,1,90.9999958343508,6|0,1:2|0:0,0:0:0:0:
78,323,87275,2,0,P|114:293|167:283,1,90.9999958343508,10|0,0:0|0:0,0:0:0:0:
273,22,87614,2,0,L|285:117,1,90.9999958343508,2|0,1:2|0:0,0:0:0:0:
82,346,87953,2,0,P|118:316|171:306,1,90.9999958343508,10|0,0:0|0:0,0:0:0:0:
426,328,88292,5,2,1:2:0:0:
221,383,88461,1,2,0:0:0:0:
366,177,88631,2,0,L|354:272,1,90.9999958343508,10|0,0:0|0:0,0:0:0:0:
186,102,88970,2,0,L|198:197,1,90.9999958343508,2|0,1:2|0:0,0:0:0:0:
328,2,89309,2,0,L|316:97,1,90.9999958343508,10|0,0:0|0:0,0:0:0:0:
269,300,89648,5,2,1:2:0:0:
232,21,89818,1,2,0:0:0:0:
105,287,89987,2,0,P|163:252|207:247,1,90.9999958343508,10|0,0:0|0:0,0:0:0:0:
397,361,90326,2,0,P|362:303|357:259,1,90.9999958343508,2|0,1:2|0:0,0:0:0:0:
462,76,90665,2,0,P|404:111|360:116,1,90.9999958343508,10|0,0:0|0:0,0:0:0:0:
146,25,91004,6,0,L|156:99,2,60.6666638895672,8|8|8,0:3|0:3|0:3,0:0:0:0:
264,204,91343,2,0,L|274:130,2,60.6666638895672,4|4|4,0:3|0:3|0:3,0:0:0:0:
387,27,91682,1,0,1:0:0:0:
491,324,92021,6,0,L|480:217,1,105,2|0,0:0|0:0,0:0:0:0:
473,182,92360,6,0,P|442:212|400:221,1,83.9999974365235,6|0,1:2|0:0,0:0:0:0:
233,105,92699,2,0,L|242:207,1,83.9999974365235,8|0,0:0|0:0,0:0:0:0:
258,369,93038,1,0,1:0:0:0:
339,130,93207,1,0,0:0:0:0:
383,368,93377,1,8,0:0:0:0:
207,108,93546,1,0,0:0:0:0:
61,330,93716,6,0,P|106:317|152:325,1,83.9999974365235,2|0,1:2|0:0,0:0:0:0:
364,209,94055,2,0,P|323:213|283:200,1,83.9999974365235,8|0,0:0|0:0,0:0:0:0:
123,69,94394,1,0,1:0:0:0:
166,303,94563,1,0,0:0:0:0:
354,82,94733,1,8,0:0:0:0:
304,324,94902,1,0,1:0:0:0:
235,23,95072,6,0,L|244:108,1,83.9999974365235,2|0,1:2|0:0,0:0:0:0:
386,287,95411,2,0,L|395:202,1,83.9999974365235,8|0,0:0|0:0,0:0:0:0:
416,26,95750,1,0,1:0:0:0:
297,235,95919,1,0,0:0:0:0:
328,31,96089,1,8,0:0:0:0:
480,254,96258,1,0,0:0:0:0:
501,33,96428,6,0,P|482:77|441:99,1,83.9999974365235,2|0,1:2|0:0,0:0:0:0:
238,29,96767,1,10,0:0:0:0:
312,245,96936,2,0,P|320:202|325:160,1,83.9999974365235,2|0,0:0|1:0,0:0:0:0:
221,30,97275,1,0,1:0:0:0:
221,30,97360,1,0,1:0:0:0:
221,30,97445,1,8,0:0:0:0:
171,252,97614,1,2,1:2:0:0:
46,47,97784,6,0,L|141:59,1,83.9999974365235,6|0,1:2|0:0,0:0:0:0:
324,162,98123,2,0,L|240:172,1,83.9999974365235,8|0,0:0|0:0,0:0:0:0:
37,214,98462,1,0,1:0:0:0:
273,254,98631,1,0,0:0:0:0:
48,128,98801,1,8,0:0:0:0:
303,76,98970,1,0,0:0:0:0:
85,306,99139,6,0,L|168:295,1,83.9999974365235,2|0,1:2|0:0,0:0:0:0:
361,183,99478,2,0,L|278:172,1,83.9999974365235,8|0,0:0|0:0,0:0:0:0:
93,155,99817,1,0,1:0:0:0:
347,85,99986,1,0,0:0:0:0:
152,265,100156,1,8,0:0:0:0:
259,15,100325,1,0,1:0:0:0:
356,216,100495,6,0,P|338:256|344:311,1,83.9999974365235,2|0,1:2|0:0,0:0:0:0:
512,130,100834,2,0,L|415:137,1,83.9999974365235,8|0,0:0|0:0,0:0:0:0:
207,163,101173,1,0,1:0:0:0:
424,271,101343,1,0,0:0:0:0:
326,40,101512,1,8,0:0:0:0:
232,291,101682,1,0,1:0:0:0:
219,322,102021,5,8,1:0:0:0:
512,129,102190,1,8,1:0:0:0:
152,156,102360,1,8,1:0:0:0:
512,288,102529,1,8,0:1:0:0:
331,7,102699,5,8,0:3:0:0:
331,7,102784,1,8,0:3:0:0:
331,7,102868,1,4,1:2:0:0:
248,341,103038,1,4,1:2:0:0:
256,192,103123,12,4,104563,0:3:0:0:
