osu file format v14

[General]
AudioFilename: Little My Star.mp3
AudioLeadIn: 1000
PreviewTime: 70921
Countdown: 0
SampleSet: Normal
StackLeniency: 0.6
Mode: 0
LetterboxInBreaks: 1
CountdownOffset: 2
WidescreenStoryboard: 0

[Editor]
Bookmarks: 3125,13972,24819,46514,68209,70921,81769,91260,92277,103294,125158,146853,149565,160413,161769,172616,183463,193972,204480
DistanceSpacing: 0.7
BeatDivisor: 4
GridSize: 4
TimelineZoom: 1.8

[Metadata]
Title:Little My Star
TitleUnicode:Little My Star
Artist:U
ArtistUnicode:U
Creator:-Hyde
Version:Insane
Source:魔界天使ジブリール -episode2-
Tags:Makai Tenshi Djibril Episode 2 Jibril The Angel FrontWing Eroge Visual Novel VideoGame U Funta UCO Tentacle Devil Lolis Japanese ZekeyHache ezek
BeatmapID:238326
BeatmapSetID:87209

[Difficulty]
HPDrainRate:7
CircleSize:4
OverallDifficulty:8
ApproachRate:9
SliderMultiplier:1.80000000596046
SliderTickRate:1

[Events]
//Background and Video events
0,0,"BG.jpg",0,0
//Break Periods
//Storyboard Layer 0 (Background)
//Storyboard Layer 1 (Fail)
//Storyboard Layer 2 (Pass)
//Storyboard Layer 3 (Foreground)
//Storyboard Layer 4 (Overlay)
//Storyboard Sound Samples

[TimingPoints]
3125,338.983050847458,4,1,0,50,1,0
13972,-100,4,1,0,80,0,0
24141,-133.333333333333,4,1,0,50,0,0
24311,-100,4,1,0,50,0,0
24650,-100,4,1,0,70,0,0
46514,-100,4,1,0,80,0,0
68209,-100,4,1,0,50,0,0
70921,-100,4,1,0,80,0,1
74989,-100,4,1,0,50,0,1
75328,-100,4,1,0,60,0,1
75667,-100,4,1,0,70,0,1
76345,-100,4,1,0,80,0,1
81430,-166.666666666667,4,1,0,70,0,1
81684,-100,4,2,0,10,0,1
81769,-100,4,1,0,80,0,1
85836,-100,4,1,0,50,0,1
86175,-100,4,1,0,60,0,1
86514,-100,4,1,0,70,0,1
87192,-100,4,1,0,80,0,1
91260,-100,4,1,0,60,0,1
92277,-100,4,1,0,80,0,0
92616,-100,4,1,0,80,0,0
103294,-100,4,1,0,70,0,0
125158,-100,4,1,0,80,0,0
130582,-200,4,1,0,50,0,0
136006,-100,4,1,0,60,0,0
145158,-100,4,1,0,70,0,0
146853,-100,4,1,0,60,0,0
148209,-166.666666666667,4,2,0,60,0,0
148435,-166.666666666667,4,2,0,10,0,0
148548,-166.666666666667,4,2,0,60,0,0
148774,-166.666666666667,4,2,0,10,0,0
148887,-166.666666666667,4,2,0,60,0,0
149565,-100,4,1,0,80,0,1
153633,-100,4,1,0,50,0,1
153972,-100,4,1,0,60,0,1
154311,-100,4,1,0,70,0,1
154989,-100,4,1,0,80,0,1
159057,-100,4,1,0,70,0,1
160413,-100,4,1,0,50,0,0
161769,-100,4,1,0,60,0,0
165836,-100,4,1,0,70,0,0
172616,-100,4,1,0,80,0,1
176684,-100,4,1,0,50,0,1
177023,-100,4,1,0,60,0,1
177362,-100,4,1,0,70,0,1
178040,-100,4,1,0,80,0,1
183125,-166.666666666667,4,1,0,70,0,1
183379,-100,4,2,0,10,0,1
183463,-100,4,1,0,80,0,1
187531,-100,4,1,0,50,0,1
187870,-100,4,1,0,60,0,1
188209,-100,4,1,0,70,0,1
188887,-100,4,1,0,80,0,1
192955,-100,4,1,0,70,0,1
194311,-100,4,1,0,60,0,0
204480,-100,4,1,0,25,0,0

[Colours]
Combo1 : 175,135,203
Combo2 : 125,234,242
Combo3 : 252,221,114
Combo4 : 245,73,78

[HitObjects]
304,56,3125,6,0,B|344:136|448:152,1,180.000000596046,8|0,0:3|0:0,0:0:0:0:
424,224,3633,1,8,0:3:0:0:
424,224,3802,2,0,B|368:328|368:328|312:360,1,180.000000596046,4|8,0:3|3:2,0:0:0:0:
208,56,4480,6,0,B|168:136|64:152,1,180.000000596046,8|0,0:3|0:0,0:0:0:0:
88,224,4989,1,8,0:3:0:0:
88,224,5158,2,0,B|152:328|152:328|200:360,1,180.000000596046,4|8,0:3|3:2,0:0:0:0:
264,136,5836,5,8,0:3:0:0:
184,176,6006,1,0,0:0:0:0:
216,256,6175,1,0,0:0:0:0:
312,256,6345,1,8,0:3:0:0:
344,176,6514,2,0,B|384:136|384:136|424:128|456:96|456:96|488:64,1,180.000000596046,4|8,0:3|3:2,0:0:0:0:
191,88,7192,6,0,B|99:108|47:192,1,180.000000596046,8|0,0:3|0:0,0:0:0:0:
112,248,7701,1,8,0:3:0:0:
112,248,7870,2,0,B|136:336|244:352,1,180.000000596046,4|8,0:3|2:2,0:0:0:0:
321,88,8548,6,0,B|413:108|465:192,1,180.000000596046,8|0,0:3|0:0,0:0:0:0:
400,248,9057,1,8,0:3:0:0:
400,248,9226,2,0,B|376:336|268:352,1,180.000000596046,4|8,0:3|2:2,0:0:0:0:
83,144,9904,5,8,0:3:0:0:
56,216,10074,1,0,0:0:0:0:
115,264,10243,1,0,0:0:0:0:
179,222,10413,1,8,0:3:0:0:
160,148,10582,2,0,P|164:61|239:19,1,180.000000596046,4|8,0:3|3:2,0:0:0:0:
429,240,11260,5,8,0:3:0:0:
456,168,11430,1,0,0:0:0:0:
397,120,11599,1,0,0:0:0:0:
333,162,11769,1,8,0:3:0:0:
352,236,11938,2,0,P|348:323|273:365,1,180.000000596046,4|8,0:3|3:2,0:0:0:0:
220,39,12616,5,8,0:3:0:0:
296,212,12786,1,0,0:0:0:0:
311,103,12955,1,0,0:0:0:0:
200,253,13125,1,12,0:3:0:0:
119,92,13294,5,4,0:3:0:0:
116,196,13463,1,8,0:3:0:0:
220,39,13633,1,12,0:2:0:0:
384,128,13972,6,0,B|384:80|424:48,1,90.000000298023,4|0,0:2|0:0,0:0:0:0:
136,128,14311,2,0,B|136:80|88:48,1,90.000000298023,4|0,0:3|0:0,0:0:0:0:
199,256,14650,6,0,B|215:296|199:344,1,90.000000298023,2|0,0:2|0:0,0:0:0:0:
311,256,14989,2,0,B|295:296|319:344,1,90.000000298023,8|0,0:2|0:0,0:0:0:0:
424,248,15328,6,0,B|520:248,1,90.000000298023,4|0,0:2|0:0,0:0:0:0:
96,248,15667,2,0,B|0:248,1,90.000000298023,4|0,0:3|0:0,0:0:0:0:
308,135,16006,6,0,B|404:119,1,90.000000298023,2|0,0:2|0:0,0:0:0:0:
204,135,16345,2,0,B|108:111,1,90.000000298023,8|8,0:2|0:3,0:0:0:0:
384,252,16684,6,0,B|355:263|333:285|321:314,1,90.000000298023,6|0,0:2|0:0,0:0:0:0:
128,252,17023,2,0,B|156:263|178:285|190:314,1,90.000000298023,4|0,0:3|0:0,0:0:0:0:
308,135,17362,6,0,B|320:106|320:74|308:46,1,90.000000298023
204,135,17701,2,0,B|191:106|191:74|203:46,1,90.000000298023,8|0,0:2|0:0,0:0:0:0:
346,261,18040,6,0,L|426:197,1,90.000000298023,6|0,0:2|0:0,0:0:0:0:
169,260,18379,2,0,L|99:204,1,90.000000298023,4|0,0:3|0:0,0:0:0:0:
256,116,18718,6,0,B|264:148|248:184|256:208,1,90.000000298023,2|0,0:2|0:0,0:0:0:0:
260,256,18972,1,0,0:0:0:0:
280,304,19057,1,8,0:2:0:0:
376,328,19226,1,2,0:3:0:0:
448,256,19396,6,0,B|400:200|496:144|448:88,1,180.000000596046,6|4,0:2|0:3,0:0:0:0:
368,128,19904,1,0,0:0:0:0:
296,184,20074,1,0,0:0:0:0:
144,96,20243,1,2,0:2:0:0:
232,120,20413,1,8,0:2:0:0:
200,208,20582,1,0,0:0:0:0:
112,188,20752,6,0,B|160:244|56:300|112:356,1,180.000000596046,6|4,0:2|0:3,0:0:0:0:
200,340,21260,1,0,0:0:0:0:
256,268,21430,1,0,0:0:0:0:
428,300,21599,1,0,0:0:0:0:
420,212,21769,1,8,0:2:0:0:
332,220,21938,1,0,0:0:0:0:
336,312,22108,22,0,B|280:356|216:268|164:316,1,180.000000596046,6|0,0:2|0:0,0:0:0:0:
76,332,22616,1,0,0:0:0:0:
100,244,22786,1,0,0:0:0:0:
284,196,22955,1,0,0:0:0:0:
224,264,23125,1,8,0:2:0:0:
172,192,23294,1,0,0:0:0:0:
344,56,23633,21,0,0:0:0:0:
168,104,23802,1,0,0:0:0:0:
344,176,23972,1,0,0:0:0:0:
176,264,24141,2,0,L|176:297,2,33.750001399219,8|8|0,0:3|0:3|0:0,0:0:0:0:
84,272,24480,1,2,0:3:0:0:
8,224,24650,5,2,0:2:0:0:
88,184,24819,1,4,2:3:0:0:
8,144,24989,1,0,0:0:0:0:
88,104,25158,1,8,0:3:0:0:
8,64,25328,1,0,0:0:0:0:
88,24,25497,1,8,2:3:0:0:
88,24,25667,2,0,B|152:-8|192:72|264:24,1,180.000000596046,2|2,2:3|0:3,0:0:0:0:
324,96,26175,5,4,0:0:0:0:
312,184,26345,1,0,0:0:0:0:
392,228,26514,1,8,0:3:0:0:
456,160,26684,1,0,0:0:0:0:
416,80,26853,1,8,0:3:0:0:
324,96,27023,2,0,B|268:88|268:88|220:48|152:56,1,180.000000596046,2|2,2:3|0:3,0:0:0:0:
64,100,27531,5,8,0:3:0:0:
112,176,27701,1,0,0:0:0:0:
188,224,27870,1,8,0:3:0:0:
168,312,28040,1,0,0:0:0:0:
80,320,28209,1,8,0:3:0:0:
28,244,28379,2,0,B|12:160|52:120|52:120|100:104,1,180.000000596046,2|2,2:3|0:3,0:0:0:0:
192,72,28887,2,0,B|152:16|80:12|80:12|24:40,2,180.000000596046,4|8|8,2:3|2:3|2:3,0:0:0:0:
256,148,29735,1,2,0:3:0:0:
320,72,29904,1,8,2:3:0:0:
380,152,30074,6,0,P|340:240|348:324,1,180.000000596046,4|0,0:0|0:0,0:0:0:0:
464,368,30582,1,8,0:3:0:0:
416,280,30752,1,0,0:0:0:0:
468,196,30921,1,8,0:3:0:0:
380,152,31091,2,0,B|288:184|288:112|192:144,1,180.000000596046,2|2,0:3|0:3,0:0:0:0:
43,205,31599,6,0,L|132:192,1,90.000000298023,4|0,0:3|0:0,0:0:0:0:
92,300,31938,2,0,L|4:316,1,90.000000298023,8|0,0:3|0:0,0:0:0:0:
196,368,32277,1,8,0:3:0:0:
196,368,32447,2,0,B|165:278|165:278|216:209,1,180.000000596046,2|2,0:3|0:3,0:0:0:0:
296,124,32955,5,4,0:3:0:0:
314,213,33125,1,2,0:3:0:0:
404,221,33294,1,8,0:3:0:0:
435,138,33463,1,0,0:0:0:0:
372,76,33633,1,8,0:3:0:0:
292,36,33802,2,0,B|199:46|199:46|131:102,1,180.000000596046,2|2,0:3|0:3,0:0:0:0:
248,164,34311,2,0,B|228:244|228:244|268:364,2,180.000000596046,4|8|8,0:3|0:3|0:3,0:0:0:0:
376,108,35158,1,2,0:3:0:0:
392,148,35243,1,0,3:0:0:0:
396,192,35328,1,8,3:0:0:0:
444,336,35497,6,0,B|473:275|449:246|428:219|454:160,1,180.000000596046,2|2,0:3|0:3,0:0:0:0:
512,32,36006,1,4,0:3:0:0:
424,76,36175,1,0,0:0:0:0:
332,40,36345,2,0,L|332:136,2,90.000000298023,2|0|8,0:3|0:3|0:3,0:0:0:0:
236,108,36853,6,0,B|232:172|232:172|256:220|256:220|236:288,1,180.000000596046,6|4,0:3|3:1,0:0:0:0:
108,328,37362,1,4,0:3:0:0:
160,244,37531,1,2,0:3:0:0:
96,168,37701,2,0,P|116:124|152:92,2,90.000000298023,0|2|0,3:0|0:3|0:0,0:0:0:0:
208,176,38209,6,0,P|304:190|383:172,1,180.000000596046,2|2,0:3|0:3,0:0:0:0:
324,92,38718,1,4,0:3:0:0:
379,9,38887,1,0,0:0:0:0:
470,47,39057,1,8,0:3:0:0:
474,146,39226,2,0,B|441:207|502:258|464:324,1,180.000000596046,2|6,0:3|0:3,0:0:0:0:
316,208,39735,2,0,B|359:176|359:176|371:97|307:64,2,180.000000596046,6|8|8,0:3|0:3|0:3,0:0:0:0:
221,238,40582,1,2,0:3:0:0:
250,332,40752,1,8,0:3:0:0:
348,326,40921,6,0,B|436:326|436:326|472:242,1,180.000000596046,6|2,0:3|0:3,0:0:0:0:
415,72,41430,2,0,B|427:120|427:120|414:159,1,90.000000298023,4|2,0:3|0:3,0:0:0:0:
288,92,41769,2,0,B|275:53|275:53|287:5,1,90.000000298023,0|2,0:0|0:3,0:0:0:0:
118,178,42277,6,0,B|116:271|116:271|163:353,1,180.000000596046,6|2,0:3|0:3,0:0:0:0:
352,346,42786,2,0,B|396:271|396:271|394:178,1,180.000000596046,4|8,0:3|0:3,0:0:0:0:
335,109,43294,2,0,B|256:150|256:150|173:108,1,180.000000596046,2|6,0:3|0:3,0:0:0:0:
139,27,43802,5,8,0:3:0:0:
42,257,44141,1,8,0:3:0:0:
116,205,44311,1,0,0:0:0:0:
142,290,44480,1,8,0:3:0:0:
396,179,44819,1,8,0:3:0:0:
470,127,44989,1,2,0:3:0:0:
370,94,45158,2,0,P|308:150|323:239,1,180.000000596046,8|10,0:3|0:3,0:0:0:0:
190,237,45667,1,2,0:3:0:0:
164,36,45836,5,8,0:3:0:0:
260,124,46006,1,2,0:3:0:0:
260,124,46091,1,0,3:0:0:0:
260,124,46175,1,8,0:3:0:0:
348,36,46345,1,2,0:3:0:0:
164,36,46514,6,0,B|108:68|124:140|124:140|108:228|12:220,1,270.000000894069,4|4,0:0|0:3,0:0:0:0:
169,318,47362,1,4,0:3:0:0:
256,240,47531,1,2,0:3:0:0:
343,318,47701,1,2,0:3:0:0:
494,220,47870,2,0,B|404:228|388:140|388:140|404:68|348:36,1,270.000000894069,4|8,0:0|0:3,0:0:0:0:
172,192,48718,1,4,0:3:0:0:
256,272,48887,1,2,0:3:0:0:
340,192,49057,1,2,0:3:0:0:
256,112,49226,6,0,P|168:196|260:272,1,270.000000894069,4|4,0:0|0:3,0:0:0:0:
257,272,50074,1,4,0:3:0:0:
346,263,50243,1,2,0:3:0:0:
395,187,50413,1,8,0:3:0:0:
376,98,50582,2,0,B|352:138|312:114|272:50|264:178|256:186|248:178|240:50|208:114|168:138|136:98,1,270.000000894069,4|8,0:0|0:3,0:0:0:0:
108,183,51260,2,0,B|92:191|68:223|92:247|108:255,1,90.000000298023,0|8,0:0|0:3,0:0:0:0:
196,345,51599,2,0,B|212:337|236:313|212:281|196:273,1,90.000000298023,2|0,0:3|0:0,0:0:0:0:
156,64,51938,6,0,B|73:71|31:22|31:22|60:80|23:153,2,270.000000894069,4|8|2,0:0|0:3|0:3,0:0:0:0:
107,241,53125,1,2,0:3:0:0:
116,148,53294,2,0,B|202:176|203:262|252:307|312:324,2,270.000000894069,4|8|2,0:0|0:3|0:3,0:0:0:0:
356,64,54650,6,0,B|438:71|480:22|480:22|451:80|488:153,2,270.000000894069,4|8|2,0:0|0:3|0:3,0:0:0:0:
405,241,55836,1,2,0:3:0:0:
396,148,56006,2,0,B|309:176|308:262|259:307|199:324,1,270.000000894069,4|2,0:0|0:3,0:0:0:0:
125,240,56684,1,8,0:3:0:0:
384,240,56853,2,0,B|384:288,4,45.0000001490115,0|2|2|0|2,0:0|0:3|0:3|0:0|0:3,0:0:0:0:
384,140,57362,6,0,B|384:116|384:108|384:108|384:60|352:36|320:20|288:36|256:60|256:108|256:108|256:116|256:140,1,270.000000894069,4|8,0:3|0:3,0:0:0:0:
352,308,58209,1,4,0:3:0:0:
256,380,58378,1,2,0:3:0:0:
160,308,58548,1,2,0:3:0:0:
128,140,58718,2,0,B|128:116|128:108|128:108|128:60|160:36|192:20|224:36|256:60|256:108|256:108|256:116|256:140,1,270.000000894069,4|8,0:3|0:3,0:0:0:0:
160,308,59565,1,4,0:3:0:0:
256,380,59734,1,2,0:3:0:0:
352,308,59904,1,2,0:3:0:0:
256,270,60074,6,0,B|232:192|168:160|168:160|96:184|56:160|53:145,1,270.000000894069,4|8,0:3|0:3,0:0:0:0:
191,50,60921,1,4,0:3:0:0:
255,113,61091,1,2,0:3:0:0:
321,50,61260,1,0,0:0:0:0:
464,144,61430,2,0,B|456:168|416:184|344:160|344:160|280:192|259:263,2,270.000000894069,4|8|2,0:3|0:3|0:3,0:0:0:0:
392,80,62616,5,2,0:3:0:0:
392,80,62701,1,2,0:3:0:0:
392,80,62786,2,0,P|304:92|232:148,1,180.000000596046,4|2,0:0|0:3,0:0:0:0:
264,236,63294,2,0,P|200:236|100:180,1,180.000000596046,8|8,0:3|0:3,0:0:0:0:
52,104,63802,1,2,0:3:0:0:
304,336,64141,6,0,B|376:352|416:296|416:296|432:240,1,180.000000596046,4|2,0:0|0:3,0:0:0:0:
344,256,64650,2,0,B|368:168|368:168|434:109,1,180.000000596046,8|8,0:3|0:3,0:0:0:0:
504,160,65158,1,2,0:3:0:0:
504,160,65328,5,0,0:0:0:0:
504,160,65497,2,0,B|420:184|420:184|328:152,1,180.000000596046,4|2,0:3|0:3,0:0:0:0:
284,76,66006,1,8,0:3:0:0:
196,92,66175,2,0,B|148:84|148:84|108:92,1,90.000000298023,0|8,0:0|0:3,0:0:0:0:
48,160,66514,1,2,0:3:0:0:
72,248,66684,1,0,0:0:0:0:
16,320,66853,5,10,0:3:0:0:
160,216,67023,1,2,0:3:0:0:
160,304,67192,1,2,0:3:0:0:
352,304,67362,1,6,0:3:0:0:
354,125,67531,6,0,L|354:92,3,30.000000099341,12|0|0|0,3:3|3:0|3:0|3:3,3:0:0:0:
162,125,67870,2,0,L|162:92,3,30.000000099341,8|0|0|0,3:3|3:0|3:0|3:3,3:0:0:0:
256,272,68209,5,4,0:3:0:0:
256,216,68548,1,2,2:0:0:0:
256,160,68887,1,2,2:0:0:0:
256,104,69226,1,2,2:0:0:0:
256,281,69904,5,2,2:0:0:0:
352,136,70243,2,0,P|361:123|367:109,6,30.000000099341,8|0|0|0|0|0|4,3:0|3:0|3:0|3:0|3:0|3:0|3:2,3:0:0:0:
208,240,70921,6,0,B|152:320|54:319,1,180.000000596046,4|8,0:3|0:0,0:0:0:0:
208,240,71430,1,2,0:3:0:0:
304,144,71599,2,0,B|352:64|449:48,1,180.000000596046,4|8,0:3|0:0,0:0:0:0:
360,216,72108,5,0,0:0:0:0:
360,216,72277,2,0,B|392:256|368:320|304:328|272:288,1,180.000000596046,4|8,0:3|0:0,0:0:0:0:
144,216,72786,1,2,0:2:0:0:
144,216,72955,2,0,B|120:248|128:312|200:328|239:288,1,180.000000596046,4|8,0:3|0:0,0:0:0:0:
256,168,73463,5,2,0:2:0:0:
256,168,73633,2,0,B|312:96,1,90.000000298023,4|0,0:3|0:0,0:0:0:0:
200,96,73972,2,0,B|256:168,1,90.000000298023,8|2,0:0|0:2,0:0:0:0:
328,208,74311,2,0,B|296:256|272:240|264:248|256:256|256:256|248:248|240:240|216:256|176:208,1,180.000000596046,4|8,0:3|0:0,0:0:0:0:
94,159,74989,5,4,0:3:0:0:
102,89,75158,1,2,0:3:0:0:
159,130,75328,1,8,0:0:0:0:
20,136,75497,5,2,0:3:0:0:
78,35,75667,1,4,0:3:0:0:
193,59,75836,1,2,0:3:0:0:
205,176,76006,1,8,0:0:0:0:
98,223,76175,1,2,0:3:0:0:
256,256,76345,6,0,B|328:200|328:200|416:200,1,180.000000596046,4|8,0:3|0:0,0:0:0:0:
504,232,76853,1,0,0:0:0:0:
360,120,77023,2,0,B|264:120|264:120|184:88,1,180.000000596046,4|8,0:3|0:0,0:0:0:0:
62,274,77531,5,2,0:3:0:0:
144,312,77701,1,0,0:0:0:0:
204,248,77870,1,2,0:2:0:0:
168,164,78040,1,8,0:0:0:0:
80,179,78209,1,2,0:3:0:0:
112,96,78379,2,0,P|185:46|286:22,1,180.000000596046,4|8,0:3|0:0,0:0:0:0:
448,136,79057,6,0,B|296:232,1,180.000000596046,4|8,0:3|0:0,0:0:0:0:
204,172,79565,1,0,0:0:0:0:
216,64,79735,2,0,B|264:72|292:107,1,90.000000298023,0|2,0:0|0:2,0:0:0:0:
296,320,80074,2,0,B|248:312|219:276,1,90.000000298023,8|2,0:0|0:2,0:0:0:0:
133,141,80413,5,4,3:3:0:0:
173,120,80497,1,8,3:3:0:0:
212,141,80582,1,0,3:0:0:0:
223,184,80667,1,0,3:0:0:0:
255,212,80751,1,8,3:3:0:0:
288,184,80836,1,8,3:3:0:0:
299,141,80921,1,0,3:0:0:0:
338,120,81006,1,8,3:3:0:0:
378,141,81090,1,4,3:2:0:0:
312,280,81430,6,0,P|339:303|314:328,1,80.9999977962969,14|0,0:0|0:0,0:0:0:0:
312,280,81769,6,0,B|236:240|236:240|172:160,1,180.000000596046,4|8,0:3|0:0,0:0:0:0:
256,120,82277,1,0,0:0:0:0:
334,166,82447,2,0,B|276:240|276:240|200:280,1,180.000000596046,4|8,0:3|0:0,0:0:0:0:
136,216,82955,5,2,0:2:0:0:
184,139,83125,2,0,P|254:92|326:136,1,180.000000596046,4|8,0:3|0:0,0:0:0:0:
376,216,83633,1,2,0:3:0:0:
376,216,83802,2,0,L|344:300,1,90.000000298023,4|0,0:3|0:0,0:0:0:0:
168,300,84141,2,0,L|135:216,1,90.000000298023,8|2,0:0|0:2,0:0:0:0:
184,139,84480,6,0,B|128:119|128:119|97:115,1,90.000000298023,4|0,0:3|0:0,0:0:0:0:
328,139,84819,2,0,B|384:119|384:119|414:115,1,90.000000298023,8|0,0:0|0:0,0:0:0:0:
173,52,85158,2,0,B|212:59|240:47|240:47|256:35|272:47|272:47|296:59|348:51,1,180.000000596046,4|8,0:3|0:0,0:0:0:0:
128,224,85836,6,0,B|168:280|168:280|168:301,1,90.000000298023,4|2,0:3|0:3,0:0:0:0:
384,224,86175,2,0,B|344:280|344:280|344:301,1,90.000000298023,8|2,0:0|0:3,0:0:0:0:
256,272,86514,1,4,0:3:0:0:
192,168,86684,1,2,0:3:0:0:
256,72,86853,1,8,0:0:0:0:
320,168,87023,1,2,0:3:0:0:
160,304,87192,6,0,B|104:352|24:312|40:240,1,180.000000596046,4|8,0:3|0:0,0:0:0:0:
160,304,87701,1,2,0:3:0:0:
120,192,87870,2,0,B|88:120|168:72|224:120,2,180.000000596046,4|8|4,0:3|0:0|0:3,0:0:0:0:
80,272,88718,2,0,B|72:320|40:352,2,90.000000298023,2|8|2,0:3|0:0|0:3,0:0:0:0:
40,192,89226,2,0,B|32:96|120:32,1,180.000000596046,4|8,0:3|0:0,0:0:0:0:
152,144,89904,6,0,B|184:184|232:192,1,90.000000298023,4|2,0:3|0:2,0:0:0:0:
296,136,90243,1,8,0:0:0:0:
384,168,90413,1,2,0:2:0:0:
472,192,90582,2,0,B|480:96|392:40,1,180.000000596046,4|8,0:3|0:0,0:0:0:0:
203,305,91260,5,4,3:0:0:0:
203,251,91372,1,8,3:0:0:0:
222,201,91485,1,2,3:0:0:0:
255,157,91598,1,8,3:0:0:0:
290,201,91712,1,0,3:0:0:0:
309,251,91825,1,8,3:0:0:0:
309,305,91937,1,4,3:2:0:0:
256,40,92277,5,14,0:0:0:0:
336,256,92616,6,0,L|365:340,1,90.000000298023,4|0,0:2|0:0,0:0:0:0:
368,128,92955,2,0,P|402:99|419:58,1,90.000000298023,4|0,0:3|0:0,0:0:0:0:
176,256,93294,6,0,L|146:340,1,90.000000298023,2|0,0:2|0:0,0:0:0:0:
143,127,93633,2,0,P|109:99|92:58,1,90.000000298023,8|0,0:2|0:0,0:0:0:0:
208,216,93972,6,0,B|232:264|232:264|272:264,1,90.000000298023,4|0,0:2|0:0,0:0:0:0:
304,168,94311,2,0,B|280:120|280:120|243:120,1,90.000000298023,4|0,0:3|0:0,0:0:0:0:
152,264,94650,6,0,L|56:264,1,90.000000298023,2|0,0:2|0:0,0:0:0:0:
360,264,94989,2,0,L|450:264,1,90.000000298023,8|0,0:2|0:0,0:0:0:0:
208,144,95328,6,0,P|176:104|160:64,1,90.000000298023,4|0,0:2|0:0,0:0:0:0:
303,240,95667,2,0,P|331:275|349:315,1,90.000000298023,4|0,0:3|0:0,0:0:0:0:
175,274,96006,6,0,B|159:282|135:274|135:274|111:266|87:274,1,90.000000298023,2|0,0:2|0:0,0:0:0:0:
337,110,96345,2,0,B|353:118|377:110|377:110|401:102|425:110,1,90.000000298023,8|0,0:2|0:0,0:0:0:0:
429,276,96684,6,0,B|348:313|348:237|245:281,1,180.000000596046,4|4,0:2|0:3,0:0:0:0:
51,177,97362,2,0,P|96:181|147:169,1,90.000000298023,2|0,0:2|0:0,0:0:0:0:
180,152,97616,1,0,0:0:0:0:
220,124,97701,1,8,0:2:0:0:
316,192,97870,1,0,0:0:0:0:
320,304,98040,6,0,B|312:352|256:384|200:352|192:304,1,180.000000596046,4|4,0:2|0:3,0:0:0:0:
168,216,98548,1,0,0:0:0:0:
256,184,98718,1,2,0:2:0:0:
432,184,98887,1,0,0:0:0:0:
416,272,99057,1,8,0:2:0:0:
344,216,99226,1,0,0:0:0:0:
320,80,99396,6,0,B|312:32|256:0|200:32|192:80,1,180.000000596046,4|4,0:2|0:3,0:0:0:0:
151,158,99904,1,0,0:0:0:0:
211,230,100074,1,2,0:2:0:0:
364,318,100243,1,0,0:0:0:0:
394,233,100413,1,8,0:2:0:0:
304,246,100582,1,0,0:0:0:0:
145,317,100752,6,0,L|112:232,1,90.000000298023,4|0,0:2|0:0,0:0:0:0:
134,66,101091,2,0,L|160:152,1,90.000000298023,4|0,0:3|0:0,0:0:0:0:
368,317,101430,6,0,L|400:232,1,90.000000298023,2|0,0:2|0:0,0:0:0:0:
379,66,101769,2,0,L|352:152,1,90.000000298023,8|0,0:2|0:0,0:0:0:0:
256,216,102108,1,6,0:3:0:0:
256,216,102277,5,8,3:3:0:0:
256,236,102362,1,0,3:0:0:0:
256,256,102447,1,0,3:0:0:0:
256,272,102531,1,0,3:0:0:0:
256,292,102616,1,4,3:2:0:0:
384,32,103294,5,2,0:3:0:0:
296,76,103463,1,4,0:2:0:0:
296,176,103633,1,0,0:0:0:0:
364,248,103802,1,8,0:3:0:0:
320,336,103972,1,0,0:0:0:0:
220,324,104141,1,8,0:3:0:0:
200,228,104311,2,0,B|220:188|220:188|228:128|216:44,1,180.000000596046,2|2,2:3|0:3,0:0:0:0:
132,104,104819,6,0,L|128:14,1,90.000000298023,4|0,0:0|0:0,0:0:0:0:
48,72,105158,2,0,L|52:180,1,90.000000298023,8|0,0:3|0:0,0:0:0:0:
60,260,105497,1,8,0:3:0:0:
160,252,105667,2,0,B|204:260|204:260|268:244|316:172,1,180.000000596046,2|2,0:3|0:3,0:0:0:0:
360,96,106175,5,4,0:0:0:0:
420,176,106345,1,0,0:0:0:0:
356,252,106514,1,8,0:3:0:0:
404,340,106684,1,0,0:0:0:0:
500,320,106853,1,8,0:3:0:0:
508,220,107023,2,0,B|468:172|404:156|340:188,1,180.000000596046,2|2,0:3|0:3,0:0:0:0:
256,248,107531,5,4,0:3:0:0:
348,92,107870,1,8,0:3:0:0:
168,92,108209,1,8,0:3:0:0:
260,92,108379,1,2,0:3:0:0:
212,168,108548,1,8,0:3:0:0:
168,248,108718,6,0,B|256:264|256:264|344:248,1,180.000000596046,2|2,0:3|0:3,0:0:0:0:
320,160,109226,2,0,B|256:96,1,90.000000298023,8|0,0:3|0:0,0:0:0:0:
192,160,109565,2,0,B|256:96,1,90.000000298023,8|2,0:3|0:3,0:0:0:0:
88,24,110074,6,0,B|104:96|0:96|16:192,1,180.000000596046,6|2,0:3|0:3,0:0:0:0:
83,239,110582,1,8,1:3:0:0:
25,307,110752,1,0,1:0:0:0:
172,243,110921,1,8,1:3:0:0:
232,174,111091,1,2,1:3:0:0:
320,331,111430,6,0,L|341:242,1,90.000000298023,6|8,0:3|0:3,0:0:0:0:
192,331,111769,2,0,L|172:243,2,90.000000298023,2|8|0,0:3|0:3|0:0,0:0:0:0:
80,295,112277,2,0,B|30:286|23:233,1,90.000000298023,8|2,0:3|0:3,0:0:0:0:
60,123,112616,2,0,B|109:131|116:184,1,90.000000298023,8|2,0:3|0:3,0:0:0:0:
169,285,112955,6,0,B|221:257|217:169|276:144,1,180.000000596046,4|8,0:0|0:3,0:0:0:0:
276,28,113463,2,0,P|240:60|200:72,1,90.000000298023,2|8,0:3|0:3,0:0:0:0:
88,44,113802,2,0,B|60:8,2,45.0000001490115,2|0|8,0:3|0:0|0:3,0:0:0:0:
108,160,114141,6,0,B|136:228|76:276|112:340,1,180.000000596046,10|2,0:3|0:3,0:0:0:0:
208,360,114650,1,8,0:3:0:0:
284,296,114819,2,0,L|360:352,2,90.000000298023,2|8|2,0:3|0:3|0:3,0:0:0:0:
200,244,115327,1,8,0:3:0:0:
296,212,115497,6,0,P|256:160|144:164,1,180.000000596046,10|2,0:3|0:3,0:0:0:0:
112,252,116006,1,8,0:3:0:0:
68,340,116175,2,0,P|28:300|8:264,2,90.000000298023,2|8|0,0:3|0:3|0:0,0:0:0:0:
164,368,116684,1,8,0:3:0:0:
248,316,116853,6,0,B|264:276|265:228|225:227|226:179|234:141,1,180.000000596046,10|2,0:3|0:3,0:0:0:0:
296,52,117362,1,8,0:3:0:0:
400,76,117531,1,0,0:0:0:0:
412,184,117701,1,8,0:3:0:0:
319,238,117870,2,0,B|276:260|228:236|228:236|184:212|140:240,1,180.000000596046,2|10,0:3|0:3,0:0:0:0:
78,163,118379,2,0,B|48:104|96:44|96:44|141:89,2,180.000000596046,4|8|8,0:3|0:3|0:3,0:0:0:0:
44,257,119226,1,2,0:3:0:0:
253,324,119396,5,8,0:3:0:0:
210,243,119565,1,2,0:3:0:0:
234,154,119735,2,0,P|298:101|395:105,1,180.000000596046,4|8,0:3|0:3,0:0:0:0:
459,175,120243,1,0,0:0:0:0:
397,252,120413,2,0,P|368:213|327:182,2,90.000000298023,8|0|8,0:3|0:0|0:3,0:0:0:0:
217,329,120921,2,0,P|194:248|219:143,1,180.000000596046,10|2,0:3|0:3,0:0:0:0:
366,31,121430,1,8,0:3:0:0:
286,88,121599,1,0,0:0:0:0:
199,38,121769,1,8,0:3:0:0:
118,96,121938,2,0,P|100:181|104:278,1,180.000000596046,2|10,0:3|0:3,0:0:0:0:
172,346,122447,5,4,0:3:0:0:
199,38,122786,1,8,0:3:0:0:
175,124,122955,1,0,0:0:0:0:
97,77,123125,1,8,0:3:0:0:
313,346,123463,1,8,0:3:0:0:
337,260,123633,1,2,0:3:0:0:
415,307,123802,2,0,B|445:214|388:202|419:118,1,180.000000596046,6|10,0:3|0:3,0:0:0:0:
380,45,124311,1,2,0:3:0:0:
181,107,124480,5,8,0:3:0:0:
256,196,124650,1,2,0:3:0:0:
256,196,124734,1,0,0:0:0:0:
256,196,124819,1,8,0:3:0:0:
331,107,124989,1,2,0:3:0:0:
181,107,125158,6,0,B|229:115|253:139|269:203|269:203|285:267|317:291|357:291,1,270.000000894069,4|8,0:0|0:3,0:0:0:0:
478,92,126006,1,4,0:3:0:0:
413,189,126175,1,2,0:3:0:0:
498,269,126345,1,2,0:3:0:0:
331,107,126514,6,0,B|283:115|259:139|243:203|243:203|227:267|195:291|155:291,1,270.000000894069,4|8,0:0|0:3,0:0:0:0:
34,92,127362,1,4,0:3:0:0:
99,189,127531,1,2,0:3:0:0:
14,269,127701,1,2,0:3:0:0:
120,96,127870,6,0,B|200:72|240:112|272:112|312:72|392:96,1,270.000000894069,4|8,0:0|0:3,0:0:0:0:
176,192,128718,1,4,0:3:0:0:
336,192,128887,1,2,0:3:0:0:
48,168,129226,6,0,B|24:208|40:256|88:288|144:256,1,180.000000596046,4|2,0:0|0:3,0:0:0:0:
256,192,129735,1,8,0:3:0:0:
464,168,129904,2,0,B|488:208|472:256|424:288|368:256,1,180.000000596046,8|2,0:3|0:3,0:0:0:0:
256,192,130413,1,0,0:0:0:0:
336,136,130582,6,0,B|368:104|384:56,1,90.000000298023,4|2,0:3|0:3,0:0:0:0:
136,60,131091,2,0,B|156:108|188:140,1,90.000000298023,2|8,0:3|0:3,0:0:0:0:
256,80,131599,1,4,0:3:0:0:
304,240,131938,6,0,B|280:256|240:256|216:240,1,90.000000298023,4|2,0:3|0:3,0:0:0:0:
168,152,132447,2,0,B|192:136|232:136|256:152,1,90.000000298023,2|8,0:3|0:3,0:0:0:0:
253,150,132955,1,4,0:3:0:0:
248,336,133294,5,4,0:3:0:0:
135,179,133633,1,2,0:3:0:0:
135,179,133802,2,0,B|151:203|151:243|135:267,1,90.000000298023,2|8,0:3|0:3,0:0:0:0:
54,216,134311,2,0,B|35:201|29:156|60:129,2,90.000000298023,4|8|2,0:3|0:3|0:3,0:0:0:0:
154,130,135158,5,2,0:3:0:0:
205,45,135328,1,8,0:3:0:0:
307,45,135497,1,0,0:0:0:0:
307,45,135582,1,2,0:3:0:0:
307,45,135667,1,2,0:3:0:0:
358,130,135836,1,8,0:3:0:0:
149,222,136006,6,0,B|51:138|116:80|180:111|164:177|81:194|73:69,2,270.000000894069,4|8|2,0:0|0:3|0:3,0:0:0:0:
363,222,137362,6,0,B|460:138|395:80|331:111|347:177|430:194|438:69,2,270.000000894069,4|8|2,0:0|0:3|0:3,0:0:0:0:
216,312,138718,6,0,B|224:176|168:48,1,270.000000894069,4|8,0:0|0:3,0:0:0:0:
80,184,139565,1,2,0:3:0:0:
80,184,139735,2,0,B|64:128|96:56|176:48,1,180.000000596046,2|4,0:3|0:3,0:0:0:0:
312,80,140413,1,2,0:3:0:0:
312,80,140582,2,0,B|320:144|264:200|192:184,1,180.000000596046,2|8,0:3|0:3,0:0:0:0:
118,125,141091,5,4,0:3:0:0:
148,310,141260,1,2,0:3:0:0:
148,310,141345,1,2,0:3:0:0:
148,310,141430,2,0,B|157:249|109:192|43:190,1,180.000000596046,4|2,0:3|0:3,0:0:0:0:
37,90,141938,2,0,B|71:133|165:138|205:94,1,180.000000596046,8|2,0:3|0:3,0:0:0:0:
300,108,142447,1,2,0:3:0:0:
312,10,142616,1,0,0:0:0:0:
392,72,142786,6,0,B|424:200|424:200|464:240,1,180.000000596046,4|2,0:3|0:3,0:0:0:0:
376,344,143294,2,0,B|328:160,1,180.000000596046,8|8,0:3|0:3,0:0:0:0:
176,95,143802,2,0,B|175:116|231:148|248:132,1,90.000000298023,2|0,0:3|0:0,0:0:0:0:
386,70,144141,2,0,B|370:110|306:94|306:62|314:22|266:14|244:44,1,180.000000596046,4|2,0:3|0:3,0:0:0:0:
92,56,144650,2,0,B|78:19|34:9|19:20,2,90.000000298023,8|0|8,0:3|0:0|0:3,0:0:0:0:
184,232,145158,5,2,0:3:0:0:
224,192,145328,1,2,0:3:0:0:
112,256,145497,1,6,0:3:0:0:
296,168,145667,1,2,0:3:0:0:
40,232,145836,1,2,0:3:0:0:
368,144,146006,1,6,0:3:0:0:
186,65,146175,6,0,B|161:64|139:48,3,30.000000099341,12|0|0|0,3:3|3:0|3:3|3:0,3:0:0:0:
326,65,146514,2,0,B|351:64|373:48,3,30.000000099341,8|0|0|0,3:3|3:0|3:3|3:0,3:0:0:0:
256,159,146853,5,4,2:3:0:0:
256,215,147192,1,2,2:0:0:0:
256,271,147531,1,2,2:0:0:0:
256,327,147870,1,2,2:0:0:0:
204,192,148209,6,0,P|196:160|220:132,1,71.9999980411528,2|0,0:2|0:0,0:0:0:0:
292,132,148548,2,0,P|315:157|307:191,1,71.9999980411528,2|0,0:2|0:0,0:0:0:0:
256,240,148887,2,0,L|256:264,6,17.9999995102882,8|0|0|0|0|0|4,3:0|3:0|3:0|3:0|3:0|3:0|3:2,3:0:0:0:
104,32,149565,6,0,B|152:112|256:120,1,180.000000596046,4|8,0:3|0:0,0:0:0:0:
352,184,150074,1,2,0:2:0:0:
352,184,150243,2,0,B|320:272|208:288,2,180.000000596046,4|8|4,0:3|0:0|0:3,0:0:0:0:
432,96,151091,1,2,0:3:0:0:
312,120,151260,1,8,0:0:0:0:
224,48,151430,1,2,0:2:0:0:
112,88,151599,2,0,B|32:144|16:240,1,180.000000596046,4|8,0:3|0:0,0:0:0:0:
256,192,152277,6,0,B|232:152|168:144,1,90.000000298023,4|2,0:3|0:2,0:0:0:0:
56,216,152616,2,0,B|88:264|152:264,1,90.000000298023,8|2,0:0|0:2,0:0:0:0:
256,192,152955,2,0,B|288:152|360:144,1,90.000000298023,4|0,0:3|0:3,0:0:0:0:
456,216,153294,2,0,B|424:264|368:264,1,90.000000298023,8|2,0:0|0:2,0:0:0:0:
202,290,153633,5,4,0:3:0:0:
308,290,153802,1,2,0:3:0:0:
369,184,153972,1,8,0:0:0:0:
256,108,154141,1,2,0:3:0:0:
148,184,154311,1,4,0:3:0:0:
124,262,154480,5,2,0:3:0:0:
176,112,154650,1,8,0:0:0:0:
335,121,154819,1,2,0:3:0:0:
376,276,154989,6,0,B|280:300|192:276,1,180.000000596046,4|8,0:3|0:0,0:0:0:0:
197,277,155497,1,2,0:3:0:0:
124,140,155667,2,0,B|212:116|308:140,1,180.000000596046,4|8,0:3|0:0,0:0:0:0:
392,212,156175,5,2,0:3:0:0:
464,116,156345,2,0,P|472:68|460:20,1,90.000000298023,0|2,0:0|0:2,0:0:0:0:
348,56,156684,1,8,0:0:0:0:
240,12,156853,1,2,0:2:0:0:
216,128,157023,2,0,L|184:308,1,180.000000596046,4|8,0:3|0:0,0:0:0:0:
88,160,157701,6,0,P|122:154|176:164,1,90.000000298023,4|2,0:3|0:3,0:0:0:0:
423,223,158040,2,0,P|389:229|336:220,1,90.000000298023,8|2,0:0|0:2,0:0:0:0:
256,99,158379,1,0,0:0:0:0:
163,191,158548,1,2,0:2:0:0:
256,284,158718,1,8,0:0:0:0:
348,192,158887,1,2,0:2:0:0:
301,29,159057,5,4,3:3:0:0:
254,15,159170,1,8,3:3:0:0:
215,43,159283,1,0,3:3:0:0:
198,87,159396,1,8,3:0:0:0:
165,121,159509,1,8,3:3:0:0:
117,124,159622,1,8,3:3:0:0:
84,88,159735,1,4,3:2:0:0:
184,264,160074,6,0,B|200:304|264:288|264:256|256:216|304:208|327:237,1,180.000000596046,14|4,0:0|2:3,0:0:0:0:
328,120,160752,5,2,2:2:0:0:
256,64,160921,1,8,2:3:0:0:
184,120,161091,1,8,2:3:0:0:
256,192,161430,5,2,2:2:0:0:
136,60,161769,6,0,B|88:48|88:48|44:48,2,90.000000298023,8|2|2,2:3|2:2|2:2,2:0:0:0:
256,196,162277,1,8,2:3:0:0:
416,112,162447,1,8,2:3:0:0:
328,124,162616,1,2,2:2:0:0:
348,36,162786,1,2,2:2:0:0:
256,240,163125,6,0,B|160:240|160:240|144:232|144:232|72:232,1,180.000000596046,4|8,2:3|2:3,2:0:0:0:
32,304,163633,2,0,B|128:304,1,90.000000298023,8|8,2:3|2:3,2:0:0:0:
122,304,164141,1,2,2:2:0:0:
352,344,164480,6,0,B|380:332|392:308|392:308|432:288,2,90.000000298023,4|2|2,2:3|2:2|2:2,2:0:0:0:
260,336,164989,1,8,2:3:0:0:
216,256,165158,1,8,2:3:0:0:
260,176,165328,1,2,2:2:0:0:
280,88,165497,1,2,2:3:0:0:
204,36,165667,1,2,2:2:0:0:
148,108,165836,6,0,L|56:120,1,90.000000298023,8|2,2:3|2:2,2:0:0:0:
184,248,166175,1,2,2:2:0:0:
360,212,166345,1,8,2:3:0:0:
312,40,166514,2,0,L|400:60,1,90.000000298023,8|2,2:3|2:2,2:0:0:0:
256,172,166853,1,2,2:2:0:0:
84,120,167023,1,2,2:2:0:0:
40,292,167192,2,0,L|136:320,1,90.000000298023,8|2,2:3|2:2,2:0:0:0:
300,360,167531,5,2,2:2:0:0:
369,304,167701,1,8,2:3:0:0:
286,271,167870,1,8,2:3:0:0:
116,208,168040,1,2,2:2:0:0:
32,180,168209,1,2,2:2:0:0:
104,124,168379,1,2,2:2:0:0:
264,32,168548,5,2,2:2:0:0:
356,28,168718,1,2,2:2:0:0:
316,108,168887,1,2,2:2:0:0:
240,276,169057,1,8,2:3:0:0:
152,296,169226,1,8,2:3:0:0:
176,208,169396,1,2,2:2:0:0:
232,36,169565,1,2,2:3:0:0:
252,124,169735,1,2,2:2:0:0:
320,64,169904,6,0,B|348:72|368:56|388:48|407:48,3,90.000000298023,4|2|2|8,2:3|2:2|2:2|2:3,2:0:0:0:
247,143,170582,6,0,B|219:151|199:135|179:127|159:127,3,90.000000298023,8|2|2|2,2:3|2:2|2:2|2:2,2:0:0:0:
349,98,171260,5,2,2:3:0:0:
349,285,171430,1,2,2:3:0:0:
162,285,171599,1,2,2:3:0:0:
162,98,171769,1,2,2:3:0:0:
216,216,171938,6,0,B|216:168,2,45.0000001490115,8|0|0,3:3|3:0|3:0,3:0:0:0:
296,172,172277,2,0,B|296:220,2,45.0000001490115,8|0|0,3:3|3:0|3:0,3:0:0:0:
200,96,172616,6,0,B|212:44|156:4|100:16|76:56,1,180.000000596046,4|8,0:3|0:0,0:0:0:0:
48,148,173125,1,2,0:2:0:0:
108,224,173294,2,0,B|179:277|179:277|195:280|195:280|256:328,1,180.000000596046,4|8,0:3|0:0,0:0:0:0:
312,96,173972,6,0,B|300:44|356:4|412:16|436:56,1,180.000000596046,4|8,0:3|0:0,0:0:0:0:
464,148,174481,1,2,0:2:0:0:
404,224,174650,2,0,B|332:277|332:277|316:280|316:280|256:328,1,180.000000596046,4|8,0:3|0:0,0:0:0:0:
256,84,175328,6,0,B|255:14|255:14|237:3,1,90.000000298023,4|2,0:3|0:2,0:0:0:0:
321,158,175667,2,0,B|389:158|389:158|405:143,1,90.000000298023,8|2,0:0|0:2,0:0:0:0:
257,234,176006,2,0,B|257:299|257:299|275:315,1,90.000000298023,4|2,0:3|0:2,0:0:0:0:
193,158,176345,2,0,B|126:156|126:156|105:169,1,90.000000298023,8|2,0:0|0:2,0:0:0:0:
52,300,176684,5,4,0:3:0:0:
118,326,176853,1,2,0:3:0:0:
145,257,177023,1,8,0:0:0:0:
77,233,177192,1,2,0:3:0:0:
59,376,177362,5,4,0:3:0:0:
194,315,177531,1,2,0:3:0:0:
135,180,177701,1,8,0:0:0:0:
0,241,177870,1,2,0:3:0:0:
132,88,178040,6,0,B|180:60|248:64|296:116,1,180.000000596046,4|8,0:3|0:0,0:0:0:0:
295,115,178548,1,2,0:2:0:0:
380,296,178718,2,0,B|332:324|264:320|216:268,1,180.000000596046,4|8,0:3|0:0,0:0:0:0:
72,200,179226,5,2,0:3:0:0:
176,144,179396,2,0,P|202:107|221:66,1,90.000000298023,4|2,0:3|0:3,0:0:0:0:
328,12,179735,1,8,0:0:0:0:
392,108,179904,1,2,0:2:0:0:
376,224,180074,2,0,P|332:300|252:340,1,180.000000596046,4|8,0:3|0:0,0:0:0:0:
132,104,180752,6,0,L|160:292,1,180.000000596046,4|8,0:3|0:0,0:0:0:0:
120,384,181260,1,2,0:2:0:0:
36,320,181430,2,0,P|8:284|4:232,1,90.000000298023,4|2,0:3|0:3,0:0:0:0:
188,36,181769,2,0,P|216:72|220:124,1,90.000000298023,8|2,0:0|0:3,0:0:0:0:
176,356,182108,5,4,3:3:0:0:
168,312,182192,1,8,3:3:0:0:
184,268,182277,1,0,3:3:0:0:
216,236,182362,1,0,3:0:0:0:
256,216,182447,1,8,3:3:0:0:
296,236,182531,1,8,3:3:0:0:
328,268,182616,1,8,3:3:0:0:
344,312,182701,1,0,0:0:0:0:
336,356,182786,1,6,3:2:0:0:
416,84,183125,6,0,P|380:88|372:48,1,80.9999977962969,14|0,0:0|0:0,0:0:0:0:
370,51,183463,6,0,L|328:228,1,180.000000596046,4|8,0:3|0:0,0:0:0:0:
256,320,183972,1,2,0:2:0:0:
156,260,184141,2,0,P|132:220|120:172,1,90.000000298023,4|2,0:3|0:2,0:0:0:0:
188,32,184480,2,0,P|208:72|220:116,1,90.000000298023,8|2,0:0|0:2,0:0:0:0:
252,268,184819,5,4,0:3:0:0:
308,164,184989,1,2,0:3:0:0:
420,204,185158,1,8,0:0:0:0:
420,320,185328,1,2,0:2:0:0:
312,360,185497,2,0,P|212:356|164:292,1,180.000000596046,4|8,0:3|0:0,0:0:0:0:
216,192,186006,1,2,0:3:0:0:
376,274,186175,6,0,P|404:310|412:358,1,90.000000298023,2|2,0:3|0:2,0:3:0:0:
136,168,186514,2,0,P|108:132|100:84,1,90.000000298023,8|2,0:0|0:3,0:0:0:0:
188,108,186853,6,0,P|212:145|216:192,1,90.000000298023,4|2,0:3|0:2,0:0:0:0:
324,276,187192,2,0,P|300:239|296:192,1,90.000000298023,8|2,0:0|0:3,0:0:0:0:
255,78,187531,5,4,0:3:0:0:
215,146,187701,1,2,0:3:0:0:
293,145,187870,1,8,0:0:0:0:
255,33,188040,1,2,0:3:0:0:
178,171,188209,5,6,0:3:0:0:
332,171,188379,1,2,0:3:0:0:
364,60,188549,1,8,0:0:0:0:
148,60,188718,1,2,0:3:0:0:
256,248,188887,6,0,B|348:268|348:268|432:248,1,180.000000596046,4|8,0:3|0:0,0:0:0:0:
431,248,189396,1,2,0:3:0:0:
256,136,189565,2,0,B|164:116|164:116|80:136,1,180.000000596046,4|8,0:3|0:0,0:0:0:0:
80,135,190074,1,4,0:2:0:0:
156,284,190243,6,0,L|212:364,1,90.000000298023,4|0,0:3|0:0,0:0:0:0:
356,284,190582,2,0,L|300:364,1,90.000000298023,8|0,0:0|0:0,0:0:0:0:
256,252,190921,2,0,B|280:212|256:164|256:164|232:120|256:76,1,180.000000596046,4|8,0:3|0:0,0:0:0:0:
408,176,191599,6,0,P|381:140|342:117,1,90.000000298023,4|2,0:3|0:3,0:0:0:0:
168,44,191938,1,8,0:0:0:0:
124,152,192108,1,2,0:2:0:0:
168,260,192277,2,0,B|216:296|260:268|260:268|308:244|348:268,1,180.000000596046,4|8,0:3|0:0,0:0:0:0:
385,100,192955,5,4,3:3:0:0:
343,124,193068,1,8,3:0:0:0:
297,109,193181,1,2,3:0:0:0:
255,132,193294,1,8,3:0:0:0:
215,109,193407,1,8,3:0:0:0:
169,124,193520,1,8,3:0:0:0:
127,100,193633,1,4,3:2:0:0:
256,16,193972,5,14,0:0:0:0:
172,328,194311,6,0,B|176:244|176:244|128:232|92:196,1,180.000000596046,4|0,0:3|0:0,0:0:0:0:
54,117,194819,1,8,0:3:0:0:
54,117,194989,2,0,P|118:57|170:113,1,180.000000596046,8|8,0:3|0:2,0:0:0:0:
340,328,195667,6,0,B|336:244|336:244|384:232|420:196,1,180.000000596046,4|0,0:3|0:0,0:0:0:0:
458,117,196175,1,8,0:3:0:0:
458,117,196345,2,0,P|394:57|342:113,1,180.000000596046,8|8,0:3|0:2,0:0:0:0:
328,268,197023,5,8,0:3:0:0:
310,359,197192,1,0,0:0:0:0:
216,359,197362,1,0,0:0:0:0:
183,269,197531,1,8,0:3:0:0:
255,209,197701,2,0,B|268:152|268:152|244:110|246:67|246:67|248:49|248:49|250:31,1,180.000000596046,0|8,0:0|0:2,0:0:0:0:
424,232,198379,6,0,B|312:304|312:304|312:352,1,180.000000596046,4|0,0:3|0:0,0:0:0:0:
200,352,198887,1,8,0:3:0:0:
200,352,199057,2,0,B|200:304|200:304|88:232,1,180.000000596046,8|8,0:3|0:2,0:0:0:0:
400,161,199735,6,0,B|363:163|345:114|345:114|358:74|346:34|288:24,1,180.000000596046,4|0,0:3|0:0,0:0:0:0:
202,29,200243,1,8,0:3:0:0:
201,29,200413,2,0,B|165:34|153:74|166:114|166:114|148:163|112:161,1,180.000000596046,8|8,0:3|0:2,0:0:0:0:
298,250,201091,5,8,0:3:0:0:
256,119,201260,1,0,0:0:0:0:
212,250,201430,1,0,0:0:0:0:
324,169,201599,1,8,0:3:0:0:
186,169,201769,1,4,0:3:0:0:
256,192,202108,5,8,0:2:0:0:
314,108,202447,5,8,0:3:0:0:
158,222,202616,1,0,0:0:0:0:
352,222,202786,1,0,0:0:0:0:
194,108,202955,1,8,0:3:0:0:
255,292,203125,1,4,0:3:0:0:
256,192,203463,5,8,0:2:0:0:
337,309,203802,5,8,0:3:0:0:
118,149,203971,1,0,0:0:0:0:
390,149,204141,1,0,0:0:0:0:
170,309,204310,1,8,0:3:0:0:
254,50,204480,1,2,3:2:0:0:
