osu file format v14

[General]
AudioFilename: c81.mp3
AudioLeadIn: 1000
PreviewTime: 9196
Countdown: 0
SampleSet: Normal
StackLeniency: 0.7
Mode: 0
LetterboxInBreaks: 0
WidescreenStoryboard: 0

[Editor]
DistanceSpacing: 1.1
BeatDivisor: 4
GridSize: 4
TimelineZoom: 1.7

[Metadata]
Title:Kansha * Kangeki (Cut Ver.)
TitleUnicode:かんしゃ☆かんげき (Cut Ver.)
Artist:U
ArtistUnicode:U
Creator:refia
Version:alacat's Easy
Source:
Tags:yuuma alacat ponbot -pon- c81 ULTRA U GALAXY Kansha Festival ! pop japanese
BeatmapID:2852335
BeatmapSetID:1149583

[Difficulty]
HPDrainRate:2
CircleSize:2.5
OverallDifficulty:2
ApproachRate:3
SliderMultiplier:0.799999999999999
SliderTickRate:1

[Events]
//Background and Video events
0,0,"bg.jpg",0,0
//Break Periods
2,51315,57459
//Storyboard Layer 0 (Background)
//Storyboard Layer 1 (Fail)
//Storyboard Layer 2 (Pass)
//Storyboard Layer 3 (Foreground)
//Storyboard Layer 4 (Overlay)
//Storyboard Sound Samples

[TimingPoints]
521,324.324324324324,4,1,0,30,1,0
1818,-100,4,1,0,40,0,0
3115,-100,4,1,0,50,0,0
4412,-100,4,1,0,60,0,0
8304,-100,4,1,0,70,0,0
9602,-100,4,1,0,80,0,1
19980,-100,4,1,0,70,0,0
30358,-100,4,1,0,60,0,0
51115,-100,4,1,0,50,0,0
58899,-100,4,1,1,60,0,0
69277,-100,4,1,0,80,0,1
78358,-100,4,1,0,60,0,1
79007,-100,4,1,0,70,0,1
79656,-100,4,1,0,80,0,1
92791,-100,4,1,0,60,0,1
97818,-100,4,1,0,70,0,0

[Colours]
Combo1 : 68,72,255
Combo2 : 255,41,30
Combo3 : 125,193,255
Combo4 : 255,119,150

[HitObjects]
256,192,1412,12,2,4412,0:0:0:0:
84,192,5710,5,2,0:0:0:0:
428,192,7007,2,0,P|428:272|364:272,1,160,2|2,0:0|0:0,0:0:0:0:
208,192,8304,6,0,L|48:192,1,160,4|8,0:0|0:0,0:0:0:0:
0,116,9277,1,8,0:0:0:0:
48,44,9602,6,0,B|108:44|108:44|148:32|148:32|208:32,1,160,4|8,0:0|0:0,0:0:0:0:
368,104,10899,2,0,L|384:184,1,79.9999999999999,2|8,0:0|0:0,0:0:0:0:
456,232,11548,2,0,L|440:312,1,79.9999999999999,2|8,0:0|0:0,0:0:0:0:
368,364,12196,6,0,P|292:336|208:328,1,160,2|8,0:0|0:0,0:0:0:0:
60,240,13493,2,0,P|48:196|48:160,2,79.9999999999999,2|8|2,0:0|0:0|0:0,0:0:0:0:
124,300,14466,1,8,0:0:0:0:
208,276,14791,6,0,B|288:268|288:300|368:292,1,160,4|8,0:0|0:0,0:0:0:0:
488,168,16088,2,0,P|448:175|408:175,1,79.9999999999999,2|8,0:0|0:0,0:0:0:0:
332,128,16737,1,2,0:0:0:0:
256,172,17061,1,8,0:0:0:0:
180,128,17385,6,0,P|108:136|116:208,2,160,2|8|2,0:0|0:0|0:0,0:0:0:0:
256,172,19007,2,0,L|257:251,1,79.9999999999999,8|2,0:0|0:0,0:0:0:0:
212,328,19656,1,8,0:0:0:0:
300,328,19980,6,0,L|380:328,1,79.9999999999999,4|8,0:0|0:0,0:0:0:0:
468,328,20629,1,2,0:0:0:0:
496,244,20953,1,8,0:0:0:0:
436,180,21277,2,0,B|424:120|456:120|440:60,2,120,2|2|8,0:0|0:0|0:0,0:0:0:0:
372,240,22575,5,2,0:0:0:0:
292,204,22899,1,8,0:0:0:0:
220,256,23223,2,0,P|180:260|140:256,1,79.9999999999999,2|8,0:0|0:0,0:0:0:0:
80,192,23872,2,0,L|80:72,2,120,2|2|8,0:0|0:0|0:0,0:0:0:0:
8,240,25169,6,0,L|8:320,1,79.9999999999999,4|8,0:0|0:0,0:0:0:0:
84,368,25818,2,0,L|164:368,1,79.9999999999999,2|8,0:0|0:0,0:0:0:0:
236,316,26466,2,0,B|292:336|356:336,2,120,2|2|8,0:0|0:0|0:0,0:0:0:0:
176,252,27764,6,0,P|132:252|96:260,2,79.9999999999999,2|8|2,0:0|0:0|0:0,0:0:0:0:
260,232,28737,1,8,0:0:0:0:
344,208,29061,2,0,P|352:168|351:128,1,79.9999999999999,2|8,0:0|0:0,0:0:0:0:
272,92,29710,2,0,P|258:54|237:20,1,79.9999999999999,2|8,0:0|0:0,0:0:0:0:
164,68,30358,6,0,L|4:68,1,160,4|2,0:0|0:0,0:0:0:0:
4,156,31331,1,8,0:0:0:0:
68,220,31656,2,0,B|80:280|48:280|64:340,2,120,2|2|8,0:0|0:0|0:0,0:0:0:0:
144,172,32953,6,0,P|220:200|300:200,1,160,2|2,0:0|0:0,0:0:0:0:
384,184,33926,1,8,0:0:0:0:
444,120,34250,2,0,L|444:0,2,120,2|2|8,0:0|0:0|0:0,0:0:0:0:
472,204,35548,6,0,B|472:284|472:284|412:336,1,160,2|2,0:0|0:0,0:0:0:0:
324,336,36520,1,8,0:0:0:0:
252,288,36845,2,0,B|192:276|192:308|132:292,2,120,2|2|8,0:0|0:0|0:0,0:0:0:0:
332,248,38142,6,0,L|332:84,1,160,2|2,0:0|0:0,0:0:0:0:
264,32,39115,1,8,0:0:0:0:
180,52,39439,2,0,P|141:44|101:45,2,79.9999999999999,2|8|2,0:0|0:0|0:0,0:0:0:0:
240,116,40412,1,8,0:0:0:0:
296,184,40737,6,0,L|376:184,1,79.9999999999999,4|8,0:0|0:0,0:0:0:0:
376,272,41385,2,0,L|296:272,1,79.9999999999999,2|8,0:0|0:0,0:0:0:0:
232,332,42034,2,0,B|176:312|112:312,2,120,2|2|8,0:0|0:0|0:0,0:0:0:0:
316,356,43331,6,0,P|355:364|395:363,2,79.9999999999999,2|8|2,0:0|0:0|0:0,0:0:0:0:
296,272,44304,1,8,0:0:0:0:
220,228,44629,2,0,L|100:228,2,120,2|2|8,0:0|0:0|0:0,0:0:0:0:
296,188,45926,6,0,L|376:188,1,79.9999999999999,2|8,0:0|0:0,0:0:0:0:
420,112,46575,1,2,0:0:0:0:
496,156,46899,1,8,0:0:0:0:
452,232,47223,2,0,B|440:292|472:292|456:352,2,120,2|2|8,0:0|0:0|0:0,0:0:0:0:
376,188,48520,6,0,L|296:188,1,79.9999999999999,2|8,0:0|0:0,0:0:0:0:
228,244,49169,2,0,L|148:244,1,79.9999999999999,2|8,0:0|0:0,0:0:0:0:
94,313,49818,2,0,P|57:244|91:175,2,160,2|2|4,0:0|0:0|0:0,0:0:0:0:
380,312,58899,6,0,B|302:319|302:287|222:295,1,160,4|2,0:0|0:0,0:0:0:0:
152,348,59872,1,8,0:0:0:0:
72,308,60196,2,0,L|72:144,1,160,2|2,0:0|0:0,0:0:0:0:
136,88,61169,1,8,0:0:0:0:
220,108,61493,6,0,P|260:104|300:104,2,79.9999999999999,2|8|2,0:0|0:0|0:0,0:0:0:0:
160,172,62466,1,8,0:0:0:0:
96,232,62791,2,0,P|56:228|16:228,2,79.9999999999999,2|8|2,0:0|0:0|0:0,0:0:0:0:
180,264,63764,1,8,0:0:0:0:
244,324,64088,6,0,P|315:315|307:243,1,160,6|6,0:0|0:0,0:0:0:0:
172,132,65385,2,0,P|100:140|108:212,1,160,6|6,0:0|0:0,0:0:0:0:
244,324,66683,6,0,L|408:324,1,160,6|2,0:0|0:0,0:0:0:0:
484,284,67656,1,8,0:0:0:0:
508,200,67980,2,0,P|508:160|500:120,1,79.9999999999999,2|8,0:0|0:0,0:0:0:0:
440,56,68629,1,2,0:0:0:0:
360,92,68953,1,8,0:0:0:0:
292,36,69277,6,0,P|212:36|140:76,1,160,6|2,0:0|0:0,0:0:0:0:
96,148,70250,1,8,0:0:0:0:
92,236,70575,2,0,L|108:316,1,79.9999999999999,2|8,0:0|0:0,0:0:0:0:
196,312,71223,2,0,L|180:233,1,79.9999999999999,2|8,0:0|0:0,0:0:0:0:
240,168,71872,6,0,P|316:200|396:200,1,160,6|2,0:0|0:0,0:0:0:0:
468,156,72845,1,8,0:0:0:0:
392,112,73169,2,0,L|392:32,2,79.9999999999999,2|8|2,0:0|0:0|0:0,0:0:0:0:
320,164,74142,1,8,0:0:0:0:
244,120,74466,6,0,B|185:120|185:120|145:132|145:132|85:132,1,160,6|2,0:0|0:0,0:0:0:0:
20,192,75439,1,8,0:0:0:0:
20,280,75764,1,2,0:0:0:0:
84,340,76088,1,8,0:0:0:0:
168,316,76412,2,0,L|248:316,1,79.9999999999999,2|8,0:0|0:0,0:0:0:0:
300,244,77061,6,0,P|380:244|448:284,2,160,6|2|6,0:0|0:0|0:0,0:0:0:0:
224,288,78683,1,12,0:0:0:0:
156,236,79007,2,0,L|164:156,1,79.9999999999999,2|8,0:0|0:0,0:0:0:0:
220,88,79656,6,0,P|300:76|360:120,1,160,6|2,0:0|0:0,0:0:0:0:
392,204,80629,1,8,0:0:0:0:
340,276,80953,2,0,P|300:288|260:292,1,79.9999999999999,2|8,0:0|0:0,0:0:0:0:
188,340,81602,2,0,P|148:328|108:324,1,79.9999999999999,2|8,0:0|0:0,0:0:0:0:
28,288,82250,6,0,L|16:128,1,160,6|2,0:0|0:0,0:0:0:0:
60,52,83223,1,8,0:0:0:0:
144,84,83548,2,0,P|180:84|224:76,1,79.9999999999999,2|8,0:0|0:0,0:0:0:0:
304,40,84196,1,2,0:0:0:0:
352,112,84520,1,8,0:0:0:0:
272,148,84845,6,0,B|252:228|296:228|272:312,1,160,6|2,0:0|0:0,0:0:0:0:
204,360,85818,1,8,0:0:0:0:
120,332,86142,2,0,L|36:332,2,79.9999999999999,2|8|2,0:0|0:0|0:0,0:0:0:0:
188,280,87115,1,8,0:0:0:0:
272,304,87439,6,0,B|332:304|332:304|372:292|372:292|432:292,1,160,6|8,0:0|0:0,0:0:0:0:
284,192,88737,2,0,B|224:192|224:192|184:204|184:204|124:204,1,160,6|8,0:0|0:0,0:0:0:0:
256,84,90034,6,0,P|328:84|388:144,2,160,6|2|6,0:0|0:0|0:0,0:0:0:0:
116,192,91980,2,0,L|136:312,1,120,2|2,0:0|0:0,0:0:0:0:
208,360,92791,6,0,P|320:324|444:340,1,240,8|2,0:3|0:0,0:0:0:0:
484,264,94088,2,0,P|396:185|348:69,1,240,8|2,0:3|0:0,0:0:0:0:
260,72,95385,6,0,P|235:186|159:286,1,240,8|2,0:3|0:0,0:0:0:0:
104,348,96683,2,0,P|76:296|88:236,1,120,8|2,0:3|0:0,0:0:0:0:
180,88,97818,6,0,B|260:72|260:72|340:72,1,160,6|8,0:0|0:0,0:0:0:0:
468,192,99115,2,0,L|388:192,1,79.9999999999999,2|8,0:0|0:0,0:0:0:0:
320,248,99764,2,0,L|240:248,1,79.9999999999999,2|8,0:0|0:0,0:0:0:0:
160,284,100412,6,0,P|132:208|124:124,1,160,2|8,0:0|0:0,0:0:0:0:
292,72,101710,2,0,P|304:116|304:152,2,79.9999999999999,2|8|2,0:0|0:0|0:0,0:0:0:0:
220,20,102683,1,8,0:0:0:0:
172,92,103007,6,0,B|92:84|92:116|12:108,1,160,6|8,0:0|0:0,0:0:0:0:
144,228,104304,2,0,L|224:235,1,79.9999999999999,2|8,0:0|0:0,0:0:0:0:
276,304,104953,1,2,0:0:0:0:
352,256,105277,1,8,0:0:0:0:
300,184,105602,6,0,B|284:104|324:104|300:24,2,160,2|8|2,0:0|0:0|0:0,0:0:0:0:
352,256,107223,2,0,L|340:340,1,79.9999999999999,8|2,0:0|0:0,0:0:0:0:
260,368,107872,1,8,0:0:0:0:
200,304,108196,5,4,0:0:0:0:
