osu file format v14

[General]
AudioFilename: c81.mp3
AudioLeadIn: 1000
PreviewTime: 9196
Countdown: 0
SampleSet: Soft
StackLeniency: 0.6
Mode: 0
LetterboxInBreaks: 0
WidescreenStoryboard: 1

[Editor]
Bookmarks: 4412,9602,19980,30358,40737,51115,69277,84115
DistanceSpacing: 1.4
BeatDivisor: 4
GridSize: 16
TimelineZoom: 1.7

[Metadata]
Title:Kansha * Kangeki (Cut Ver.)
TitleUnicode:かんしゃ☆かんげき (Cut Ver.)
Artist:U
ArtistUnicode:U
Creator:refia
Version:Yuuma's Insane
Source:
Tags:yuuma alacat ponbot -pon- c81 ULTRA U GALAXY Kansha Festival ! pop japanese
BeatmapID:2852338
BeatmapSetID:1149583

[Difficulty]
HPDrainRate:5.5
CircleSize:3.6
OverallDifficulty:7
ApproachRate:9
SliderMultiplier:1.8
SliderTickRate:1

[Events]
//Background and Video events
0,0,"bg.jpg",0,0
//Break Periods
//Storyboard Layer 0 (Background)
//Storyboard Layer 1 (Fail)
//Storyboard Layer 2 (Pass)
//Storyboard Layer 3 (Foreground)
//Storyboard Layer 4 (Overlay)
//Storyboard Sound Samples

[TimingPoints]
521,324.324324324324,4,2,0,50,1,0
4412,-100,4,2,1,60,0,0
8304,-50,4,2,1,40,0,0
8629,-40,4,2,1,50,0,0
8953,-33.3333333333333,4,2,1,60,0,0
9277,-66.6666666666667,4,2,1,70,0,0
9602,-100,4,2,1,70,0,0
11548,-125,4,2,1,70,0,0
12196,-100,4,2,1,70,0,0
13493,-83.3333333333333,4,2,1,70,0,0
14142,-71.4285714285714,4,2,1,70,0,0
14791,-100,4,2,1,70,0,0
18683,-83.3333333333333,4,2,1,40,0,0
19007,-83.3333333333333,4,2,1,50,0,0
19331,-83.3333333333333,4,2,1,60,0,0
19656,-83.3333333333333,4,2,1,70,0,0
19980,-100,4,2,1,70,0,0
20223,-100,4,2,1,5,0,0
20304,-100,4,2,1,70,0,0
22250,-83.3333333333333,4,2,1,70,0,0
22575,-100,4,2,1,70,0,0
25412,-100,4,2,1,5,0,0
25493,-100,4,2,1,70,0,0
27439,-83.3333333333333,4,2,1,70,0,0
27764,-100,4,2,1,70,0,0
29061,-83.3333333333333,4,2,1,70,0,0
30358,-125,4,2,1,60,0,0
40737,-111.111111111111,4,2,1,60,0,0
45602,-90.9090909090908,4,2,1,60,0,0
45926,-111.111111111111,4,2,1,60,0,0
51115,-142.857142857143,4,2,1,60,0,0
54602,-142.857142857143,4,2,1,60,0,0
54683,-142.857142857143,4,2,1,60,0,0
54926,-142.857142857143,4,2,1,60,0,0
55007,-142.857142857143,4,2,1,60,0,0
55980,-142.857142857143,4,2,1,60,0,0
56304,-142.857142857143,4,2,1,60,0,0
58899,-111.111111111111,4,2,1,60,0,0
59791,-111.111111111111,4,2,1,60,0,0
59872,-90.9090909090908,4,2,1,60,0,0
60196,-111.111111111111,4,2,1,60,0,0
61088,-111.111111111111,4,2,1,60,0,0
61169,-90.9090909090908,4,2,1,60,0,0
61493,-111.111111111111,4,2,1,60,0,0
64088,-133.333333333333,4,2,1,60,0,0
66683,-111.111111111111,4,2,1,60,0,0
69277,-100,4,2,1,60,0,1
77629,-100,4,2,1,5,0,1
77710,-100,4,2,1,60,0,1
88088,-200,4,2,1,60,0,1
88737,-100,4,2,1,60,0,1
89385,-200,4,2,1,60,0,1
90034,-100,4,2,1,60,0,1
92466,-100,4,2,1,60,0,0
97818,-100,4,2,1,60,0,0
99764,-125,4,2,1,60,0,0
100412,-100,4,2,1,60,0,0
101710,-83.3333333333333,4,2,1,60,0,0
102358,-71.4285714285714,4,2,1,60,0,0
103007,-100,4,2,1,60,0,0
106899,-83.3333333333333,4,2,1,60,0,0

[Colours]
Combo1 : 68,72,255
Combo2 : 255,41,30
Combo3 : 125,193,255
Combo4 : 255,119,150

[HitObjects]
256,192,1412,12,0,4088,0:0:0:0:
256,192,4412,5,4,0:0:0:0:
256,192,5710,5,4,0:0:0:0:
256,192,7007,5,4,0:0:0:0:
256,192,7656,5,4,0:0:0:0:
56,95,8304,6,0,B|79:83|95:60|95:60|89:131|102:186,1,180,8|0,0:0|0:0,0:0:0:0:
208,98,8629,2,0,B|245:80|280:94|294:142|229:190|229:190|274:175|359:193,1,225,8|0,0:0|0:0,0:0:0:0:
392,67,8953,2,0,B|420:59|452:65|478:103|411:135|411:135|477:151|464:200|435:214|401:207,1,270.000010299683,8|0,0:0|0:0,0:0:0:0:
237,323,9277,2,0,P|226:244|231:184,1,135.000005149842,8|0,0:0|0:0,0:0:0:0:
392,67,9602,6,0,B|341:52|295:80|315:95|272:117|224:104,1,180,4|8,0:0|0:0,0:0:0:0:
365,152,10088,1,0,0:0:0:0:
248,15,10250,2,0,P|183:25|153:37,1,90,2|0,0:0|0:0,0:0:0:0:
142,207,10575,2,0,P|207:197|237:185,1,90,8|0,0:0|0:0,0:0:0:0:
45,158,10899,6,0,P|25:244|97:313,1,180,6|8,0:0|0:0,0:0:0:0:
142,207,11385,1,0,0:0:0:0:
271,326,11548,2,0,P|236:315|201:309,1,72,2|0,0:0|0:0,0:0:0:0:
323,218,11872,2,0,P|287:223|253:234,1,72,10|0,0:0|0:0,0:0:0:0:
414,349,12196,6,0,B|388:302|406:251|425:267|437:221|415:176,1,180,6|8,0:0|0:0,0:0:0:0:
384,84,12683,1,0,0:0:0:0:
271,141,12845,2,0,L|261:47,1,90,2|0,0:0|0:0,0:0:0:0:
426,2,13169,2,0,L|416:91,1,90,8|0,0:0|0:0,0:0:0:0:
179,212,13493,6,0,L|167:104,1,107.999996704102,6|0,0:0|0:0,0:0:0:0:
283,265,13818,1,8,0:0:0:0:
283,265,13980,1,0,0:0:0:0:
415,91,14142,2,0,P|330:93|280:123,1,125.999996154785,2|0,0:0|0:0,0:0:0:0:
58,231,14466,2,0,P|120:234|178:211,1,125.999996154785,10|0,0:0|0:0,0:0:0:0:
171,13,14791,6,0,P|85:40|121:130,1,180,6|8,0:0|0:0,0:0:0:0:
178,211,15277,1,0,0:0:0:0:
282,91,15439,2,0,P|237:94|196:113,1,90,2|0,0:0|0:0,0:0:0:0:
275,250,15764,2,0,P|315:268|360:272,1,90,8|0,0:0|0:0,0:0:0:0:
488,202,16088,6,0,L|474:113,1,90,2|0,0:0|0:0,0:0:0:0:
368,42,16412,1,8,0:0:0:0:
368,42,16575,1,0,0:0:0:0:
346,175,16737,5,2,0:0:0:0:
458,29,16899,1,2,0:0:0:0:
488,202,17061,5,10,0:0:0:0:
368,42,17223,1,2,0:0:0:0:
253,284,17385,6,0,P|297:285|340:272,1,90,6|0,0:0|0:0,0:0:0:0:
167,209,17710,2,0,P|143:247|133:290,1,90,8|0,0:0|0:0,0:0:0:0:
273,172,18034,2,0,P|251:132|219:101,1,90,2|0,0:0|0:0,0:0:0:0:
253,284,18358,2,0,P|297:285|340:272,1,90,8|0,0:0|0:0,0:0:0:0:
449,142,18683,6,0,L|463:263,1,107.999996704102,12|0,0:0|0:0,0:0:0:0:
273,172,19007,2,0,L|285:64,1,107.999996704102,8|0,0:0|1:0,0:0:0:0:
291,41,19250,1,0,1:0:0:0:
291,41,19331,1,2,1:2:0:0:
449,142,19493,1,0,0:0:0:0:
382,8,19656,1,10,0:0:0:0:
366,196,19818,1,10,0:0:0:0:
196,29,19980,6,0,P|130:26|80:69,1,135,6|0,0:0|0:0,0:0:0:0:
14,155,20304,2,0,B|65:140|111:168|91:183|134:205|182:192,1,180,8|2,0:0|0:0,0:0:0:0:
40,234,20791,1,0,0:0:0:0:
159,112,20953,1,8,0:0:0:0:
133,281,21115,1,0,0:0:0:0:
366,212,21277,6,0,P|330:134|244:130,1,180,2|8,0:0|0:0,0:0:0:0:
335,311,21764,2,0,L|430:297,1,90,2|0,0:0|0:0,0:0:0:0:
271,229,22088,1,2,0:0:0:0:
352,341,22250,2,0,L|460:325,1,107.999996704102,8|0,0:0|0:0,0:0:0:0:
256,203,22575,5,6,0:0:0:0:
388,235,22737,1,0,0:0:0:0:
204,302,22899,2,0,P|144:239|164:155,1,180,8|2,0:0|0:0,0:0:0:0:
280,57,23385,1,0,0:0:0:0:
256,203,23548,1,8,0:0:0:0:
177,50,23710,1,0,0:0:0:0:
351,175,23872,6,0,P|417:203|492:128,1,180,6|8,0:0|0:0,0:0:0:0:
393,21,24358,2,0,L|408:114,1,90,2|0,0:0|0:0,0:0:0:0:
226,193,24683,1,2,0:0:0:0:
226,193,24845,2,0,L|240:104,1,90,8|0,0:0|0:0,0:0:0:0:
323,327,25169,6,0,P|264:358|199:345,1,135,6|0,0:0|0:0,0:0:0:0:
116,323,25493,2,0,P|165:254|247:275,1,180,8|2,0:0|0:0,0:0:0:0:
136,173,25980,1,0,0:0:0:0:
199,345,26142,1,8,0:0:0:0:
233,150,26304,1,0,0:0:0:0:
197,369,26466,6,0,B|147:368|112:335|135:326|98:286|45:287,1,180,6|8,0:0|0:0,0:0:0:0:
233,150,26953,2,0,L|242:262,1,90,2|0,0:0|0:0,0:0:0:0:
110,126,27277,1,2,0:0:0:0:
259,167,27439,2,0,L|268:278,1,107.999996704102,8|0,0:0|0:0,0:0:0:0:
103,110,27764,5,6,0:0:0:0:
241,59,27926,1,0,0:0:0:0:
369,138,28088,2,0,P|437:198|519:159,1,180,8|2,0:0|0:0,0:0:0:0:
454,71,28575,1,0,0:0:0:0:
342,173,28737,1,8,0:0:0:0:
476,230,28899,1,0,0:0:0:0:
389,349,29061,6,0,L|282:332,1,107.999996704102,6|2,0:0|0:0,0:0:0:0:
76,254,29385,2,0,L|182:237,1,107.999996704102,10|2,0:0|0:0,0:0:0:0:
351,105,29710,1,6,0:0:0:0:
224,80,29872,1,2,0:0:0:0:
435,188,30034,1,10,0:0:0:0:
308,213,30196,1,2,0:0:0:0:
474,67,30358,5,4,0:0:0:0:
435,188,30520,2,0,P|426:222|423:258,2,72,0|8|0,0:0|0:0|0:0,0:0:0:0:
341,297,31007,2,0,P|314:272|285:251,1,72,2|0,0:0|0:0,0:0:0:0:
293,161,31331,2,0,P|327:150|360:135,1,72,8|0,0:0|0:0,0:0:0:0:
234,36,31656,6,0,P|225:70|222:106,1,72,2|0,0:0|0:0,0:0:0:0:
213,199,31980,1,8,0:0:0:0:
371,47,32142,2,0,P|346:22|316:1,1,72,0|2,0:0|0:0,0:0:0:0:
293,161,32466,1,0,0:0:0:0:
293,161,32629,2,0,P|327:150|360:135,1,72,8|0,0:0|0:0,0:0:0:0:
139,55,32953,5,6,0:0:0:0:
58,123,33115,2,0,L|65:203,2,72,0|8|0,0:0|0:0|0:0,0:0:0:0:
161,164,33602,2,0,L|154:235,1,72,2|0,0:0|0:0,0:0:0:0:
81,361,33926,2,0,L|74:289,1,72,8|0,0:0|0:0,0:0:0:0:
208,313,34250,6,0,P|241:325|277:327,1,72,2|0,0:0|0:0,0:0:0:0:
371,330,34575,1,8,0:0:0:0:
305,180,34737,2,0,P|277:202|257:232,1,72,0|2,0:0|0:0,0:0:0:0:
208,313,35061,1,0,0:0:0:0:
371,330,35223,2,0,P|365:294|348:262,1,72,8|0,0:0|0:0,0:0:0:0:
210,140,35548,5,6,0:0:0:0:
259,49,35710,2,0,P|293:40|329:41,2,72,0|8|0,0:0|0:0|0:0,0:0:0:0:
356,193,36196,2,0,P|376:164|384:129,1,72,2|0,0:0|0:0,0:0:0:0:
210,140,36520,2,0,P|226:172|251:197,1,72,8|0,0:0|0:0,0:0:0:0:
388,287,36845,6,0,L|459:275,2,72,2|0|8,0:0|0:0|0:0,0:0:0:0:
267,370,37331,2,0,P|233:308|253:240,1,144,2|0,0:0|0:0,0:0:0:0:
343,191,37818,1,8,0:0:0:0:
313,300,37980,1,0,0:0:0:0:
128,219,38142,6,0,P|195:200|253:239,1,144,6|8,0:0|0:0,0:0:0:0:
177,315,38629,2,0,P|109:333|51:294,1,144,2|0,0:0|0:0,0:0:0:0:
14,139,39115,2,0,L|0:209,1,72,10|0,0:0|0:0,0:0:0:0:
132,121,39439,6,0,L|121:64,2,36,0|0|0,1:0|1:0|1:0,0:0:0:0:
253,239,39764,2,0,L|266:168,1,72,8|8,0:0|0:0,0:0:0:0:
383,20,40088,1,2,0:0:0:0:
383,20,40737,5,6,0:0:0:0:
434,132,40899,1,0,0:0:0:0:
434,132,41061,2,0,P|395:144|356:140,1,80.9999975280763,8|0,0:0|0:0,0:0:0:0:
207,62,41385,2,0,P|246:57|284:70,1,80.9999975280763,2|0,0:0|0:0,0:0:0:0:
253,239,41710,2,0,L|266:159,1,80.9999975280763,8|0,0:0|0:0,0:0:0:0:
408,289,42034,6,0,L|421:368,1,80.9999975280763,2|0,0:0|0:0,0:0:0:0:
390,201,42358,1,8,0:0:0:0:
243,329,42520,2,0,P|280:344|320:346,1,80.9999975280763,2|0,0:0|0:0,0:0:0:0:
244,175,42845,1,0,0:0:0:0:
244,175,43007,2,0,P|203:177|166:192,1,80.9999975280763,8|0,0:0|0:0,0:0:0:0:
28,315,43331,5,6,0:0:0:0:
146,369,43493,1,0,0:0:0:0:
146,369,43656,2,0,L|157:265,1,80.9999975280763,8|0,0:0|0:0,0:0:0:0:
66,151,43980,2,0,L|74:231,1,80.9999975280763,2|0,0:0|0:0,0:0:0:0:
214,63,44304,2,0,P|173:65|136:80,1,80.9999975280763,8|0,0:0|0:0,0:0:0:0:
245,214,44629,6,0,P|282:229|322:231,1,80.9999975280763,2|0,0:0|0:0,0:0:0:0:
305,117,44953,1,8,0:0:0:0:
402,292,45115,2,0,P|417:254|419:214,1,80.9999975280763,2|0,0:0|0:0,0:0:0:0:
305,117,45439,1,8,0:0:0:0:
494,50,45602,2,0,P|450:27|401:29,1,99.0000030212403,10|0,0:0|0:0,0:0:0:0:
305,117,45926,5,6,0:0:0:0:
199,85,46088,1,0,0:0:0:0:
199,85,46250,2,0,P|201:45|207:5,1,80.9999975280763,8|8,0:0|0:0,0:0:0:0:
218,198,46575,2,0,P|251:220|283:245,1,80.9999975280763,2|0,0:0|0:0,0:0:0:0:
111,158,46899,2,0,P|74:176|37:191,1,80.9999975280763,8|0,0:0|0:0,0:0:0:0:
199,85,47223,6,0,P|201:45|207:5,1,80.9999975280763,2|0,0:0|0:0,0:0:0:0:
218,198,47548,1,8,0:0:0:0:
390,77,47710,2,0,P|353:60|312:57,1,80.9999975280763,2|0,0:0|0:0,0:0:0:0:
328,178,48034,1,0,0:0:0:0:
328,178,48196,2,0,P|364:194|405:197,1,80.9999975280763,8|0,0:0|0:0,0:0:0:0:
223,139,48520,6,0,P|196:213|230:284,1,161.999995056153,6|8,0:0|0:0,0:0:0:0:
326,339,49007,2,0,L|418:325,1,80.9999975280763,2|0,0:0|0:0,0:0:0:0:
286,211,49331,1,0,0:0:0:0:
173,358,49493,2,0,L|81:344,1,80.9999975280763,8|0,0:0|0:0,0:0:0:0:
31,171,49818,6,0,P|14:207|10:247,1,80.9999975280763,2|0,0:0|0:0,0:0:0:0:
160,172,50142,2,0,P|155:131|138:95,1,80.9999975280763,10|0,0:0|0:0,0:0:0:0:
39,58,50466,2,0,L|0:66,2,40.4999987640381,0|0|0,1:2|1:0|1:0,1:0:0:0:
115,238,50791,1,10,0:0:0:0:
138,95,50953,1,8,0:0:0:0:
10,247,51115,5,6,0:0:0:0:
173,358,51439,2,0,L|235:347,1,62.9999980773926
317,306,51764,2,0,P|330:245|306:188,1,125.999996154785,8|8,0:0|0:0,0:0:0:0:
225,141,52250,1,0,0:0:0:0:
225,141,52412,2,0,P|211:201|235:258,1,125.999996154785,8|2,0:0|3:0,0:0:0:0:
317,306,52899,2,0,L|395:295,1,62.9999980773926,0|8,0:0|0:0,0:0:0:0:
446,94,53385,2,0,L|368:83,1,62.9999980773926,8|0,0:0|0:0,0:0:0:0:
288,70,53710,5,8,0:0:0:0:
288,70,54034,2,0,L|225:78,1,62.9999980773926,2|0,3:0|0:0,0:0:0:0:
125,136,54358,2,0,P|171:137|212:160,1,94.499997116089,2|0,3:0|0:0,0:0:0:0:
233,197,54683,2,0,P|186:199|146:222,1,94.499997116089,8|0,0:0|0:0,0:0:0:0:
163,260,55007,2,0,P|218:287|280:279,1,125.999996154785,8|2,0:0|3:0,0:0:0:0:
360,231,55493,1,0,0:0:0:0:
417,303,55656,1,2,3:0:0:0:
233,197,55980,2,0,L|247:125,1,62.9999980773926,8|0,0:0|0:0,0:0:0:0:
271,20,56304,5,12,0:0:0:0:
444,63,56629,2,0,L|456:124,1,62.9999980773926
475,206,56953,2,0,P|436:232|349:226,1,125.999996154785,8|8,0:0|0:0,0:0:0:0:
271,192,57439,1,0,0:0:0:0:
271,192,57602,2,0,P|209:186|155:216,1,125.999996154785,2|2,3:0|3:0,0:0:0:0:
104,291,58088,1,0,0:0:0:0:
199,348,58250,5,0,1:0:0:0:
214,345,58331,1,0,1:0:0:0:
229,342,58412,1,0,1:0:0:0:
332,305,58575,5,2,1:2:0:0:
347,307,58656,1,0,1:0:0:0:
362,310,58737,1,0,1:0:0:0:
261,150,58899,6,0,P|244:186|240:226,1,80.9999975280763,6|0,0:0|0:0,0:0:0:0:
408,158,59223,2,0,P|404:117|387:81,1,80.9999975280763,8|0,0:0|0:0,0:0:0:0:
260,11,59548,2,0,P|202:24|156:63,1,121.499996292114,2|0,0:0|0:0,0:0:0:0:
116,155,59872,2,0,L|213:138,1,99.0000030212403,10|0,0:0|0:0,0:0:0:0:
432,262,60196,6,0,L|334:246,1,80.9999975280763,6|0,0:0|0:0,0:0:0:0:
197,346,60520,2,0,L|295:330,1,80.9999975280763,8|0,0:0|0:0,0:0:0:0:
212,138,60845,2,0,P|201:196|224:251,1,121.499996292114,2|0,0:0|0:0,0:0:0:0:
287,185,61169,2,0,P|299:137|289:89,1,99.0000030212403,10|0,0:0|0:0,0:0:0:0:
121,33,61493,5,6,0:0:0:0:
121,33,61656,1,2,0:0:0:0:
212,138,61818,1,10,0:0:0:0:
212,138,61980,1,2,0:0:0:0:
74,163,62142,5,10,0:0:0:0:
209,49,62304,1,2,0:0:0:0:
240,221,62466,1,10,0:0:0:0:
125,86,62629,1,2,0:0:0:0:
303,33,62791,5,2,0:0:0:0:
303,33,62953,1,2,0:0:0:0:
212,138,63115,1,10,0:0:0:0:
212,138,63277,1,2,0:0:0:0:
349,165,63439,5,2,0:0:0:0:
209,49,63602,1,2,0:0:0:0:
322,245,63764,1,10,0:0:0:0:
402,71,63926,1,2,0:0:0:0:
184,195,64088,6,0,B|128:173|76:215|89:286|152:340|177:256|238:316,1,270.000010299683,4|4,0:0|0:0,0:0:0:0:
210,185,65385,6,0,B|240:134|307:136|339:201|321:282|251:230|238:315,1,270.000010299683,4|4,0:0|0:0,0:0:0:0:
95,47,66683,6,0,P|135:49|170:68,1,80.9999975280763,6|0,0:0|0:0,0:0:0:0:
104,156,67007,2,0,P|63:153|28:134,1,80.9999975280763,8|0,0:0|0:0,0:0:0:0:
266,21,67331,2,0,L|276:122,1,80.9999975280763,2|0,0:0|0:0,0:0:0:0:
201,278,67656,2,0,L|208:197,1,80.9999975280763,8|0,0:0|0:0,0:0:0:0:
387,135,67980,5,6,0:0:0:0:
170,68,68142,2,0,P|149:64|127:62,2,40.4999987640381,0|0|8,1:0|1:0|0:0,0:0:0:0:
333,245,68466,1,8,0:0:0:0:
398,13,68629,1,8,0:0:0:0:
261,167,68791,5,8,0:0:0:0:
287,69,68953,5,8,0:0:0:0:
358,140,69115,5,8,0:0:0:0:
333,245,69277,6,0,P|296:270|252:277,1,90,6|0,0:0|0:0,0:0:0:0:
67,196,69602,2,0,P|104:171|148:164,1,90,8|0,0:0|0:0,0:0:0:0:
175,357,69926,2,0,P|150:320|143:276,1,90,2|0,0:0|0:0,0:0:0:0:
222,88,70250,2,0,P|247:125|254:169,1,90,8|0,0:0|0:0,0:0:0:0:
250,276,70575,5,6,0:0:0:0:
147,164,70737,1,0,0:0:0:0:
295,130,70899,1,8,0:0:0:0:
142,275,71061,2,0,P|97:266|53:261,1,90,2|0,0:0|0:0,0:0:0:0:
251,371,71385,5,8,0:0:0:0:
337,319,71548,5,8,0:0:0:0:
344,217,71710,5,8,0:0:0:0:
295,130,71872,6,0,P|250:121|206:116,1,90,6|0,0:0|0:0,0:0:0:0:
425,274,72196,2,0,P|439:231|435:186,1,90,8|0,0:0|0:0,0:0:0:0:
305,42,72520,2,0,P|290:84|294:129,1,90,2|0,0:0|0:0,0:0:0:0:
444,309,72845,2,0,P|458:266|454:221,1,90,8|0,0:0|0:0,0:0:0:0:
395,99,73169,5,6,0:0:0:0:
331,252,73331,1,0,0:0:0:0:
230,120,73493,1,8,0:0:0:0:
110,319,73656,2,0,P|182:295|215:291,1,90,2|0,0:0|0:0,0:0:0:0:
331,252,73980,5,8,0:0:0:0:
319,157,74142,5,8,0:0:0:0:
230,120,74304,5,8,0:0:0:0:
160,188,74466,6,0,P|167:235|171:287,1,90,6|0,0:0|0:0,0:0:0:0:
319,157,74791,2,0,P|322:110|328:67,1,90,8|0,0:0|0:0,0:0:0:0:
419,269,75115,2,0,L|325:250,1,90,2|0,0:0|0:0,0:0:0:0:
141,137,75439,2,0,L|235:118,1,90,8|0,0:0|0:0,0:0:0:0:
436,76,75764,5,6,0:0:0:0:
319,157,75926,1,0,0:0:0:0:
480,200,76088,1,8,0:0:0:0:
342,66,76250,2,0,P|266:77|249:92,1,90,2|0,0:0|0:0,0:0:0:0:
110,208,76575,1,0,0:0:0:0:
221,264,76737,2,0,L|230:156,1,90,8|0,0:0|0:0,0:0:0:0:
90,26,77061,6,0,L|97:115,1,90,6|0,0:0|0:0,0:0:0:0:
147,326,77385,2,0,P|203:360|267:345,1,135,8|0,0:0|0:0,0:0:0:0:
347,306,77710,2,0,L|339:216,1,90,2|0,0:0|0:0,0:0:0:0:
221,84,78034,2,0,L|228:173,1,90,8|0,0:0|0:0,0:0:0:0:
414,116,78358,6,0,P|350:115|318:136,1,90,6|0,0:0|0:0,0:0:0:0:
244,268,78683,1,8,0:0:0:0:
425,206,78845,1,0,0:0:0:0:
233,102,79007,1,6,0:0:0:0:
347,306,79169,5,8,0:0:0:0:
375,211,79331,5,8,0:0:0:0:
328,126,79493,5,8,0:0:0:0:
233,102,79656,6,0,P|188:104|147:122,1,90,6|0,0:0|0:0,0:0:0:0:
50,292,79980,2,0,P|95:290|136:272,1,90,8|0,0:0|0:0,0:0:0:0:
48,103,80304,2,0,P|50:148|68:189,1,90,2|0,0:0|0:0,0:0:0:0:
236,295,80629,2,0,P|234:250|216:209,1,90,8|0,0:0|0:0,0:0:0:0:
147,121,80953,5,6,0:0:0:0:
135,272,81115,1,0,0:0:0:0:
250,107,81277,1,8,0:0:0:0:
67,188,81439,2,0,P|49:147|48:103,1,90,2|0,0:0|0:0,0:0:0:0:
196,30,81764,5,8,0:0:0:0:
282,21,81926,5,8,0:0:0:0:
339,86,82088,5,8,0:0:0:0:
310,174,82250,6,0,P|270:194|225:196,1,90,6|0,0:0|0:0,0:0:0:0:
413,29,82575,2,0,L|424:141,1,90,8|0,0:0|0:0,0:0:0:0:
301,263,82899,2,0,L|309:173,1,90,2|0,0:0|0:0,0:0:0:0:
434,253,83223,2,0,L|445:365,1,90,8|0,0:0|0:0,0:0:0:0:
283,288,83548,5,6,0:0:0:0:
421,169,83710,1,0,0:0:0:0:
354,349,83872,1,8,0:0:0:0:
194,199,84034,2,0,P|184:242|192:286,1,90,2|0,0:0|0:0,0:0:0:0:
308,173,84358,5,8,0:0:0:0:
304,85,84520,5,8,0:0:0:0:
236,31,84682,5,8,0:0:0:0:
148,39,84845,6,0,L|59:54,1,90,6|0,0:0|0:0,0:0:0:0:
219,157,85169,2,0,L|307:172,1,90,8|0,0:0|0:0,0:0:0:0:
121,233,85493,2,0,P|108:189|114:145,1,90,2|0,0:0|0:0,0:0:0:0:
259,261,85818,2,0,P|264:305|252:348,1,90,8|0,0:0|0:0,0:0:0:0:
97,244,86142,5,6,0:0:0:0:
307,172,86304,1,0,0:0:0:0:
164,298,86466,1,8,0:0:0:0:
93,92,86629,1,2,0:0:0:0:
259,261,86791,1,0,1:0:0:0:
259,261,86872,1,0,1:0:0:0:
259,261,86953,5,8,1:2:0:0:
361,259,87115,1,8,0:0:0:0:
409,170,87277,1,8,0:0:0:0:
355,83,87439,6,0,B|263:57|281:142|175:110,1,180,6|8,0:0|0:0,0:0:0:0:
307,172,87926,1,2,0:0:0:0:
221,26,88088,2,0,L|127:39,1,90,10|0,0:0|0:0,0:0:0:0:
11,251,88737,6,0,L|191:270,1,180,6|8,0:0|0:0,0:0:0:0:
112,348,89223,1,2,0:0:0:0:
173,177,89385,2,0,P|241:191|266:217,1,90,10|0,0:0|0:0,0:0:0:0:
255,203,90034,6,0,L|263:103,1,90,6|0,0:0|0:0,0:0:0:0:
409,47,90358,2,0,L|416:136,1,90,8|0,0:0|0:0,0:0:0:0:
236,223,90683,2,0,L|244:123,1,90,2|0,0:0|0:0,0:0:0:0:
390,67,91007,2,0,L|397:156,1,90,8|0,0:0|0:0,0:0:0:0:
297,324,91331,6,0,P|210:355|140:284,1,180,6|8,0:0|0:0,0:0:0:0:
334,231,91818,1,8,0:0:0:0:
122,124,91980,1,8,0:0:0:0:
122,124,92061,1,8,0:0:0:0:
122,124,92142,1,8,0:0:0:0:
228,267,92304,1,8,0:0:0:0:
287,35,92466,5,14,0:0:0:0:
256,192,93764,5,4,0:0:0:0:
256,192,95061,5,4,0:0:0:0:
256,192,96358,5,4,0:0:0:0:
256,192,97169,5,4,0:0:0:0:
256,192,97818,6,0,B|203:185|162:220|184:231|145:260|95:254,1,180,6|8,0:0|0:0,0:0:0:0:
241,284,98304,1,0,0:0:0:0:
98,167,98466,2,0,P|90:239|104:271,1,90,2|0,0:0|0:0,0:0:0:0:
256,192,98791,2,0,P|264:120|250:88,1,90,8|0,0:0|0:0,0:0:0:0:
0,107,99115,6,0,P|75:39|150:63,1,180,6|8,0:0|0:0,0:0:0:0:
98,167,99602,1,0,0:0:0:0:
258,104,99764,2,0,L|248:26,1,72,2|0,0:0|0:0,0:0:0:0:
364,84,100088,2,0,L|354:155,1,72,10|0,0:0|0:0,0:0:0:0:
206,265,100412,6,0,B|259:258|300:293|278:304|317:333|367:327,1,180,6|8,0:0|0:0,0:0:0:0:
221,357,100898,1,0,0:0:0:0:
364,240,101060,2,0,P|372:312|358:344,1,90,2|0,0:0|0:0,0:0:0:0:
206,265,101385,2,0,P|198:193|212:161,1,90,8|0,0:0|0:0,0:0:0:0:
445,29,101710,6,0,L|457:144,1,107.999996704102,6|0,0:0|0:0,0:0:0:0:
466,258,102034,1,8,0:0:0:0:
466,258,102196,1,0,0:0:0:0:
232,82,102358,2,0,P|289:65|367:63,1,125.999996154785,2|0,0:0|0:0,0:0:0:0:
157,226,102683,2,0,P|214:243|292:245,1,125.999996154785,10|0,0:0|0:0,0:0:0:0:
88,79,103007,6,0,P|15:109|13:223,1,180,6|8,0:0|0:0,0:0:0:0:
69,324,103493,1,0,0:0:0:0:
200,185,103656,2,0,P|125:196|89:207,1,90,2|0,0:0|0:0,0:0:0:0:
200,309,103980,2,0,P|243:318|288:323,1,90,8|0,0:0|0:0,0:0:0:0:
431,169,104304,6,0,P|440:213|444:257,1,90,6|0,0:0|0:0,0:0:0:0:
398,353,104629,1,8,0:0:0:0:
398,353,104791,1,0,0:0:0:0:
316,148,104953,5,2,0:0:0:0:
288,323,105115,1,2,0:0:0:0:
444,257,105277,5,10,0:0:0:0:
254,224,105439,1,2,0:0:0:0:
388,51,105602,6,0,P|402:93|401:138,1,90,6|0,0:0|0:0,0:0:0:0:
209,64,105926,2,0,P|238:30|277:8,1,90,8|0,0:0|0:0,0:0:0:0:
306,203,106250,2,0,P|262:194|223:171,1,90,2|0,0:0|0:0,0:0:0:0:
388,51,106575,2,0,P|402:93|401:138,1,90,8|0,0:0|0:0,0:0:0:0:
356,298,106899,5,14,0:0:0:0:
302,111,107061,1,8,0:0:0:0:
239,333,107223,5,8,0:0:0:0:
379,193,107385,1,8,0:0:0:0:
379,193,107466,1,8,0:0:0:0:
379,193,107548,5,8,0:0:0:0:
175,129,107710,1,8,0:0:0:0:
356,298,107872,1,10,0:0:0:0:
412,61,108034,1,10,0:0:0:0:
377,316,108196,5,14,0:0:0:0:
