osu file format v14

[General]
AudioFilename: c81.mp3
AudioLeadIn: 1000
PreviewTime: 9196
Countdown: 0
SampleSet: Soft
StackLeniency: 0.7
Mode: 0
LetterboxInBreaks: 0
WidescreenStoryboard: 1

[Editor]
Bookmarks: 4412,9602,13980,14466,19980,24358,30358,40737,51115,58575,63439,63764,69277,84115
DistanceSpacing: 1.4
BeatDivisor: 4
GridSize: 4
TimelineZoom: 2.5

[Metadata]
Title:Kansha * Kangeki (Cut Ver.)
TitleUnicode:かんしゃ☆かんげき (Cut Ver.)
Artist:U
ArtistUnicode:U
Creator:refia
Version:Hard
Source:
Tags:yuuma alacat ponbot -pon- c81 ULTRA U GALAXY Kansha Festival ! pop japanese
BeatmapID:2852336
BeatmapSetID:1149583

[Difficulty]
HPDrainRate:5
CircleSize:3.5
OverallDifficulty:6
ApproachRate:8
SliderMultiplier:1.5
SliderTickRate:1

[Events]
//Background and Video events
0,0,"bg.jpg",0,0
//Break Periods
//Storyboard Layer 0 (Background)
//Storyboard Layer 1 (Fail)
//Storyboard Layer 2 (Pass)
//Storyboard Layer 3 (Foreground)
//Storyboard Layer 4 (Overlay)
//Storyboard Sound Samples

[TimingPoints]
521,324.324324324324,4,2,1,50,1,0
4088,-100,4,2,1,30,0,0
4412,-100,4,2,1,60,0,0
8304,-100,4,2,1,40,0,0
8629,-100,4,2,1,50,0,0
8953,-100,4,2,1,60,0,0
9277,-100,4,2,1,70,0,0
9602,-100,4,2,1,70,0,0
19980,-100,4,2,1,60,0,0
29061,-100,4,2,1,40,0,0
29385,-100,4,2,1,50,0,0
29710,-100,4,2,1,60,0,0
30034,-100,4,2,1,70,0,0
30358,-100,4,2,1,50,0,0
51115,-100,4,3,1,50,0,0
69277,-83.3333333333333,4,1,1,60,0,1
97818,-100,4,2,1,60,0,0

[Colours]
Combo1 : 247,151,45
Combo2 : 85,81,242
Combo3 : 248,103,150
Combo4 : 254,20,20

[HitObjects]
256,192,1412,12,0,4088,0:0:0:0:
256,192,4412,5,6,1:0:0:0:
300,284,4575,2,0,B|229:315|229:272|153:295,1,150
55,283,5061,2,0,P|10:227|19:154,1,150
100,88,5548,1,0,0:0:0:0:
112,188,5710,5,6,1:0:0:0:
196,128,5872,2,0,P|268:110|339:86,1,150
427,183,6358,2,0,P|454:251|420:315,1,150
336,248,6845,1,0,0:0:0:0:
256,188,7007,5,6,1:0:0:0:
176,248,7169,2,0,L|101:248,2,75
256,338,7656,2,0,L|256:186,1,150,6|0,1:0|0:0,0:0:0:0:
256,188,8142,1,0,0:0:0:0:
271,85,8304,6,0,P|302:100|337:123,1,75,6|0,1:0|0:0,0:0:0:0:
369,211,8629,2,0,P|348:240|331:277,1,75,6|0,1:0|0:0,0:0:0:0:
241,299,8953,2,0,P|209:283|175:261,1,75,6|0,1:0|0:0,0:0:0:0:
120,180,9277,2,0,P|84:184|44:180,1,75,6|0,1:0|0:0,0:0:0:0:
8,88,9602,6,0,P|82:99|156:87,1,150,6|8,1:0|0:0,0:0:0:0:
192,0,10088,1,0,0:0:0:0:
256,72,10250,2,0,B|232:144|280:144|256:220,1,150,2|8,1:0|0:0,0:0:0:0:
168,176,10737,1,0,0:0:0:0:
176,272,10899,6,0,P|232:317|303:304,1,150,2|8,1:0|0:0,0:0:0:0:
352,220,11385,1,0,0:0:0:0:
404,304,11548,2,0,L|479:304,2,75,2|0|10,0:0|0:0|0:0,0:0:0:0:
304,303,12034,1,0,0:0:0:0:
204,302,12196,6,0,P|212:230|204:152,1,150,2|8,1:0|0:0,0:0:0:0:
152,74,12683,1,0,0:0:0:0:
248,66,12845,2,0,B|280:74|308:110|312:150|312:150|316:190,1,150,2|8,1:0|0:0,0:0:0:0:
291,277,13331,1,0,0:0:0:0:
356,348,13493,6,0,P|287:377|220:348,1,150,2|8,1:0|0:0,0:0:0:0:
200,256,13980,1,0,0:0:0:0:
108,256,14143,2,0,L|33:256,2,75,2|0|10,0:0|0:0|0:0,0:0:0:0:
200,256,14629,1,0,0:0:0:0:
268,172,14791,6,0,B|300:192|308:232|308:232|364:284,1,150,6|8,1:0|0:0,0:0:0:0:
412,196,15277,1,0,0:0:0:0:
464,284,15439,2,0,B|462:321|432:348,1,75,2|0,1:0|0:0,0:0:0:0:
363,283,15764,1,8,0:0:0:0:
328,372,15926,1,0,0:0:0:0:
268,300,16088,6,0,L|178:276,1,75,2|0,1:0|0:0,0:0:0:0:
117,247,16412,1,8,0:0:0:0:
117,247,16575,1,0,0:0:0:0:
72,381,16737,2,0,P|103:362|123:331,1,75,2|0,0:0|0:0,0:0:0:0:
246,229,17061,2,0,P|215:248|195:279,1,75,10|0,0:0|0:0,0:0:0:0:
320,192,17385,6,0,B|361:193|393:213|393:213|425:193|462:192,1,150,2|8,1:0|0:0,0:0:0:0:
194,280,18034,2,0,B|153:279|121:259|121:259|89:279|52:280,1,150,2|8,1:1|0:0,0:0:0:0:
396,216,18683,5,2,1:0:0:0:
124,216,19007,1,2,1:0:0:0:
256,336,19331,1,2,1:0:0:0:
256,96,19656,2,0,L|256:171,1,75,10|0,1:0|1:0,0:0:0:0:
160,280,19980,6,0,B|136:256|120:216|120:216|136:176|160:152,1,150,6|8,0:0|0:0,0:0:0:0:
158,153,20466,1,0,0:0:0:0:
204,76,20629,2,0,L|204:-4,2,75,2|2|8,0:0|0:0|0:0,0:0:0:0:
158,153,21115,1,0,0:0:0:0:
252,152,21277,2,0,B|304:152|340:120|340:120|394:120,1,150,2|8,0:0|0:0,0:0:0:0:
420,208,21764,2,0,B|368:208|332:240|332:240|277:240,1,150,2|0,0:0|0:0,0:0:0:0:
240,332,22250,2,0,L|316:332,1,75,8|0,0:0|0:0,0:0:0:0:
400,312,22575,6,0,P|372:240|363:167,1,150,2|8,0:0|0:0,0:0:0:0:
363,168,23061,1,0,0:0:0:0:
408,92,23223,2,0,L|483:92,2,75,2|2|8,0:0|0:0|0:0,0:0:0:0:
360,8,23710,1,0,0:0:0:0:
315,92,23872,2,0,B|288:108|273:128|273:128|228:136|179:128,1,150,2|8,0:0|0:0,0:0:0:0:
110,65,24358,2,0,B|137:49|152:29|152:29|197:21|245:28,1,150,2|0,0:0|0:0,0:0:0:0:
344,29,24845,2,0,P|341:65|313:93,1,75,8|0,0:0|0:0,0:0:0:0:
228,120,25169,6,0,B|240:152|228:192|228:192|252:220|256:264,1,150,6|8,0:0|0:0,0:0:0:0:
255,262,25656,1,0,0:0:0:0:
304,340,25818,2,0,L|380:340,2,75,2|2|8,0:0|0:0|0:0,0:0:0:0:
255,262,26304,1,0,0:0:0:0:
208,340,26466,2,0,B|151:339|151:339|116:354|116:354|60:354,1,150,2|8,0:0|0:0,0:0:0:0:
16,276,26953,2,0,B|72:276|72:276|107:261|107:261|163:261,1,150,2|0,0:0|0:0,0:0:0:0:
207,339,27439,2,0,P|241:355|278:351,1,75,8|0,0:0|0:0,0:0:0:0:
255,262,27764,6,0,P|233:193|167:164,1,150,2|8,0:0|0:0,0:0:0:0:
165,163,28250,1,0,0:0:0:0:
76,164,28412,2,0,L|76:239,2,75,2|2|8,0:0|0:0|0:0,0:0:0:0:
76,84,28899,1,0,0:0:0:0:
79,4,29061,6,0,P|117:5|150:22,1,75,2|0,0:0|0:0,0:0:0:0:
164,108,29385,1,10,0:0:0:0:
232,56,29548,1,0,0:0:0:0:
316,24,29710,2,0,P|318:61|306:96,1,75,2|8,0:0|0:0,0:0:0:0:
228,212,30034,2,0,P|225:174|237:139,1,75,10|0,0:0|0:0,0:0:0:0:
384,180,30358,5,6,0:0:0:0:
384,180,30520,2,0,B|350:190|346:170|310:178,2,75,0|8|0,0:0|0:0|0:0,0:0:0:0:
464,52,31007,1,2,0:0:0:0:
388,92,31169,1,2,0:0:0:0:
464,136,31331,2,0,L|484:208,1,75,8|0,0:0|0:0,0:0:0:0:
380,280,31656,2,0,L|400:208,2,75,2|0|8,0:0|0:0|0:0,0:0:0:0:
472,292,32142,2,0,P|437:355|364:365,1,150,2|2,0:0|0:0,0:0:0:0:
296,308,32629,1,8,0:0:0:0:
216,192,32953,5,2,0:0:0:0:
216,191,33115,2,0,P|233:159|265:140,2,75,0|8|0,0:0|0:0|0:0,0:0:0:0:
216,276,33602,2,0,P|198:307|164:328,1,75,2|2,0:0|0:0,0:0:0:0:
48,244,33926,2,0,L|123:244,1,75,8|0,0:0|0:0,0:0:0:0:
84,328,34250,2,0,L|9:328,2,75,2|0|8,0:0|0:0|0:0,0:0:0:0:
48,244,34737,2,0,B|28:168|64:168|48:88,1,150,2|2,0:0|0:0,0:0:0:0:
48,12,35223,1,10,1:0:0:0:
196,48,35548,5,2,0:0:0:0:
196,48,35710,2,0,B|167:52|167:52|159:48|159:48|123:52,2,75,0|8|0,0:0|0:0|0:0,0:0:0:0:
276,0,36196,1,2,0:0:0:0:
280,88,36358,1,2,0:0:0:0:
204,136,36520,2,0,P|199:168|208:216,1,75,8|0,0:0|0:0,0:0:0:0:
280,172,36845,2,0,L|349:201,2,75,2|0|8,0:0|0:0|0:0,0:0:0:0:
368,280,37331,2,0,B|412:272|432:240|432:204|432:204|432:156,1,150,2|2,0:0|0:0,0:0:0:0:
432,76,37818,1,8,0:0:0:0:
204,144,38142,6,0,B|291:141|246:95|339:93,1,150,2|8,0:0|0:0,0:0:0:0:
300,20,38629,2,0,B|211:23|256:68|163:71,1,150,2|0,0:0|0:0,0:0:0:0:
120,0,39115,2,0,P|90:21|73:56,1,75,8|0,0:0|0:0,0:0:0:0:
52,136,39439,2,0,L|74:207,1,75,8|0,0:0|0:0,0:0:0:0:
116,280,39764,2,0,P|152:284|187:302,1,75,8|0,0:0|0:0,0:0:0:0:
128,368,40088,1,8,0:0:0:0:
256,192,40412,1,2,1:0:0:0:
256,336,40737,5,6,0:0:0:0:
256,336,40899,2,0,B|284:336|284:336|308:344|332:336,2,75,0|8|0,0:0|0:0|0:0,0:0:0:0:
168,336,41385,1,2,0:0:0:0:
108,276,41548,1,2,0:0:0:0:
187,252,41710,2,0,L|208:180,1,75,8|0,0:0|0:0,0:0:0:0:
296,180,42034,2,0,L|275:108,1,75,2|0,0:0|0:0,0:0:0:0:
208,48,42358,1,8,0:0:0:0:
292,20,42520,2,0,B|328:28|348:60|348:60|396:52|424:76,1,150,2|2,0:0|0:0,0:0:0:0:
372,144,43007,2,0,L|393:216,1,75,8|0,0:0|0:0,0:0:0:0:
424,300,43331,5,2,0:0:0:0:
424,300,43493,2,0,P|456:328|472:360,2,75,0|8|0,0:0|0:0|0:0,0:0:0:0:
336,280,43980,2,0,L|260:264,1,75,2|2,0:0|0:0,0:0:0:0:
220,188,44304,2,0,P|191:211|176:245,1,75,8|0,0:0|0:0,0:0:0:0:
140,372,44629,2,0,L|212:352,1,75,2|0,0:0|0:0,0:0:0:0:
300,352,44953,1,8,0:0:0:0:
256,276,45115,2,0,B|236:200|276:200|256:128,1,150,2|2,0:0|0:0,0:0:0:0:
256,40,45602,1,10,1:0:0:0:
432,40,45926,5,2,0:0:0:0:
432,40,46088,2,0,B|444:44|444:44|468:36|492:44|492:44|504:40,2,75,0|8|0,0:0|0:0|0:0,0:0:0:0:
344,32,46575,1,2,0:0:0:0:
376,112,46737,1,2,0:0:0:0:
460,120,46899,2,0,L|479:192,1,75,8|0,0:0|0:0,0:0:0:0:
372,264,47223,2,0,L|391:191,1,75,2|0,0:0|0:0,0:0:0:0:
460,120,47548,1,8,0:0:0:0:
488,228,47710,2,0,B|472:292|472:292|464:324|448:348|420:356,1,150,2|2,0:0|0:0,0:0:0:0:
372,264,48196,2,0,P|340:244|324:211,1,75,8|0,0:0|0:0,0:0:0:0:
404,185,48520,6,0,B|390:138|345:93|304:82,1,150,2|8,0:0|0:0,0:0:0:0:
208,82,49007,2,0,B|167:93|122:138|107:187,1,150,2|0,0:0|0:0,0:0:0:0:
24,169,49493,2,0,P|24:207|39:241,1,75,8|0,0:0|0:0,0:0:0:0:
132,270,49818,2,0,P|164:251|185:220,2,75,10|0|8,0:0|0:0|0:0,0:0:0:0:
60,334,50304,1,0,0:0:0:0:
148,362,50466,2,0,L|221:376,1,75,8|0,1:2|0:0,0:0:0:0:
324,268,50791,2,0,L|250:282,1,75,10|0,1:0|0:0,0:0:0:0:
184,186,51115,1,4,0:1:0:0:
142,80,51439,5,2,0:0:0:0:
142,80,51764,2,0,B|193:71|248:90|278:128,1,150,2|8,0:0|1:0,0:0:0:0:
227,278,52250,1,2,0:0:0:0:
227,278,52412,2,0,B|175:286|120:268|90:230,1,150,2|0,0:0|0:0,0:0:0:0:
142,80,52899,1,2,0:0:0:0:
56,136,53061,1,2,0:0:0:0:
184,186,53385,6,0,B|272:186|240:228|324:228,1,150,8|0,1:0|0:0,0:0:0:0:
332,128,54034,5,2,0:0:0:0:
332,128,54196,1,2,0:0:0:0:
332,128,54358,2,0,P|398:161|422:231,1,150,2|8,0:0|1:0,0:0:0:0:
312,328,55007,2,0,P|246:295|222:225,1,150,2|0,0:0|0:0,0:0:0:0:
332,128,55493,1,2,0:0:0:0:
323,229,55656,1,2,0:0:0:0:
152,164,55980,2,0,P|181:141|217:131,1,75,8|0,1:0|0:0,0:0:0:0:
323,229,56304,1,4,0:1:0:0:
163,64,56629,5,2,0:0:0:0:
163,64,56953,2,0,B|99:64|71:124|71:124|55:159,1,150,2|8,0:0|1:0,0:0:0:0:
248,232,57439,1,2,0:0:0:0:
248,232,57602,2,0,B|312:232|340:172|340:172|351:140,1,150,2|0,0:0|0:0,0:0:0:0:
291,53,58088,1,2,0:0:0:0:
256,148,58250,1,2,0:2:0:0:
220,332,58575,2,0,P|256:340|292:332,1,75,8|0,1:0|0:0,0:0:0:0:
363,248,58899,6,0,P|366:211|381:171,1,75,6|0,0:1|0:0,0:0:0:0:
456,120,59223,1,8,1:0:0:0:
436,32,59385,1,0,0:0:0:0:
340,24,59548,2,0,B|264:40|264:0|188:24,1,150,2|8,0:1|1:0,0:0:0:0:
12,83,60196,2,0,P|15:120|31:155,1,75,2|0,0:1|0:0,0:0:0:0:
124,176,60520,1,8,1:0:0:0:
64,248,60683,1,0,0:0:0:0:
120,316,60845,2,0,P|161:351|251:339,1,150,2|8,0:1|1:0,0:0:0:0:
184,196,61493,6,0,L|196:272,3,75,6|0|8|0,0:1|0:0|1:0|0:0,0:0:0:0:
284,256,62142,2,0,L|356:224,1,75,2|0,0:1|0:0,0:0:0:0:
412,300,62466,2,0,P|444:320|490:329,1,75,8|0,1:0|0:0,0:0:0:0:
472,224,62791,6,0,L|460:148,3,75,2|0|8|0,0:1|0:0|1:0|0:0,0:0:0:0:
448,60,63439,2,0,P|412:68|379:89,1,75,2|0,0:1|0:0,0:0:0:0:
304,172,63764,2,0,P|284:140|276:104,1,75,8|0,1:0|0:0,0:0:0:0:
312,8,64088,5,2,1:2:0:0:
400,129,64737,1,2,1:2:0:0:
312,251,65386,1,2,1:2:0:0:
168,204,66035,1,2,1:2:0:0:
256,84,66683,6,0,B|236:160|276:160|256:236,1,150,4|8,0:2|1:0,0:0:0:0:
257,231,67169,1,0,0:0:0:0:
188,292,67331,2,0,P|169:324|143:350,2,75,0|0|8,0:2|0:0|1:0,0:0:0:0:
172,204,67818,1,0,0:0:0:0:
257,231,67980,2,0,P|272:242|296:246,2,37.5,2|0|0,0:2|0:0|0:2,0:0:0:0:
360,288,68304,1,10,1:2:0:0:
364,204,68466,2,0,L|352:128,1,75,0|2,0:0|0:2,0:0:0:0:
256,84,68791,5,0,1:0:0:0:
256,84,68953,1,2,1:2:0:0:
256,84,69115,1,0,1:0:0:0:
256,84,69277,6,0,P|223:116|185:138,1,89.9999972534181,6|0,0:0|0:0,0:0:0:0:
104,88,69602,2,0,P|72:119|50:157,1,89.9999972534181,8|0,0:0|0:0,0:0:0:0:
136,208,69926,2,0,P|168:265|112:360,1,179.999994506836,2|8,0:0|0:0,0:0:0:0:
72,276,70412,1,0,0:0:0:0:
136,208,70575,2,0,L|224:221,1,89.9999972534181,2|0,0:0|0:0,0:0:0:0:
276,300,70899,1,8,0:0:0:0:
276,300,71061,2,0,L|364:286,1,89.9999972534181,2|0,0:0|0:0,0:0:0:0:
432,208,71385,5,8,0:0:0:0:
432,208,71548,1,8,0:0:0:0:
432,208,71710,1,0,0:0:0:0:
432,208,71872,6,0,L|387:130,1,89.9999972534181,6|0,0:0|0:0,0:0:0:0:
328,40,72196,2,0,L|283:117,1,89.9999972534181,8|0,0:0|0:0,0:0:0:0:
236,204,72520,2,0,P|276:288|356:292,1,179.999994506836,2|8,0:0|0:0,0:0:0:0:
328,204,73007,1,0,0:0:0:0:
236,204,73169,2,0,P|195:222|151:231,1,89.9999972534181,2|0,0:0|0:0,0:0:0:0:
50,116,73493,1,8,0:0:0:0:
50,116,73656,2,0,P|94:124|134:143,1,89.9999972534181,2|0,0:0|0:0,0:0:0:0:
56,297,73980,5,8,0:0:0:0:
56,297,74142,1,8,0:0:0:0:
56,297,74304,1,0,0:0:0:0:
56,297,74466,6,0,P|56:252|70:209,1,89.9999972534181,6|0,0:0|0:0,0:0:0:0:
150,231,74791,2,0,P|149:186|135:143,1,89.9999972534181,8|0,0:0|0:0,0:0:0:0:
116,56,75115,2,0,P|174:-6|257:13,1,179.999994506836,2|8,0:0|0:0,0:0:0:0:
284,100,75602,1,0,0:0:0:0:
200,84,75764,2,0,L|168:168,1,89.9999972534181,2|0,0:0|0:0,0:0:0:0:
240,212,76088,1,8,0:0:0:0:
240,212,76250,2,0,L|272:296,1,89.9999972534181,2|0,0:0|0:0,0:0:0:0:
260,372,76575,1,8,0:0:0:0:
337,346,76737,2,0,P|357:306|351:263,1,89.9999972534181,8|0,0:0|0:0,0:0:0:0:
280,208,77061,6,0,L|192:184,1,89.9999972534181,6|0,0:0|0:0,0:0:0:0:
104,160,77385,2,0,P|54:89|89:10,2,179.999994506836,8|2|8,0:0|0:0|0:0,0:0:0:0:
193,184,78196,1,0,0:0:0:0:
280,208,78358,2,0,L|249:292,1,89.9999972534181,6|0,0:0|0:0,0:0:0:0:
172,360,78683,2,0,P|153:319|142:275,1,89.9999972534181,14|0,0:0|0:0,0:0:0:0:
193,184,79007,1,2,0:0:0:0:
136,80,79169,5,8,0:0:0:0:
136,80,79331,1,10,0:0:0:0:
136,80,79493,1,0,0:0:0:0:
136,80,79656,6,0,P|164:45|204:26,1,89.9999972534181,6|0,0:0|0:0,0:0:0:0:
307,26,79980,2,0,P|347:45|376:80,1,89.9999972534181,8|0,0:0|0:0,0:0:0:0:
376,172,80304,2,0,B|282:191|310:230|216:250,1,179.999994506836,2|8,0:0|0:0,0:0:0:0:
128,220,80791,1,0,0:0:0:0:
144,352,80953,2,0,P|189:351|231:339,1,89.9999972534181,2|0,0:0|0:0,0:0:0:0:
328,340,81277,1,8,0:0:0:0:
328,340,81439,2,0,P|350:301|363:258,1,89.9999972534181,2|0,0:0|0:0,0:0:0:0:
400,152,81764,5,8,0:0:0:0:
400,152,81926,1,8,0:0:0:0:
400,152,82088,1,0,0:0:0:0:
400,152,82250,6,0,P|408:109|440:78,1,89.9999972534181,6|0,0:0|0:0,0:0:0:0:
488,152,82575,2,0,L|498:241,1,89.9999972534181,8|0,0:0|0:0,0:0:0:0:
488,336,82899,2,0,B|428:336|400:280|400:280|368:304|328:288,1,179.999994506836,2|8,0:0|0:0,0:0:0:0:
348,208,83385,1,0,0:0:0:0:
268,240,83548,2,0,L|180:262,1,89.9999972534181,2|0,0:0|0:0,0:0:0:0:
76,160,83872,1,8,0:0:0:0:
76,160,84034,2,0,L|163:182,1,89.9999972534181,2|0,0:0|0:0,0:0:0:0:
256,344,84358,5,8,0:0:0:0:
256,344,84520,1,8,0:0:0:0:
256,344,84683,1,0,0:0:0:0:
256,343,84845,6,0,P|287:312|307:272,1,89.9999972534181,6|0,0:0|0:0,0:0:0:0:
264,192,85169,2,0,L|320:117,1,89.9999972534181,8|0,0:0|0:0,0:0:0:0:
352,36,85493,2,0,B|434:91|382:111|466:171,1,179.999994506836,2|8,0:0|0:0,0:0:0:0:
496,84,85980,1,0,0:0:0:0:
405,101,86142,2,0,L|317:119,1,89.9999972534181,2|0,0:0|0:0,0:0:0:0:
260,52,86466,2,0,L|171:34,1,89.9999972534181,8|2,0:0|0:0,0:0:0:0:
80,16,86791,1,0,0:0:0:0:
112,104,86953,1,8,0:0:0:0:
200,124,87115,2,0,P|180:164|132:188,1,89.9999972534181,8|0,0:0|0:0,0:0:0:0:
52,167,87439,6,0,P|71:252|152:281,2,179.999994506836,6|2|0,0:0|0:0|0:0,0:0:0:0:
52,167,88412,1,10,2:0:0:0:
112,104,88575,1,0,0:0:0:0:
200,124,88737,6,0,P|180:39|99:10,2,179.999994506836,6|2|0,0:0|0:0|0:0,0:0:0:0:
200,124,89710,1,10,2:0:0:0:
231,205,89872,1,0,0:0:0:0:
290,137,90034,6,0,P|333:140|375:160,1,89.9999972534181,6|0,0:0|0:0,0:0:0:0:
447,217,90358,2,0,P|429:257|422:302,1,89.9999972534181,8|0,0:0|0:0,0:0:0:0:
366,372,90683,2,0,P|321:367|279:348,1,89.9999972534181,2|0,0:0|0:0,0:0:0:0:
208,291,91007,2,0,P|224:249|231:204,1,89.9999972534181,8|0,0:0|0:0,0:0:0:0:
200,124,91331,2,0,P|253:57|340:62,2,179.999994506836,6|8|2,0:0|0:0|0:0,0:0:0:0:
230,204,92142,1,0,0:0:0:0:
144,192,92304,1,8,0:0:0:0:
288,136,92466,1,6,0:0:0:0:
144,192,93764,5,6,0:0:0:0:
256,304,95061,1,6,0:0:0:0:
368,192,96358,1,6,0:0:0:0:
256,80,97169,1,6,0:0:0:0:
380,120,97493,2,0,P|386:75|378:31,1,89.9999972534181
460,0,97818,6,0,P|476:72|465:146,1,150,6|8,1:0|0:0,0:0:0:0:
512,216,98304,1,0,0:0:0:0:
428,224,98466,2,0,B|352:208|352:244|279:224,1,150,2|8,1:0|0:0,0:0:0:0:
204,256,98953,1,0,0:0:0:0:
212,176,99115,6,0,P|156:129|87:149,1,150,2|8,1:0|0:0,0:0:0:0:
60,224,99602,1,0,0:0:0:0:
8,164,99764,2,0,L|0:84,2,75,2|8|10,0:0|0:0|0:0,0:0:0:0:
60,224,100250,1,0,0:0:0:0:
140,204,100412,6,0,L|171:57,1,150,2|8,1:0|0:0,0:0:0:0:
232,0,100899,1,0,0:0:0:0:
251,79,101061,2,0,P|315:114|380:83,1,150,2|8,1:0|0:0,0:0:0:0:
396,4,101548,1,0,0:0:0:0:
316,32,101710,6,0,L|308:184,1,150,2|8,1:0|0:0,0:0:0:0:
288,268,102196,1,0,0:0:0:0:
372,244,102358,2,0,L|444:224,2,75,2|8|10,0:0|0:0|0:0,0:0:0:0:
288,268,102845,1,0,0:0:0:0:
224,208,103007,6,0,B|197:207|173:227|173:227|145:191|89:191,1,150,6|8,1:0|0:0,0:0:0:0:
8,160,103493,1,0,0:0:0:0:
16,244,103656,2,0,P|11:281|17:318,1,75,2|0,1:0|0:0,0:0:0:0:
100,276,103980,1,8,0:0:0:0:
100,364,104142,1,0,0:0:0:0:
176,320,104304,5,2,1:0:0:0:
176,320,104466,2,0,L|251:320,2,75,0|8|0,0:0|0:0|0:0,0:0:0:0:
320,272,104953,2,0,P|335:305|330:342,1,75,2|8,0:0|0:0,0:0:0:0:
244,236,105277,2,0,P|228:202|233:165,1,75,10|0,0:0|0:0,0:0:0:0:
300,96,105602,6,0,B|336:92|336:92|372:68|408:92|408:92|444:96,1,150,2|8,1:0|0:0,0:0:0:0:
212,288,106250,2,0,B|176:292|176:292|140:316|104:292|104:292|68:288,1,150,2|8,1:0|0:0,0:0:0:0:
140,192,106899,5,2,1:0:0:0:
372,192,107223,1,10,0:1:0:0:
256,296,107548,1,2,1:0:0:0:
256,192,107872,2,0,B|263:154|247:154|256:116,1,75,10|0,0:0|0:0,0:0:0:0:
256,40,108196,5,6,1:0:0:0:
