osu file format v14

[General]
AudioFilename: audio.mp3
AudioLeadIn: 0
PreviewTime: 52542
Countdown: 1
SampleSet: None
StackLeniency: 0.7
Mode: 1
LetterboxInBreaks: 0
WidescreenStoryboard: 1

[Editor]
Bookmarks: 13432,26674,29984,56467,69708,82949,84605,96191,109432,114404,122674,129300,130955,132605,135915
DistanceSpacing: 2.5
BeatDivisor: 4
GridSize: 32
TimelineZoom: 2.799999

[Metadata]
Title:The Only Thing I Know For Real (Maniac Agenda Mix)
TitleUnicode:The Only Thing I Know For Real (Maniac Agenda Mix)
Artist:Tyson Yen
ArtistUnicode:Tyson Yen
Creator:Grimbow
Version:REVENGEANCE [NSV]
Source:
Tags:
BeatmapID:2034509
BeatmapSetID:971712

[Difficulty]
HPDrainRate:7
CircleSize:5
OverallDifficulty:7.5
ApproachRate:5
SliderMultiplier:1.4
SliderTickRate:1

[Events]
//Background and Video events
0,0,"jetstream-sam-metal-gear-rising-revengeance-17236-1920x1080.jpg",0,80
//Break Periods
//Storyboard Layer 0 (Background)
//Storyboard Layer 1 (Fail)
//Storyboard Layer 2 (Pass)
//Storyboard Layer 3 (Foreground)
//Storyboard Sound Samples

[TimingPoints]
197.26018876577,413.793103448276,4,1,0,70,1,0
56473,-90.9090909090909,4,1,0,70,0,1
69507,-93.4579439252336,4,1,0,70,0,1
69611,-96.1538461538461,4,1,0,70,0,1
69714,-100,4,1,0,70,0,0
84611,-80,4,1,0,70,0,0
99507,-66.6666666666667,4,1,0,70,0,0
108714,-68.0272108843537,4,1,0,70,0,0
108817,-69.4444444444444,4,1,0,70,0,0
108921,-71.4285714285714,4,1,0,70,0,0
109024,-73.5294117647059,4,1,0,70,0,0
109128,-75.7575757575758,4,1,0,70,0,0
109231,-78.125,4,1,0,70,0,0
116266,-80,4,1,0,70,0,0
121542,-78.7401574803149,4,1,0,70,0,0
121645,-77.5193798449612,4,1,0,70,0,0
121748,-76.3358778625954,4,1,0,70,0,0
121852,-75.187969924812,4,1,0,70,0,0
121955,-74.0740740740741,4,1,0,70,0,0
122059,-72.992700729927,4,1,0,70,0,0
122162,-71.9424460431655,4,1,0,70,0,0
122266,-70.9219858156028,4,1,0,70,0,0
122369,-69.9300699300699,4,1,0,70,0,0
122473,-68.4931506849315,4,1,0,70,0,0
122524,-68.0272108843537,4,1,0,70,0,0
122576,-67.5675675675676,4,1,0,70,0,0
122628,-67.1140939597315,4,1,0,70,0,0
122680,-66.6666666666667,4,1,0,70,0,0

[HitObjects]
256,192,197,5,12,0:0:0:0:
256,192,300,1,0,0:0:0:0:
256,192,404,1,0,0:0:0:0:
256,192,507,1,0,0:0:0:0:
256,192,611,1,0,0:0:0:0:
256,192,714,1,0,0:0:0:0:
256,192,817,1,0,0:0:0:0:
256,192,886,1,0,0:0:0:0:
256,192,955,1,0,0:0:0:0:
256,192,1024,1,8,0:0:0:0:
256,192,1852,1,4,0:0:0:0:
256,192,1955,1,8,0:0:0:0:
256,192,2059,1,8,0:0:0:0:
256,192,2162,1,8,0:0:0:0:
256,192,2266,1,8,0:0:0:0:
256,192,2369,1,8,0:0:0:0:
256,192,2473,1,8,0:0:0:0:
256,192,2576,1,0,0:0:0:0:
256,192,2680,1,8,0:0:0:0:
256,192,3507,1,12,0:0:0:0:
256,192,3611,1,0,0:0:0:0:
256,192,3714,1,0,0:0:0:0:
256,192,3817,1,0,0:0:0:0:
256,192,3921,1,0,0:0:0:0:
256,192,4024,1,0,0:0:0:0:
256,192,4128,1,0,0:0:0:0:
256,192,4197,1,0,0:0:0:0:
256,192,4266,1,0,0:0:0:0:
256,192,4335,1,8,0:0:0:0:
256,192,5162,1,8,0:0:0:0:
256,192,5266,1,0,0:0:0:0:
256,192,5369,1,0,0:0:0:0:
256,192,5473,1,8,0:0:0:0:
256,192,5576,1,8,0:0:0:0:
256,192,5680,1,8,0:0:0:0:
256,192,5783,1,8,0:0:0:0:
256,192,5886,1,0,0:0:0:0:
256,192,5938,1,0,0:0:0:0:
256,192,5990,1,8,0:0:0:0:
256,192,6817,1,12,0:0:0:0:
256,192,6921,1,0,0:0:0:0:
256,192,7024,1,0,0:0:0:0:
256,192,7128,1,0,0:0:0:0:
256,192,7231,1,0,0:0:0:0:
256,192,7335,1,0,0:0:0:0:
256,192,7438,1,0,0:0:0:0:
256,192,7542,1,0,0:0:0:0:
256,192,7645,1,8,0:0:0:0:
256,192,8059,1,4,0:0:0:0:
256,192,8473,1,4,0:0:0:0:
256,192,8576,1,8,0:0:0:0:
256,192,8680,1,8,0:0:0:0:
256,192,8783,1,8,0:0:0:0:
256,192,8886,1,8,0:0:0:0:
256,192,8990,1,8,0:0:0:0:
256,192,9093,1,8,0:0:0:0:
256,192,9197,1,0,0:0:0:0:
256,192,9300,1,8,0:0:0:0:
256,192,9714,1,4,0:0:0:0:
256,192,9921,1,0,0:0:0:0:
256,192,10128,1,12,0:0:0:0:
256,192,10231,1,0,0:0:0:0:
256,192,10335,1,0,0:0:0:0:
256,192,10438,1,0,0:0:0:0:
256,192,10542,1,0,0:0:0:0:
256,192,10645,1,0,0:0:0:0:
256,192,10748,1,0,0:0:0:0:
256,192,10852,1,0,0:0:0:0:
256,192,10955,1,8,0:0:0:0:
256,192,11369,1,4,0:0:0:0:
256,192,11783,1,8,0:0:0:0:
256,192,11886,1,0,0:0:0:0:
256,192,11990,1,0,0:0:0:0:
256,192,12093,1,8,0:0:0:0:
256,192,12197,1,0,0:0:0:0:
256,192,12300,1,0,0:0:0:0:
256,192,12404,1,8,0:0:0:0:
256,192,12507,1,0,0:0:0:0:
256,192,12611,1,8,0:0:0:0:
256,192,12714,1,8,0:0:0:0:
256,192,12817,1,0,0:0:0:0:
256,192,12921,1,8,0:0:0:0:
256,192,13024,1,8,0:0:0:0:
256,192,13128,1,0,0:0:0:0:
256,192,13231,1,8,0:0:0:0:
256,192,13335,1,8,0:0:0:0:
256,192,13438,1,0,0:0:0:0:
256,192,13542,1,0,0:0:0:0:
256,192,13645,1,0,0:0:0:0:
256,192,13748,1,0,0:0:0:0:
256,192,13852,1,8,0:0:0:0:
256,192,13955,1,0,0:0:0:0:
256,192,14059,1,0,0:0:0:0:
256,192,14162,1,0,0:0:0:0:
256,192,14266,1,0,0:0:0:0:
256,192,14576,1,0,0:0:0:0:
256,192,14680,1,8,0:0:0:0:
256,192,14886,1,0,0:0:0:0:
256,192,15093,1,0,0:0:0:0:
256,192,15197,1,0,0:0:0:0:
256,192,15300,1,0,0:0:0:0:
256,192,15404,1,0,0:0:0:0:
256,192,15507,1,8,0:0:0:0:
256,192,15611,1,0,0:0:0:0:
256,192,15714,1,0,0:0:0:0:
256,192,15817,1,0,0:0:0:0:
256,192,15921,1,8,0:0:0:0:
256,192,16231,1,8,0:0:0:0:
256,192,16335,1,8,0:0:0:0:
256,192,16542,1,0,0:0:0:0:
256,192,16645,1,8,0:0:0:0:
256,192,16748,1,0,0:0:0:0:
256,192,16852,1,8,0:0:0:0:
256,192,16955,1,8,0:0:0:0:
256,192,17059,1,0,0:0:0:0:
256,192,17162,1,8,0:0:0:0:
256,192,17266,1,0,0:0:0:0:
256,192,17369,1,0,0:0:0:0:
256,192,17473,1,8,0:0:0:0:
256,192,17576,1,0,0:0:0:0:
256,192,17886,1,0,0:0:0:0:
256,192,17990,1,8,0:0:0:0:
256,192,18197,1,0,0:0:0:0:
256,192,18404,1,0,0:0:0:0:
256,192,18507,1,0,0:0:0:0:
256,192,18611,1,0,0:0:0:0:
256,192,18714,1,0,0:0:0:0:
256,192,18817,1,8,0:0:0:0:
256,192,18921,1,8,0:0:0:0:
256,192,19024,1,8,0:0:0:0:
256,192,19128,1,8,0:0:0:0:
256,192,19231,1,0,0:0:0:0:
256,192,19542,1,0,0:0:0:0:
256,192,19645,1,8,0:0:0:0:
256,192,19852,1,8,0:0:0:0:
256,192,19955,1,8,0:0:0:0:
256,192,20059,1,0,0:0:0:0:
256,192,20162,1,8,0:0:0:0:
256,192,20266,1,0,0:0:0:0:
256,192,20369,1,0,0:0:0:0:
256,192,20473,1,8,0:0:0:0:
256,192,20576,1,0,0:0:0:0:
256,192,20680,1,0,0:0:0:0:
256,192,20783,1,8,0:0:0:0:
256,192,20886,1,0,0:0:0:0:
256,192,21197,1,0,0:0:0:0:
256,192,21300,1,8,0:0:0:0:
256,192,21507,1,0,0:0:0:0:
256,192,21714,1,8,0:0:0:0:
256,192,21817,1,0,0:0:0:0:
256,192,21921,1,0,0:0:0:0:
256,192,22024,1,0,0:0:0:0:
256,192,22128,1,8,0:0:0:0:
256,192,22231,1,0,0:0:0:0:
256,192,22335,1,8,0:0:0:0:
256,192,22438,1,8,0:0:0:0:
256,192,22542,1,8,0:0:0:0:
256,192,22852,1,8,0:0:0:0:
256,192,22955,1,8,0:0:0:0:
256,192,23162,1,8,0:0:0:0:
256,192,23266,1,0,0:0:0:0:
256,192,23369,1,8,0:0:0:0:
256,192,23473,1,8,0:0:0:0:
256,192,23576,1,0,0:0:0:0:
256,192,23680,1,8,0:0:0:0:
256,192,23783,1,8,0:0:0:0:
256,192,23886,1,0,0:0:0:0:
256,192,23990,1,8,0:0:0:0:
256,192,24093,1,8,0:0:0:0:
256,192,24197,1,0,0:0:0:0:
256,192,24507,1,0,0:0:0:0:
256,192,24611,1,8,0:0:0:0:
256,192,24817,1,0,0:0:0:0:
256,192,25024,1,0,0:0:0:0:
256,192,25128,1,0,0:0:0:0:
256,192,25231,1,8,0:0:0:0:
256,192,25335,1,8,0:0:0:0:
256,192,25438,1,8,0:0:0:0:
256,192,25542,1,8,0:0:0:0:
256,192,25645,1,8,0:0:0:0:
256,192,25748,1,8,0:0:0:0:
256,192,25852,1,0,0:0:0:0:
256,192,26162,1,0,0:0:0:0:
256,192,26266,1,8,0:0:0:0:
256,192,26473,1,0,0:0:0:0:
256,192,26680,1,12,0:0:0:0:
256,192,26886,1,0,0:0:0:0:
256,192,27404,1,0,0:0:0:0:
256,192,27507,1,8,0:0:0:0:
256,192,28335,1,0,0:0:0:0:
256,192,28542,1,8,0:0:0:0:
256,192,28645,1,0,0:0:0:0:
256,192,28852,1,8,0:0:0:0:
256,192,28955,1,0,0:0:0:0:
256,192,29162,1,8,0:0:0:0:
256,192,29369,1,0,0:0:0:0:
256,192,29438,1,0,0:0:0:0:
256,192,29507,1,0,0:0:0:0:
256,192,29576,1,8,0:0:0:0:
256,192,29990,1,8,0:0:0:0:
256,192,30093,1,0,0:0:0:0:
256,192,30197,1,0,0:0:0:0:
256,192,30300,1,0,0:0:0:0:
256,192,30404,1,0,0:0:0:0:
256,192,30507,1,0,0:0:0:0:
256,192,30611,1,8,0:0:0:0:
256,192,30680,1,0,0:0:0:0:
256,192,30748,1,0,0:0:0:0:
256,192,30817,1,8,0:0:0:0:
256,192,30886,1,0,0:0:0:0:
256,192,30955,1,0,0:0:0:0:
256,192,31024,1,8,0:0:0:0:
256,192,31093,1,0,0:0:0:0:
256,192,31162,1,0,0:0:0:0:
256,192,31231,1,8,0:0:0:0:
256,192,31335,1,0,0:0:0:0:
256,192,31438,1,8,0:0:0:0:
256,192,31542,1,8,0:0:0:0:
256,192,31645,1,0,0:0:0:0:
256,192,31748,1,0,0:0:0:0:
256,192,31852,1,0,0:0:0:0:
256,192,31955,1,0,0:0:0:0:
256,192,32059,1,8,0:0:0:0:
256,192,32162,1,8,0:0:0:0:
256,192,32266,1,8,0:0:0:0:
256,192,32369,1,8,0:0:0:0:
256,192,32473,1,8,0:0:0:0:
256,192,32576,1,8,0:0:0:0:
256,192,32680,1,8,0:0:0:0:
256,192,32783,1,8,0:0:0:0:
256,192,32886,1,0,0:0:0:0:
256,192,32990,1,8,0:0:0:0:
256,192,33093,1,0,0:0:0:0:
256,192,33197,1,0,0:0:0:0:
256,192,33300,1,8,0:0:0:0:
256,192,33404,1,0,0:0:0:0:
256,192,33507,1,0,0:0:0:0:
256,192,33611,1,0,0:0:0:0:
256,192,33714,1,8,0:0:0:0:
256,192,33817,1,0,0:0:0:0:
256,192,33921,1,0,0:0:0:0:
256,192,34024,1,0,0:0:0:0:
256,192,34128,1,0,0:0:0:0:
256,192,34231,1,0,0:0:0:0:
256,192,34335,1,0,0:0:0:0:
256,192,34438,1,0,0:0:0:0:
256,192,34542,1,8,0:0:0:0:
256,192,34645,1,0,0:0:0:0:
256,192,34748,1,8,0:0:0:0:
256,192,34852,1,8,0:0:0:0:
256,192,34955,1,0,0:0:0:0:
256,192,35007,1,0,0:0:0:0:
256,192,35059,1,0,0:0:0:0:
256,192,35162,1,0,0:0:0:0:
256,192,35266,1,0,0:0:0:0:
256,192,35369,1,8,0:0:0:0:
256,192,35473,1,0,0:0:0:0:
256,192,35576,1,8,0:0:0:0:
256,192,35680,1,8,0:0:0:0:
256,192,35783,1,0,0:0:0:0:
256,192,35835,1,0,0:0:0:0:
256,192,35886,1,0,0:0:0:0:
256,192,35938,1,0,0:0:0:0:
256,192,35990,1,0,0:0:0:0:
256,192,36042,1,0,0:0:0:0:
256,192,36093,1,0,0:0:0:0:
256,192,36145,1,0,0:0:0:0:
256,192,36197,1,8,0:0:0:0:
256,192,36611,1,12,0:0:0:0:
256,192,36817,1,0,0:0:0:0:
256,192,37024,1,8,0:0:0:0:
256,192,37128,1,8,0:0:0:0:
256,192,37231,1,8,0:0:0:0:
256,192,37335,1,8,0:0:0:0:
256,192,37438,1,0,0:0:0:0:
256,192,37542,1,8,0:0:0:0:
256,192,37645,1,0,0:0:0:0:
256,192,37852,1,8,0:0:0:0:
256,192,38059,1,0,0:0:0:0:
256,192,38266,1,0,0:0:0:0:
256,192,38369,1,8,0:0:0:0:
256,192,38473,1,8,0:0:0:0:
256,192,38576,1,8,0:0:0:0:
256,192,38680,1,8,0:0:0:0:
256,192,38886,1,0,0:0:0:0:
256,192,38990,1,8,0:0:0:0:
256,192,39093,1,0,0:0:0:0:
256,192,39300,1,0,0:0:0:0:
256,192,39404,1,8,0:0:0:0:
256,192,39507,1,8,0:0:0:0:
256,192,39611,1,0,0:0:0:0:
256,192,39714,1,0,0:0:0:0:
256,192,39817,1,8,0:0:0:0:
256,192,39921,1,0,0:0:0:0:
256,192,40128,1,0,0:0:0:0:
256,192,40335,1,8,0:0:0:0:
256,192,40542,1,0,0:0:0:0:
256,192,40645,1,8,0:0:0:0:
256,192,40748,1,0,0:0:0:0:
256,192,40852,1,8,0:0:0:0:
256,192,40955,1,0,0:0:0:0:
256,192,41162,1,8,0:0:0:0:
256,192,41369,1,0,0:0:0:0:
256,192,41576,1,0,0:0:0:0:
256,192,41645,1,0,0:0:0:0:
256,192,41714,1,0,0:0:0:0:
256,192,41783,1,0,0:0:0:0:
256,192,41990,1,8,0:0:0:0:
256,192,42197,1,0,0:0:0:0:
256,192,42300,1,8,0:0:0:0:
256,192,42404,1,0,0:0:0:0:
256,192,42611,1,8,0:0:0:0:
256,192,42680,1,8,0:0:0:0:
256,192,42748,1,0,0:0:0:0:
256,192,42817,1,8,0:0:0:0:
256,192,43024,1,0,0:0:0:0:
256,192,43128,1,8,0:0:0:0:
256,192,43231,1,4,0:0:0:0:
256,192,43438,1,0,0:0:0:0:
256,192,43542,1,0,0:0:0:0:
256,192,43645,1,8,0:0:0:0:
256,192,43852,1,0,0:0:0:0:
256,192,43955,1,0,0:0:0:0:
256,192,44059,1,0,0:0:0:0:
256,192,44162,1,0,0:0:0:0:
256,192,44266,1,0,0:0:0:0:
256,192,44369,1,0,0:0:0:0:
256,192,44473,1,12,0:0:0:0:
256,192,44680,1,8,0:0:0:0:
256,192,44748,1,8,0:0:0:0:
256,192,44817,1,8,0:0:0:0:
256,192,44886,1,0,0:0:0:0:
256,192,44990,1,0,0:0:0:0:
256,192,45093,1,0,0:0:0:0:
256,192,45197,1,0,0:0:0:0:
256,192,45300,1,8,0:0:0:0:
256,192,45404,1,0,0:0:0:0:
256,192,45507,1,0,0:0:0:0:
256,192,45611,1,0,0:0:0:0:
256,192,45714,1,0,0:0:0:0:
256,192,45817,1,0,0:0:0:0:
256,192,45921,1,0,0:0:0:0:
256,192,46024,1,0,0:0:0:0:
256,192,46128,1,12,0:0:0:0:
256,192,46335,1,8,0:0:0:0:
256,192,46404,1,8,0:0:0:0:
256,192,46473,1,8,0:0:0:0:
256,192,46542,1,0,0:0:0:0:
256,192,46645,1,0,0:0:0:0:
256,192,46748,1,0,0:0:0:0:
256,192,46852,1,0,0:0:0:0:
256,192,46955,1,8,0:0:0:0:
256,192,47059,1,0,0:0:0:0:
256,192,47162,1,0,0:0:0:0:
256,192,47266,1,0,0:0:0:0:
256,192,47369,1,8,0:0:0:0:
256,192,47473,1,8,0:0:0:0:
256,192,47576,1,0,0:0:0:0:
256,192,47680,1,0,0:0:0:0:
256,192,47783,1,8,0:0:0:0:
256,192,47886,1,8,0:0:0:0:
256,192,47990,1,8,0:0:0:0:
256,192,48197,1,0,0:0:0:0:
256,192,48300,1,0,0:0:0:0:
256,192,48404,1,8,0:0:0:0:
256,192,48507,1,0,0:0:0:0:
256,192,48611,1,8,0:0:0:0:
256,192,48817,1,0,0:0:0:0:
256,192,48869,1,0,0:0:0:0:
256,192,48921,1,8,0:0:0:0:
256,192,49128,1,0,0:0:0:0:
256,192,49231,1,0,0:0:0:0:
256,192,49438,1,8,0:0:0:0:
256,192,49645,1,0,0:0:0:0:
256,192,49748,1,8,0:0:0:0:
256,192,49800,1,8,0:0:0:0:
256,192,49852,1,0,0:0:0:0:
256,192,50059,1,12,0:0:0:0:
256,192,50266,1,8,0:0:0:0:
256,192,50369,1,8,0:0:0:0:
256,192,50473,1,0,0:0:0:0:
256,192,50576,1,8,0:0:0:0:
256,192,50680,1,0,0:0:0:0:
256,192,50886,1,0,0:0:0:0:
256,192,51093,1,8,0:0:0:0:
256,192,51300,1,0,0:0:0:0:
256,192,51404,1,8,0:0:0:0:
256,192,51507,1,8,0:0:0:0:
256,192,51714,1,0,0:0:0:0:
256,192,51921,1,8,0:0:0:0:
256,192,52024,1,0,0:0:0:0:
256,192,52128,1,8,0:0:0:0:
256,192,52231,1,8,0:0:0:0:
256,192,52335,1,0,0:0:0:0:
256,192,52542,1,0,0:0:0:0:
256,192,52748,1,8,0:0:0:0:
256,192,52955,1,0,0:0:0:0:
256,192,53059,1,8,0:0:0:0:
256,192,53162,1,0,0:0:0:0:
256,192,53369,1,0,0:0:0:0:
256,192,53473,1,0,0:0:0:0:
256,192,53576,1,8,0:0:0:0:
256,192,53783,1,0,0:0:0:0:
256,192,53886,1,8,0:0:0:0:
256,192,53990,1,0,0:0:0:0:
256,192,54093,1,0,0:0:0:0:
256,192,54197,1,0,0:0:0:0:
256,192,54300,1,0,0:0:0:0:
256,192,54404,1,8,0:0:0:0:
256,192,54507,1,0,0:0:0:0:
256,192,54611,1,0,0:0:0:0:
256,192,54714,1,0,0:0:0:0:
256,192,54817,1,0,0:0:0:0:
256,192,55231,1,8,0:0:0:0:
256,192,55438,1,0,0:0:0:0:
256,192,55507,1,0,0:0:0:0:
256,192,55576,1,0,0:0:0:0:
256,192,55645,1,0,0:0:0:0:
256,192,55852,1,0,0:0:0:0:
256,192,56059,1,8,0:0:0:0:
256,192,56473,1,4,0:0:0:0:
256,192,56680,1,8,0:0:0:0:
256,192,56783,1,0,0:0:0:0:
256,192,56886,1,8,0:0:0:0:
256,192,56990,1,8,0:0:0:0:
256,192,57093,1,0,0:0:0:0:
256,192,57197,1,8,0:0:0:0:
256,192,57300,1,0,0:0:0:0:
256,192,57404,1,8,0:0:0:0:
256,192,57507,1,0,0:0:0:0:
256,192,57611,1,8,0:0:0:0:
256,192,57714,1,8,0:0:0:0:
256,192,57817,1,8,0:0:0:0:
256,192,57921,1,0,0:0:0:0:
256,192,58128,1,12,0:0:0:0:
256,192,58335,1,8,0:0:0:0:
256,192,58438,1,0,0:0:0:0:
256,192,58542,1,8,0:0:0:0:
256,192,58611,1,0,0:0:0:0:
256,192,58680,1,0,0:0:0:0:
256,192,58748,1,8,0:0:0:0:
256,192,58817,1,0,0:0:0:0:
256,192,58886,1,0,0:0:0:0:
256,192,58955,1,8,0:0:0:0:
256,192,59024,1,0,0:0:0:0:
256,192,59093,1,0,0:0:0:0:
256,192,59162,1,8,0:0:0:0:
256,192,59231,1,0,0:0:0:0:
256,192,59300,1,0,0:0:0:0:
256,192,59369,1,8,0:0:0:0:
256,192,59576,1,0,0:0:0:0:
256,192,59783,1,12,0:0:0:0:
256,192,59990,1,0,0:0:0:0:
256,192,60093,1,0,0:0:0:0:
256,192,60197,1,8,0:0:0:0:
256,192,60404,1,0,0:0:0:0:
256,192,60507,1,8,0:0:0:0:
256,192,60611,1,8,0:0:0:0:
256,192,60714,1,8,0:0:0:0:
256,192,60817,1,0,0:0:0:0:
256,192,60921,1,0,0:0:0:0:
256,192,61024,1,8,0:0:0:0:
256,192,61231,1,0,0:0:0:0:
256,192,61438,1,8,0:0:0:0:
256,192,61542,1,0,0:0:0:0:
256,192,61645,1,0,0:0:0:0:
256,192,61748,1,8,0:0:0:0:
256,192,61852,1,8,0:0:0:0:
256,192,62059,1,8,0:0:0:0:
256,192,62162,1,0,0:0:0:0:
256,192,62266,1,0,0:0:0:0:
256,192,62473,1,8,0:0:0:0:
256,192,62680,1,8,0:0:0:0:
256,192,62886,1,8,0:0:0:0:
256,192,63093,1,4,0:0:0:0:
256,192,63300,1,8,0:0:0:0:
256,192,63404,1,0,0:0:0:0:
256,192,63507,1,8,0:0:0:0:
256,192,63611,1,8,0:0:0:0:
256,192,63714,1,0,0:0:0:0:
256,192,63817,1,0,0:0:0:0:
256,192,63921,1,8,0:0:0:0:
256,192,64024,1,0,0:0:0:0:
256,192,64128,1,8,0:0:0:0:
256,192,64231,1,0,0:0:0:0:
256,192,64335,1,8,0:0:0:0:
256,192,64438,1,8,0:0:0:0:
256,192,64542,1,0,0:0:0:0:
256,192,64748,1,12,0:0:0:0:
256,192,64955,1,0,0:0:0:0:
256,192,65059,1,0,0:0:0:0:
256,192,65162,1,8,0:0:0:0:
256,192,65231,1,8,0:0:0:0:
256,192,65300,1,0,0:0:0:0:
256,192,65369,1,8,0:0:0:0:
256,192,65438,1,8,0:0:0:0:
256,192,65507,1,0,0:0:0:0:
256,192,65576,1,8,0:0:0:0:
256,192,65645,1,8,0:0:0:0:
256,192,65714,1,0,0:0:0:0:
256,192,65783,1,8,0:0:0:0:
256,192,65852,1,8,0:0:0:0:
256,192,65921,1,0,0:0:0:0:
256,192,65990,1,8,0:0:0:0:
256,192,66197,1,0,0:0:0:0:
256,192,66404,1,12,0:0:0:0:
256,192,66611,1,0,0:0:0:0:
256,192,66714,1,0,0:0:0:0:
256,192,66817,1,8,0:0:0:0:
256,192,66921,1,0,0:0:0:0:
256,192,67024,1,8,0:0:0:0:
256,192,67128,1,8,0:0:0:0:
256,192,67231,1,0,0:0:0:0:
256,192,67438,1,0,0:0:0:0:
256,192,67645,1,8,0:0:0:0:
256,192,67852,1,0,0:0:0:0:
256,192,67955,1,8,0:0:0:0:
256,192,68059,1,0,0:0:0:0:
256,192,68162,1,0,0:0:0:0:
256,192,68266,1,0,0:0:0:0:
256,192,68473,1,8,0:0:0:0:
256,192,68680,1,8,0:0:0:0:
256,192,68748,1,8,0:0:0:0:
256,192,68817,1,8,0:0:0:0:
256,192,68886,1,0,0:0:0:0:
256,192,69093,1,8,0:0:0:0:
256,192,69300,1,8,0:0:0:0:
256,192,69507,1,8,0:0:0:0:
256,192,69611,1,8,0:0:0:0:
256,192,69714,1,4,0:0:0:0:
256,192,69921,1,0,0:0:0:0:
256,192,70128,1,8,0:0:0:0:
256,192,70335,1,0,0:0:0:0:
256,192,70438,1,0,0:0:0:0:
256,192,70542,1,0,0:0:0:0:
256,192,70748,1,0,0:0:0:0:
256,192,70955,1,8,0:0:0:0:
256,192,71162,1,8,0:0:0:0:
256,192,71266,1,8,0:0:0:0:
256,192,71369,1,0,0:0:0:0:
256,192,71576,1,0,0:0:0:0:
256,192,71783,1,8,0:0:0:0:
256,192,71990,1,0,0:0:0:0:
256,192,72093,1,8,0:0:0:0:
256,192,72197,1,0,0:0:0:0:
256,192,72300,1,8,0:0:0:0:
256,192,72404,1,0,0:0:0:0:
256,192,72611,1,8,0:0:0:0:
256,192,72817,1,8,0:0:0:0:
256,192,72921,1,0,0:0:0:0:
256,192,73024,1,0,0:0:0:0:
256,192,73231,1,0,0:0:0:0:
256,192,73438,1,8,0:0:0:0:
256,192,73645,1,0,0:0:0:0:
256,192,73748,1,8,0:0:0:0:
256,192,73852,1,0,0:0:0:0:
256,192,74059,1,0,0:0:0:0:
256,192,74266,1,8,0:0:0:0:
256,192,74473,1,8,0:0:0:0:
256,192,74576,1,8,0:0:0:0:
256,192,74680,1,0,0:0:0:0:
256,192,74886,1,0,0:0:0:0:
256,192,75093,1,8,0:0:0:0:
256,192,75300,1,0,0:0:0:0:
256,192,75404,1,8,0:0:0:0:
256,192,75507,1,0,0:0:0:0:
256,192,75714,1,8,0:0:0:0:
256,192,75921,1,8,0:0:0:0:
256,192,76128,1,8,0:0:0:0:
256,192,76231,1,0,0:0:0:0:
256,192,76335,1,0,0:0:0:0:
256,192,76542,1,8,0:0:0:0:
256,192,76645,1,0,0:0:0:0:
256,192,76748,1,0,0:0:0:0:
256,192,76852,1,8,0:0:0:0:
256,192,76955,1,0,0:0:0:0:
256,192,77162,1,12,0:0:0:0:
256,192,77990,1,0,0:0:0:0:
256,192,78093,1,0,0:0:0:0:
256,192,78197,1,8,0:0:0:0:
256,192,78300,1,0,0:0:0:0:
256,192,78507,1,8,0:0:0:0:
256,192,78611,1,0,0:0:0:0:
256,192,78680,1,0,0:0:0:0:
256,192,78748,1,0,0:0:0:0:
256,192,78817,1,12,0:0:0:0:
256,192,79645,1,0,0:0:0:0:
256,192,80059,1,8,0:0:0:0:
256,192,80473,1,8,0:0:0:0:
256,192,80576,1,8,0:0:0:0:
256,192,80680,1,0,0:0:0:0:
256,192,80886,1,8,0:0:0:0:
256,192,81300,1,0,0:0:0:0:
256,192,81507,1,0,0:0:0:0:
256,192,81714,1,8,0:0:0:0:
256,192,81921,1,0,0:0:0:0:
256,192,82128,1,8,0:0:0:0:
256,192,82197,1,8,0:0:0:0:
256,192,82266,1,8,0:0:0:0:
256,192,82335,1,0,0:0:0:0:
256,192,82404,1,0,0:0:0:0:
256,192,82473,1,0,0:0:0:0:
256,192,82542,1,8,0:0:0:0:
256,192,82748,1,0,0:0:0:0:
256,192,82955,1,12,0:0:0:0:
256,192,84611,1,8,0:0:0:0:
256,192,84714,1,0,0:0:0:0:
256,192,84817,1,0,0:0:0:0:
256,192,84921,1,0,0:0:0:0:
256,192,85024,1,0,0:0:0:0:
256,192,85128,1,0,0:0:0:0:
256,192,85231,1,0,0:0:0:0:
256,192,85335,1,0,0:0:0:0:
256,192,85438,1,8,0:0:0:0:
256,192,85490,1,8,0:0:0:0:
256,192,85542,1,8,0:0:0:0:
256,192,85645,1,0,0:0:0:0:
256,192,85748,1,0,0:0:0:0:
256,192,85852,1,8,0:0:0:0:
256,192,85955,1,0,0:0:0:0:
256,192,86059,1,0,0:0:0:0:
256,192,86162,1,0,0:0:0:0:
256,192,86266,1,8,0:0:0:0:
256,192,86369,1,0,0:0:0:0:
256,192,86473,1,8,0:0:0:0:
256,192,86524,1,8,0:0:0:0:
256,192,86576,1,8,0:0:0:0:
256,192,86680,1,0,0:0:0:0:
256,192,86783,1,0,0:0:0:0:
256,192,86886,1,0,0:0:0:0:
256,192,86990,1,0,0:0:0:0:
256,192,87093,1,8,0:0:0:0:
256,192,87197,1,0,0:0:0:0:
256,192,87300,1,0,0:0:0:0:
256,192,87404,1,0,0:0:0:0:
256,192,87507,1,8,0:0:0:0:
256,192,87559,1,8,0:0:0:0:
256,192,87611,1,0,0:0:0:0:
256,192,87662,1,0,0:0:0:0:
256,192,87714,1,8,0:0:0:0:
256,192,87817,1,0,0:0:0:0:
256,192,87921,1,8,0:0:0:0:
256,192,88024,1,0,0:0:0:0:
256,192,88128,1,0,0:0:0:0:
256,192,88231,1,0,0:0:0:0:
256,192,88335,1,8,0:0:0:0:
256,192,88386,1,8,0:0:0:0:
256,192,88438,1,0,0:0:0:0:
256,192,88542,1,0,0:0:0:0:
256,192,88645,1,0,0:0:0:0:
256,192,88748,1,8,0:0:0:0:
256,192,88800,1,8,0:0:0:0:
256,192,88852,1,0,0:0:0:0:
256,192,88955,1,0,0:0:0:0:
256,192,89059,1,8,0:0:0:0:
256,192,89162,1,8,0:0:0:0:
256,192,89266,1,0,0:0:0:0:
256,192,89369,1,0,0:0:0:0:
256,192,89473,1,0,0:0:0:0:
256,192,89576,1,8,0:0:0:0:
256,192,89680,1,0,0:0:0:0:
256,192,89783,1,8,0:0:0:0:
256,192,89835,1,8,0:0:0:0:
256,192,89886,1,8,0:0:0:0:
256,192,89990,1,0,0:0:0:0:
256,192,90093,1,0,0:0:0:0:
256,192,90197,1,8,0:0:0:0:
256,192,90248,1,8,0:0:0:0:
256,192,90300,1,8,0:0:0:0:
256,192,90404,1,0,0:0:0:0:
256,192,90507,1,0,0:0:0:0:
256,192,90611,1,0,0:0:0:0:
256,192,90714,1,0,0:0:0:0:
256,192,90817,1,8,0:0:0:0:
256,192,90869,1,8,0:0:0:0:
256,192,90921,1,0,0:0:0:0:
256,192,90973,1,0,0:0:0:0:
256,192,91024,1,8,0:0:0:0:
256,192,91128,1,0,0:0:0:0:
256,192,91231,1,8,0:0:0:0:
256,192,91335,1,0,0:0:0:0:
256,192,91438,1,0,0:0:0:0:
256,192,91542,1,0,0:0:0:0:
256,192,91645,1,8,0:0:0:0:
256,192,91697,1,8,0:0:0:0:
256,192,91748,1,0,0:0:0:0:
256,192,91852,1,0,0:0:0:0:
256,192,91955,1,0,0:0:0:0:
256,192,92059,1,8,0:0:0:0:
256,192,92162,1,0,0:0:0:0:
256,192,92266,1,0,0:0:0:0:
256,192,92369,1,0,0:0:0:0:
256,192,92473,1,8,0:0:0:0:
256,192,92524,1,8,0:0:0:0:
256,192,92576,1,0,0:0:0:0:
256,192,92628,1,0,0:0:0:0:
256,192,92680,1,8,0:0:0:0:
256,192,92783,1,0,0:0:0:0:
256,192,92886,1,8,0:0:0:0:
256,192,92990,1,0,0:0:0:0:
256,192,93093,1,0,0:0:0:0:
256,192,93197,1,0,0:0:0:0:
256,192,93300,1,8,0:0:0:0:
256,192,93352,1,8,0:0:0:0:
256,192,93404,1,8,0:0:0:0:
256,192,93507,1,0,0:0:0:0:
256,192,93611,1,0,0:0:0:0:
256,192,93714,1,8,0:0:0:0:
256,192,93817,1,0,0:0:0:0:
256,192,93921,1,0,0:0:0:0:
256,192,94024,1,0,0:0:0:0:
256,192,94128,1,8,0:0:0:0:
256,192,94180,1,8,0:0:0:0:
256,192,94231,1,0,0:0:0:0:
256,192,94283,1,0,0:0:0:0:
256,192,94335,1,8,0:0:0:0:
256,192,94438,1,0,0:0:0:0:
256,192,94542,1,8,0:0:0:0:
256,192,94748,1,8,0:0:0:0:
256,192,94955,1,0,0:0:0:0:
256,192,95059,1,8,0:0:0:0:
256,192,95162,1,0,0:0:0:0:
256,192,95231,1,0,0:0:0:0:
256,192,95300,1,0,0:0:0:0:
256,192,95369,1,8,0:0:0:0:
256,192,95473,1,0,0:0:0:0:
256,192,95576,1,0,0:0:0:0:
256,192,95645,1,0,0:0:0:0:
256,192,95714,1,0,0:0:0:0:
256,192,95783,1,8,0:0:0:0:
256,192,96093,1,8,0:0:0:0:
256,192,96197,1,4,0:0:0:0:
256,192,96404,1,8,0:0:0:0:
256,192,96714,1,0,0:0:0:0:
256,192,96817,1,8,0:0:0:0:
256,192,97024,1,0,0:0:0:0:
256,192,97231,1,8,0:0:0:0:
256,192,97542,1,0,0:0:0:0:
256,192,97645,1,8,0:0:0:0:
256,192,97852,1,0,0:0:0:0:
256,192,97955,1,0,0:0:0:0:
256,192,98059,1,8,0:0:0:0:
256,192,98162,1,0,0:0:0:0:
256,192,98369,1,0,0:0:0:0:
256,192,98473,1,8,0:0:0:0:
256,192,98680,1,0,0:0:0:0:
256,192,98886,1,8,0:0:0:0:
256,192,99197,1,0,0:0:0:0:
256,192,99300,1,8,0:0:0:0:
256,192,99507,1,0,0:0:0:0:
256,192,99576,1,0,0:0:0:0:
256,192,99645,1,0,0:0:0:0:
256,192,99714,1,8,0:0:0:0:
256,192,99783,1,8,0:0:0:0:
256,192,99852,1,8,0:0:0:0:
256,192,99921,1,0,0:0:0:0:
256,192,100024,1,0,0:0:0:0:
256,192,100128,1,8,0:0:0:0:
256,192,100197,1,0,0:0:0:0:
256,192,100266,1,0,0:0:0:0:
256,192,100335,1,0,0:0:0:0:
256,192,100438,1,0,0:0:0:0:
256,192,100542,1,8,0:0:0:0:
256,192,100611,1,0,0:0:0:0:
256,192,100680,1,8,0:0:0:0:
256,192,100748,1,8,0:0:0:0:
256,192,100817,1,0,0:0:0:0:
256,192,100886,1,0,0:0:0:0:
256,192,100955,1,8,0:0:0:0:
256,192,101059,1,0,0:0:0:0:
256,192,101162,1,8,0:0:0:0:
256,192,101231,1,0,0:0:0:0:
256,192,101300,1,0,0:0:0:0:
256,192,101369,1,0,0:0:0:0:
256,192,101473,1,8,0:0:0:0:
256,192,101542,1,0,0:0:0:0:
256,192,101611,1,0,0:0:0:0:
256,192,101680,1,0,0:0:0:0:
256,192,101783,1,8,0:0:0:0:
256,192,101990,1,0,0:0:0:0:
256,192,102093,1,8,0:0:0:0:
256,192,102197,1,0,0:0:0:0:
256,192,102266,1,0,0:0:0:0:
256,192,102335,1,0,0:0:0:0:
256,192,102404,1,8,0:0:0:0:
256,192,102507,1,0,0:0:0:0:
256,192,102611,1,0,0:0:0:0:
256,192,102817,1,0,0:0:0:0:
256,192,102886,1,0,0:0:0:0:
256,192,102955,1,0,0:0:0:0:
256,192,103024,1,8,0:0:0:0:
256,192,103128,1,8,0:0:0:0:
256,192,103231,1,8,0:0:0:0:
256,192,103300,1,0,0:0:0:0:
256,192,103369,1,0,0:0:0:0:
256,192,103438,1,8,0:0:0:0:
256,192,103542,1,0,0:0:0:0:
256,192,103645,1,8,0:0:0:0:
256,192,103714,1,0,0:0:0:0:
256,192,103783,1,0,0:0:0:0:
256,192,103852,1,8,0:0:0:0:
256,192,103921,1,0,0:0:0:0:
256,192,103990,1,0,0:0:0:0:
256,192,104059,1,8,0:0:0:0:
256,192,104128,1,8,0:0:0:0:
256,192,104197,1,0,0:0:0:0:
256,192,104266,1,8,0:0:0:0:
256,192,104335,1,8,0:0:0:0:
256,192,104404,1,8,0:0:0:0:
256,192,104473,1,0,0:0:0:0:
256,192,104576,1,0,0:0:0:0:
256,192,104680,1,8,0:0:0:0:
256,192,104748,1,8,0:0:0:0:
256,192,104817,1,8,0:0:0:0:
256,192,104886,1,0,0:0:0:0:
256,192,104955,1,8,0:0:0:0:
256,192,105024,1,8,0:0:0:0:
256,192,105093,1,0,0:0:0:0:
256,192,105162,1,8,0:0:0:0:
256,192,105231,1,8,0:0:0:0:
256,192,105300,1,0,0:0:0:0:
256,192,105369,1,0,0:0:0:0:
256,192,105438,1,0,0:0:0:0:
256,192,105507,1,8,0:0:0:0:
256,192,105576,1,8,0:0:0:0:
256,192,105645,1,0,0:0:0:0:
256,192,105714,1,8,0:0:0:0:
256,192,105783,1,8,0:0:0:0:
256,192,105852,1,0,0:0:0:0:
256,192,105921,1,8,0:0:0:0:
256,192,105990,1,8,0:0:0:0:
256,192,106059,1,8,0:0:0:0:
256,192,106128,1,0,0:0:0:0:
256,192,106335,1,8,0:0:0:0:
256,192,106645,1,0,0:0:0:0:
256,192,106748,1,8,0:0:0:0:
256,192,106955,1,0,0:0:0:0:
256,192,107162,1,8,0:0:0:0:
256,192,107473,1,0,0:0:0:0:
256,192,107576,1,8,0:0:0:0:
256,192,107783,1,8,0:0:0:0:
256,192,107886,1,0,0:0:0:0:
256,192,107990,1,0,0:0:0:0:
256,192,108093,1,8,0:0:0:0:
256,192,108197,1,0,0:0:0:0:
256,192,108300,1,0,0:0:0:0:
256,192,108404,1,8,0:0:0:0:
256,192,108507,1,0,0:0:0:0:
256,192,108611,1,8,0:0:0:0:
256,192,108714,1,8,0:0:0:0:
256,192,108817,1,0,0:0:0:0:
256,192,108921,1,0,0:0:0:0:
256,192,109024,1,0,0:0:0:0:
256,192,109128,1,0,0:0:0:0:
256,192,109231,1,0,0:0:0:0:
256,192,109335,1,0,0:0:0:0:
256,192,109438,1,12,0:0:0:0:
256,192,109542,1,0,0:0:0:0:
256,192,109645,1,0,0:0:0:0:
256,192,109748,1,0,0:0:0:0:
256,192,109852,1,8,0:0:0:0:
256,192,109904,1,8,0:0:0:0:
256,192,109955,1,8,0:0:0:0:
256,192,110059,1,0,0:0:0:0:
256,192,110162,1,0,0:0:0:0:
256,192,110266,1,8,0:0:0:0:
256,192,110317,1,8,0:0:0:0:
256,192,110369,1,8,0:0:0:0:
256,192,110473,1,0,0:0:0:0:
256,192,110576,1,0,0:0:0:0:
256,192,110680,1,8,0:0:0:0:
256,192,110783,1,0,0:0:0:0:
256,192,110886,1,12,0:0:0:0:
256,192,111093,1,8,0:0:0:0:
256,192,111197,1,0,0:0:0:0:
256,192,111300,1,0,0:0:0:0:
256,192,111404,1,0,0:0:0:0:
256,192,111507,1,8,0:0:0:0:
256,192,111559,1,8,0:0:0:0:
256,192,111611,1,0,0:0:0:0:
256,192,111714,1,0,0:0:0:0:
256,192,111817,1,0,0:0:0:0:
256,192,111921,1,8,0:0:0:0:
256,192,111973,1,8,0:0:0:0:
256,192,112024,1,0,0:0:0:0:
256,192,112128,1,0,0:0:0:0:
256,192,112231,1,0,0:0:0:0:
256,192,112335,1,8,0:0:0:0:
256,192,112438,1,8,0:0:0:0:
256,192,112542,1,4,0:0:0:0:
256,192,112748,1,0,0:0:0:0:
256,192,112852,1,0,0:0:0:0:
256,192,112955,1,0,0:0:0:0:
256,192,113059,1,0,0:0:0:0:
256,192,113162,1,8,0:0:0:0:
256,192,113214,1,8,0:0:0:0:
256,192,113266,1,8,0:0:0:0:
256,192,113369,1,0,0:0:0:0:
256,192,113473,1,0,0:0:0:0:
256,192,113576,1,8,0:0:0:0:
256,192,113628,1,8,0:0:0:0:
256,192,113680,1,8,0:0:0:0:
256,192,113783,1,0,0:0:0:0:
256,192,113886,1,0,0:0:0:0:
256,192,113990,1,8,0:0:0:0:
256,192,114093,1,0,0:0:0:0:
256,192,114197,1,12,0:0:0:0:
256,192,114404,1,8,0:0:0:0:
256,192,114507,1,0,0:0:0:0:
256,192,114611,1,0,0:0:0:0:
256,192,114714,1,0,0:0:0:0:
256,192,114817,1,8,0:0:0:0:
256,192,114921,1,8,0:0:0:0:
256,192,115024,1,0,0:0:0:0:
256,192,115128,1,8,0:0:0:0:
256,192,115231,1,0,0:0:0:0:
256,192,115300,1,0,0:0:0:0:
256,192,115369,1,0,0:0:0:0:
256,192,115438,1,8,0:0:0:0:
256,192,115507,1,0,0:0:0:0:
256,192,115576,1,8,0:0:0:0:
256,192,115645,1,8,0:0:0:0:
256,192,115714,1,0,0:0:0:0:
256,192,115783,1,0,0:0:0:0:
256,192,115852,1,8,0:0:0:0:
256,192,115955,1,0,0:0:0:0:
256,192,116059,1,12,0:0:0:0:
256,192,116266,1,0,0:0:0:0:
256,192,116369,1,0,0:0:0:0:
256,192,116473,1,8,0:0:0:0:
256,192,116524,1,8,0:0:0:0:
256,192,116576,1,8,0:0:0:0:
256,192,116680,1,0,0:0:0:0:
256,192,116783,1,0,0:0:0:0:
256,192,116886,1,8,0:0:0:0:
256,192,116938,1,8,0:0:0:0:
256,192,116990,1,8,0:0:0:0:
256,192,117093,1,0,0:0:0:0:
256,192,117197,1,0,0:0:0:0:
256,192,117300,1,8,0:0:0:0:
256,192,117404,1,0,0:0:0:0:
256,192,117507,1,0,0:0:0:0:
256,192,117611,1,0,0:0:0:0:
256,192,117714,1,8,0:0:0:0:
256,192,117817,1,8,0:0:0:0:
256,192,117921,1,0,0:0:0:0:
256,192,118024,1,0,0:0:0:0:
256,192,118128,1,8,0:0:0:0:
256,192,118180,1,8,0:0:0:0:
256,192,118231,1,0,0:0:0:0:
256,192,118335,1,0,0:0:0:0:
256,192,118438,1,0,0:0:0:0:
256,192,118542,1,8,0:0:0:0:
256,192,118593,1,8,0:0:0:0:
256,192,118645,1,0,0:0:0:0:
256,192,118748,1,0,0:0:0:0:
256,192,118852,1,0,0:0:0:0:
256,192,118955,1,12,0:0:0:0:
256,192,119369,1,0,0:0:0:0:
256,192,119473,1,0,0:0:0:0:
256,192,119576,1,0,0:0:0:0:
256,192,119680,1,0,0:0:0:0:
256,192,119783,1,8,0:0:0:0:
256,192,119835,1,8,0:0:0:0:
256,192,119886,1,8,0:0:0:0:
256,192,119990,1,0,0:0:0:0:
256,192,120093,1,0,0:0:0:0:
256,192,120197,1,8,0:0:0:0:
256,192,120248,1,8,0:0:0:0:
256,192,120300,1,8,0:0:0:0:
256,192,120404,1,0,0:0:0:0:
256,192,120507,1,0,0:0:0:0:
256,192,120611,1,8,0:0:0:0:
256,192,120714,1,8,0:0:0:0:
256,192,120817,1,8,0:0:0:0:
256,192,120921,1,0,0:0:0:0:
256,192,121024,1,8,0:0:0:0:
256,192,121128,1,0,0:0:0:0:
256,192,121231,1,0,0:0:0:0:
256,192,121335,1,8,0:0:0:0:
256,192,121542,1,0,0:0:0:0:
256,192,121645,1,8,0:0:0:0:
256,192,121748,1,0,0:0:0:0:
256,192,121852,1,8,0:0:0:0:
256,192,121955,1,0,0:0:0:0:
256,192,122059,1,0,0:0:0:0:
256,192,122162,1,8,0:0:0:0:
256,192,122266,1,8,0:0:0:0:
256,192,122369,1,8,0:0:0:0:
256,192,122473,1,0,0:0:0:0:
256,192,122524,1,0,0:0:0:0:
256,192,122576,1,0,0:0:0:0:
256,192,122628,1,0,0:0:0:0:
256,192,122680,1,8,0:0:0:0:
256,192,122783,1,0,0:0:0:0:
256,192,122886,1,8,0:0:0:0:
256,192,122955,1,0,0:0:0:0:
256,192,123024,1,0,0:0:0:0:
256,192,123093,1,8,0:0:0:0:
256,192,123162,1,0,0:0:0:0:
256,192,123231,1,0,0:0:0:0:
256,192,123300,1,8,0:0:0:0:
256,192,123404,1,0,0:0:0:0:
256,192,123507,1,8,0:0:0:0:
256,192,123576,1,0,0:0:0:0:
256,192,123645,1,0,0:0:0:0:
256,192,123714,1,8,0:0:0:0:
256,192,123817,1,0,0:0:0:0:
256,192,123921,1,0,0:0:0:0:
256,192,124024,1,0,0:0:0:0:
256,192,124128,1,8,0:0:0:0:
256,192,124197,1,8,0:0:0:0:
256,192,124266,1,0,0:0:0:0:
256,192,124335,1,8,0:0:0:0:
256,192,124438,1,0,0:0:0:0:
256,192,124542,1,8,0:0:0:0:
256,192,124611,1,8,0:0:0:0:
256,192,124680,1,0,0:0:0:0:
256,192,124748,1,8,0:0:0:0:
256,192,124817,1,8,0:0:0:0:
256,192,124886,1,0,0:0:0:0:
256,192,124955,1,8,0:0:0:0:
256,192,125059,1,0,0:0:0:0:
256,192,125162,1,8,0:0:0:0:
256,192,125231,1,8,0:0:0:0:
256,192,125300,1,8,0:0:0:0:
256,192,125369,1,0,0:0:0:0:
256,192,125438,1,0,0:0:0:0:
256,192,125507,1,0,0:0:0:0:
256,192,125576,1,8,0:0:0:0:
256,192,125645,1,0,0:0:0:0:
256,192,125714,1,0,0:0:0:0:
256,192,125783,1,8,0:0:0:0:
256,192,125886,1,8,0:0:0:0:
256,192,125990,1,0,0:0:0:0:
256,192,126197,1,8,0:0:0:0:
256,192,126266,1,0,0:0:0:0:
256,192,126335,1,0,0:0:0:0:
256,192,126404,1,8,0:0:0:0:
256,192,126473,1,0,0:0:0:0:
256,192,126542,1,0,0:0:0:0:
256,192,126611,1,8,0:0:0:0:
256,192,126714,1,0,0:0:0:0:
256,192,126817,1,8,0:0:0:0:
256,192,126886,1,0,0:0:0:0:
256,192,126955,1,0,0:0:0:0:
256,192,127024,1,8,0:0:0:0:
256,192,127128,1,0,0:0:0:0:
256,192,127231,1,0,0:0:0:0:
256,192,127335,1,0,0:0:0:0:
256,192,127438,1,8,0:0:0:0:
256,192,127507,1,8,0:0:0:0:
256,192,127576,1,8,0:0:0:0:
256,192,127645,1,0,0:0:0:0:
256,192,127748,1,0,0:0:0:0:
256,192,127852,1,8,0:0:0:0:
256,192,127921,1,8,0:0:0:0:
256,192,127990,1,0,0:0:0:0:
256,192,128059,1,8,0:0:0:0:
256,192,128128,1,8,0:0:0:0:
256,192,128197,1,0,0:0:0:0:
256,192,128266,1,8,0:0:0:0:
256,192,128369,1,0,0:0:0:0:
256,192,128473,1,8,0:0:0:0:
256,192,128542,1,0,0:0:0:0:
256,192,128611,1,0,0:0:0:0:
256,192,128680,1,8,0:0:0:0:
256,192,128748,1,0,0:0:0:0:
256,192,128817,1,0,0:0:0:0:
256,192,128886,1,8,0:0:0:0:
256,192,128955,1,8,0:0:0:0:
256,192,129024,1,0,0:0:0:0:
256,192,129093,1,8,0:0:0:0:
256,192,129162,1,8,0:0:0:0:
256,192,129231,1,0,0:0:0:0:
256,192,129300,1,8,0:0:0:0:
256,192,129404,1,0,0:0:0:0:
256,192,129507,1,8,0:0:0:0:
256,192,129611,1,0,0:0:0:0:
256,192,129714,1,8,0:0:0:0:
256,192,129817,1,0,0:0:0:0:
256,192,129921,1,8,0:0:0:0:
256,192,130024,1,0,0:0:0:0:
256,192,130128,1,8,0:0:0:0:
256,192,130231,1,0,0:0:0:0:
256,192,130335,1,8,0:0:0:0:
256,192,130438,1,0,0:0:0:0:
256,192,130542,1,8,0:0:0:0:
256,192,130645,1,0,0:0:0:0:
256,192,130748,1,8,0:0:0:0:
256,192,130852,1,0,0:0:0:0:
256,192,130955,1,8,0:0:0:0:
256,192,131059,1,8,0:0:0:0:
256,192,131162,1,0,0:0:0:0:
256,192,131266,1,8,0:0:0:0:
256,192,131369,1,8,0:0:0:0:
256,192,131473,1,8,0:0:0:0:
256,192,131576,1,0,0:0:0:0:
256,192,131680,1,8,0:0:0:0:
256,192,131783,1,0,0:0:0:0:
256,192,131835,1,0,0:0:0:0:
256,192,131886,1,8,0:0:0:0:
256,192,131938,1,0,0:0:0:0:
256,192,131990,1,8,0:0:0:0:
256,192,132093,1,0,0:0:0:0:
256,192,132197,1,0,0:0:0:0:
256,192,132300,1,0,0:0:0:0:
256,192,132404,1,0,0:0:0:0:
256,192,132507,1,0,0:0:0:0:
256,192,132559,1,0,0:0:0:0:
256,192,132611,1,8,0:0:0:0:
256,192,132714,1,0,0:0:0:0:
256,192,132817,1,0,0:0:0:0:
256,192,132921,1,0,0:0:0:0:
256,192,133024,1,8,0:0:0:0:
256,192,133076,1,8,0:0:0:0:
256,192,133128,1,8,0:0:0:0:
256,192,133231,1,0,0:0:0:0:
256,192,133335,1,0,0:0:0:0:
256,192,133438,1,12,0:0:0:0:
256,192,133852,1,0,0:0:0:0:
256,192,133955,1,0,0:0:0:0:
256,192,134059,1,0,0:0:0:0:
256,192,134162,1,0,0:0:0:0:
256,192,134266,1,12,0:0:0:0:
256,192,134680,1,8,0:0:0:0:
256,192,134731,1,8,0:0:0:0:
256,192,134783,1,8,0:0:0:0:
256,192,134886,1,8,0:0:0:0:
256,192,134990,1,8,0:0:0:0:
256,192,135093,1,8,0:0:0:0:
256,192,135145,1,8,0:0:0:0:
256,192,135197,1,8,0:0:0:0:
256,192,135300,1,0,0:0:0:0:
256,192,135404,1,0,0:0:0:0:
256,192,135507,1,8,0:0:0:0:
256,192,135611,1,0,0:0:0:0:
256,192,135714,1,8,0:0:0:0:
256,192,135921,1,4,0:0:0:0:
