osu file format v14

[General]
AudioFilename: audio.mp3
AudioLeadIn: 0
PreviewTime: 87778
Countdown: 0
SampleSet: Normal
StackLeniency: 0.7
Mode: 0
LetterboxInBreaks: 0
WidescreenStoryboard: 1

[Editor]
DistanceSpacing: 1
BeatDivisor: 4
GridSize: 32
TimelineZoom: 4.400003

[Metadata]
Title:Verflucht
TitleUnicode:Verflucht
Artist:Tyrfing
ArtistUnicode:Tyrfing
Creator:Muya
Version:Beginner
Source:beatmania IIDX 21 SPADA
Tags:Hommarju HARD NRG fanzhen0019
BeatmapID:2085888
BeatmapSetID:965125

[Difficulty]
HPDrainRate:2
CircleSize:3
OverallDifficulty:3
ApproachRate:4
SliderMultiplier:0.999999999999999
SliderTickRate:1

[Events]
//Background and Video events
0,0,"leggendaria.jpg",0,0
//Break Periods
2,67394,76542
//Storyboard Layer 0 (Background)
//Storyboard Layer 1 (Fail)
//Storyboard Layer 2 (Pass)
//Storyboard Layer 3 (Foreground)
//Storyboard Layer 4 (Overlay)
//Storyboard Sound Samples

[TimingPoints]
529,333.333333333333,4,1,1,70,1,0
24612,-100,4,1,0,50,0,0
34528,-100,4,2,0,70,0,0
35195,-100,4,1,1,70,0,0
67278,-100,4,2,0,70,0,0
77862,-100,4,1,1,70,0,0

[Colours]
Combo1 : 255,128,192
Combo2 : 255,0,128
Combo3 : 255,0,255

[HitObjects]
44,56,3195,5,12,0:0:0:0:
100,140,3528,2,0,P|152:156|292:124,1,200,8|8,0:0|0:0,0:0:0:0:
340,36,4528,1,8,0:0:0:0:
440,48,4862,1,8,0:0:0:0:
476,84,5028,1,2,0:0:0:0:
500,128,5195,2,0,P|508:180|504:240,1,99.9999999999999,8|8,0:0|0:0,0:0:0:0:
452,316,5862,6,0,P|396:340|268:296,1,200,8|8,0:0|0:0,0:0:0:0:
232,204,6862,1,8,0:0:0:0:
316,148,7195,2,0,P|332:100|320:52,1,99.9999999999999,8|8,0:0|0:0,0:0:0:0:
284,20,7695,1,2,0:0:0:0:
236,8,7862,2,0,L|128:20,1,99.9999999999999,8|8,0:0|0:0,0:0:0:0:
76,100,8528,5,8,0:0:0:0:
60,148,8695,1,2,0:0:0:0:
60,200,8862,2,0,P|88:300|160:360,1,200,8|8,0:0|0:0,0:0:0:0:
176,260,9862,2,0,P|256:208|336:260,1,200,8|8,0:0|0:0,0:0:0:0:
256,320,10862,1,8,0:0:0:0:
352,359,11195,2,0,P|427:295|452:200,1,200,8|8,0:0|0:0,0:0:0:0:
452,148,12028,1,2,0:0:0:0:
436,100,12195,1,8,0:0:0:0:
352,48,12528,2,0,P|256:24|160:48,1,200,8|8,0:0|0:0,0:0:0:0:
16,192,13862,5,8,0:0:0:0:
64,280,14195,2,0,P|140:300|232:232,1,200,8|8,0:0|0:0,0:0:0:0:
244,184,15028,1,2,0:0:0:0:
236,136,15195,1,8,0:0:0:0:
280,48,15528,2,0,P|356:28|452:96,1,200,8|8,0:0|0:0,0:0:0:0:
440,192,16528,5,8,0:0:0:0:
488,280,16862,2,0,P|392:336|312:312,1,200,8|8,0:0|0:0,0:0:0:0:
276,276,17695,1,2,0:0:0:0:
252,232,17862,2,0,P|244:180|248:116,1,99.9999999999999,8|8,0:0|0:0,0:0:0:0:
196,44,18528,2,0,P|136:36|76:44,1,99.9999999999999,8|8,0:0|0:0,0:0:0:0:
28,112,19195,5,8,0:0:0:0:
48,208,19528,2,0,P|104:288|200:296,1,200,8|8,0:0|0:0,0:0:0:0:
232,256,20362,1,2,0:0:0:0:
256,212,20528,1,8,0:0:0:0:
312,296,20862,2,0,P|408:287|464:208,1,200,8|8,0:0|0:0,0:0:0:0:
444,108,21862,6,0,P|380:96|332:104,1,99.9999999999999,8|8,0:0|0:0,0:0:0:0:
304,128,22362,1,10,0:0:0:0:
272,168,22528,2,0,P|208:180|160:172,1,99.9999999999999,8|8,0:0|0:0,0:0:0:0:
80,136,23195,2,0,P|60:268|276:332,1,400,8|12,0:0|0:0,0:0:0:0:
356,36,26528,6,2,L|152:44,1,200,2|0,0:0|0:0,0:0:0:0:
156,188,31862,6,2,L|360:196,1,200,2|0,0:0|0:0,0:0:0:0:
256,352,34528,5,2,0:0:0:0:
56,356,35195,6,0,P|24:248|96:80,1,300,12|8,0:0|0:0,0:0:0:0:
132,116,36362,2,0,P|252:156|360:104,1,250,8|8,0:0|0:0,0:0:0:0:
432,36,37528,1,8,0:0:0:0:
472,68,37695,6,0,P|472:272|360:332,1,350,8|8,0:0|0:0,0:0:0:0:
312,316,39028,2,0,P|240:224|256:92,1,250,8|8,0:0|0:0,0:0:0:0:
232,52,40028,6,0,P|80:96|64:356,1,450,8|8,0:0|0:0,0:0:0:0:
108,372,41695,2,0,P|168:316|332:312,1,250,8|8,0:0|0:0,0:0:0:0:
416,360,42862,1,8,0:0:0:0:
456,328,43028,6,0,P|484:192|356:36,1,350,8|8,0:0|0:0,0:0:0:0:
308,32,44362,2,0,P|264:80|264:168,1,150,8|8,0:0|0:0,0:0:0:0:
328,224,45195,2,0,P|336:276|332:332,1,99.9999999999999,12|0,0:0|0:0,0:0:0:0:
248,376,45862,6,0,P|156:376|40:220,1,300,12|8,0:0|0:0,0:0:0:0:
48,172,47028,1,2,0:0:0:0:
84,136,47195,2,0,B|224:80|200:244|364:164,1,300,8|8,0:0|0:0,0:0:0:0:
420,80,48528,6,0,P|344:28|144:40,1,300,8|8,0:0|0:0,0:0:0:0:
100,64,49695,1,2,0:0:0:0:
72,108,49862,2,0,P|56:168|64:312,1,200,8|8,0:0|0:0,0:0:0:0:
152,356,50862,1,8,0:0:0:0:
252,368,51195,6,0,P|396:316|464:188,1,300,8|8,0:0|0:0,0:0:0:0:
456,144,52362,1,2,0:0:0:0:
432,100,52528,2,0,B|292:44|316:208|152:128,1,300,8|8,0:0|0:0,0:0:0:0:
84,52,53862,2,0,P|36:140|84:344,1,300,8|8,0:0|0:0,0:0:0:0:
108,292,55028,1,2,0:0:0:0:
152,268,55195,6,0,P|236:252|344:288,1,200,8|8,0:0|0:0,0:0:0:0:
416,360,56195,1,0,0:0:0:0:
492,296,56528,6,0,P|512:168|408:44,1,300,12|8,0:0|0:0,0:0:0:0:
376,84,57695,1,2,0:0:0:0:
376,136,57862,2,0,P|288:208|136:136,1,300,8|8,0:0|0:0,0:0:0:0:
99,40,59195,6,0,P|4:150|20:296,1,300,8|8,0:0|0:0,0:0:0:0:
52,336,60362,1,2,0:0:0:0:
92,364,60528,2,0,P|152:320|276:312,1,200,8|8,0:0|0:0,0:0:0:0:
360,364,61528,1,8,0:0:0:0:
456,332,61862,6,0,P|420:236|240:212,1,300,8|8,0:0|0:0,0:0:0:0:
192,196,63028,1,2,0:0:0:0:
152,164,63195,2,0,P|188:68|368:44,1,300,8|8,0:0|0:0,0:0:0:0:
444,104,64528,6,0,P|396:231|156:263,2,400,8|8|12,0:0|0:0|0:0,0:0:0:0:
72,348,77862,6,0,P|216:260|336:292,1,300,12|8,0:0|0:0,0:0:0:0:
380,316,79028,6,0,P|444:237|454:88,1,250,8|8,0:0|0:0,0:0:0:0:
392,16,80195,1,8,0:0:0:0:
340,16,80362,6,0,P|232:112|224:308,1,350,8|8,0:0|0:0,0:0:0:0:
184,340,81695,2,0,P|104:344|8:220,1,250,8|8,0:0|0:0,0:0:0:0:
12,168,82695,6,0,P|132:52|400:68,1,450,8|8,0:0|0:0,0:0:0:0:
440,96,84362,2,0,P|480:192|436:340,1,250,8|8,0:0|0:0,0:0:0:0:
344,320,85528,1,8,0:0:0:0:
332,272,85695,6,0,P|256:200|36:248,1,350,8|8,0:0|0:0,0:0:0:0:
40,300,87028,2,0,P|120:360|264:352,1,250,8|0,0:0|0:0,0:0:0:0:
460,284,88528,6,0,P|448:224|448:172,1,99.9999999999999,12|8,0:0|0:0,0:0:0:0:
448,136,89028,1,2,0:0:0:0:
420,92,89195,2,0,P|324:100|252:168,1,200,8|8,0:0|0:0,0:0:0:0:
224,268,90195,1,8,0:0:0:0:
132,304,90528,2,0,P|80:292|44:264,1,99.9999999999999,8|8,0:0|0:0,0:0:0:0:
16,168,91195,6,0,P|80:152|108:132,1,99.9999999999999,8|8,0:0|0:0,0:0:0:0:
128,88,91695,1,2,0:0:0:0:
160,48,91862,2,0,P|256:32|352:76,1,200,8|8,0:0|0:0,0:0:0:0:
356,172,92862,1,8,0:0:0:0:
268,224,93195,2,0,P|260:296|268:340,1,99.9999999999999,8|8,0:0|0:0,0:0:0:0:
356,364,93862,6,0,P|412:356|460:320,1,99.9999999999999,8|8,0:0|0:0,0:0:0:0:
476,292,94362,1,2,0:0:0:0:
492,244,94528,2,0,P|392:208|328:136,1,200,8|8,0:0|0:0,0:0:0:0:
300,44,95528,1,8,0:0:0:0:
200,64,95862,2,0,P|180:104|176:160,1,99.9999999999999,8|8,0:0|0:0,0:0:0:0:
244,232,96528,6,0,P|241:281|219:326,1,99.9999999999999,8|8,0:0|0:0,0:0:0:0:
172,344,97028,1,2,0:0:0:0:
124,356,97195,2,0,P|44:308|8:208,1,200,8|8,0:0|0:0,0:0:0:0:
28,112,98195,1,8,0:0:0:0:
108,52,98528,2,0,P|160:64|216:64,1,99.9999999999999,8|0,0:0|0:0,0:0:0:0:
300,28,99195,6,0,P|364:28|412:56,1,99.9999999999999,12|8,0:0|0:0,0:0:0:0:
440,68,99695,1,2,0:0:0:0:
464,112,99862,2,0,P|432:184|436:308,1,200,8|8,0:0|0:0,0:0:0:0:
348,360,100862,1,8,0:0:0:0:
252,328,101195,2,0,P|244:280|248:228,1,99.9999999999999,8|8,0:0|0:0,0:0:0:0:
320,160,101862,6,0,P|323:110|315:61,1,99.9999999999999,8|8,0:0|0:0,0:0:0:0:
272,36,102362,1,2,0:0:0:0:
224,20,102528,2,0,P|128:28|52:96,1,200,8|8,0:0|0:0,0:0:0:0:
16,192,103528,1,8,0:0:0:0:
48,288,103862,2,0,P|80:324|128:340,1,99.9999999999999,8|0,0:0|0:0,0:0:0:0:
228,324,104528,6,0,P|384:344|452:232,1,300,12|8,0:0|0:0,0:0:0:0:
448,188,105695,1,10,0:0:0:0:
404,160,105862,2,0,P|244:204|124:156,1,300,8|8,0:0|0:0,0:0:0:0:
120,56,107195,6,0,P|280:12|400:60,1,300,8|8,0:0|0:0,0:0:0:0:
432,100,108362,1,10,0:0:0:0:
448,148,108528,2,0,P|444:256|388:328,1,200,8|8,0:0|0:0,0:0:0:0:
344,348,109362,2,0,L|244:340,1,99.9999999999999,10|10,0:0|0:0,0:0:0:0:
204,308,109862,1,12,0:0:0:0:
