osu file format v14

[General]
AudioFilename: audio.mp3
AudioLeadIn: 0
PreviewTime: 87778
Countdown: 0
SampleSet: Normal
StackLeniency: 0.7
Mode: 0
LetterboxInBreaks: 0
WidescreenStoryboard: 1

[Editor]
DistanceSpacing: 2.4
BeatDivisor: 4
GridSize: 32
TimelineZoom: 4.400003

[Metadata]
Title:Verflucht
TitleUnicode:Verflucht
Artist:Tyrfing
ArtistUnicode:Tyrfing
Creator:Muya
Version:Another
Source:beatmania IIDX 21 SPADA
Tags:Hommarju HARD NRG fanzhen0019
BeatmapID:2045906
BeatmapSetID:965125

[Difficulty]
HPDrainRate:7
CircleSize:4
OverallDifficulty:9
ApproachRate:9.4
SliderMultiplier:1.8
SliderTickRate:1

[Events]
//Background and Video events
0,0,"leggendaria.jpg",0,0
//Break Periods
//Storyboard Layer 0 (Background)
//Storyboard Layer 1 (Fail)
//Storyboard Layer 2 (Pass)
//Storyboard Layer 3 (Foreground)
//Storyboard Layer 4 (Overlay)
//Storyboard Sound Samples

[TimingPoints]
529,333.333333333333,4,1,2,70,1,0
529,-66.6666666666667,4,1,2,70,0,0
570,-66.6666666666667,4,2,0,70,0,0
1028,-66.6666666666667,4,1,2,70,0,0
1069,-66.6666666666667,4,2,0,70,0,0
1070,-66.6666666666667,4,2,0,70,0,0
1528,-66.6666666666667,4,1,2,70,0,0
1569,-66.6666666666667,4,2,0,70,0,0
1570,-66.6666666666667,4,2,0,70,0,0
2028,-66.6666666666667,4,1,2,70,0,0
2069,-66.6666666666667,4,2,0,70,0,0
2070,-66.6666666666667,4,2,0,70,0,0
2362,-66.6666666666667,4,1,2,70,0,0
2403,-66.6666666666667,4,2,0,70,0,0
2695,-66.6666666666667,4,1,2,70,0,0
2862,-66.6666666666667,4,1,1,70,0,0
3195,-100,4,1,1,70,0,0
5195,-66.6666666666667,4,1,1,70,0,0
5862,-100,4,1,1,70,0,0
13528,-400,4,2,0,70,0,0
13862,-100,4,1,1,70,0,0
14528,-66.6666666666667,4,1,1,70,0,0
14778,-50,4,1,1,70,0,0
15195,-100,4,1,1,70,0,0
15862,-66.6666666666667,4,1,1,70,0,0
16112,-50,4,1,1,70,0,0
16528,-100,4,1,1,70,0,0
17195,-66.6666666666667,4,1,1,70,0,0
17445,-50,4,1,1,70,0,0
17862,-100,4,1,1,70,0,0
19862,-66.6666666666667,4,1,1,70,0,0
20112,-50,4,1,1,70,0,0
20528,-100,4,1,1,70,0,0
21195,-66.6666666666667,4,1,1,70,0,0
21445,-50,4,1,1,70,0,0
21862,-66.6666666666667,4,1,1,70,0,0
21903,-66.6666666666667,4,2,0,70,0,0
22028,-66.6666666666667,4,1,1,70,0,0
22069,-66.6666666666667,4,2,0,70,0,0
22070,-66.6666666666667,4,2,0,70,0,0
22195,-66.6666666666667,4,1,1,70,0,0
22236,-66.6666666666667,4,2,0,70,0,0
22237,-66.6666666666667,4,2,0,70,0,0
22362,-66.6666666666667,4,1,1,70,0,0
22403,-66.6666666666667,4,2,0,70,0,0
22528,-66.6666666666667,4,1,1,70,0,0
22569,-66.6666666666667,4,2,0,70,0,0
22570,-66.6666666666667,4,2,0,70,0,0
22695,-66.6666666666667,4,1,1,70,0,0
22736,-66.6666666666667,4,2,0,70,0,0
22737,-66.6666666666667,4,2,0,70,0,0
22862,-66.6666666666667,4,1,1,70,0,0
22903,-66.6666666666667,4,2,0,70,0,0
23028,-66.6666666666667,4,1,1,70,0,0
23069,-66.6666666666667,4,2,0,70,0,0
23070,-66.6666666666667,4,2,0,70,0,0
23195,-100,4,1,1,70,0,0
24612,-100,4,1,0,50,0,0
34528,-66.6666666666667,4,2,0,70,0,0
35195,-100,4,1,1,70,0,0
44945,-66.6666666666667,4,1,1,70,0,0
45195,-50,4,1,1,70,0,0
45528,-400,4,1,1,70,0,0
45778,-400,4,2,0,70,0,0
45862,-100,4,1,1,70,0,0
55528,-66.6666666666667,4,1,1,70,0,0
55778,-50,4,1,1,70,0,0
56195,-400,4,1,1,70,0,0
56278,-400,4,2,0,70,0,0
56362,-400,4,1,1,70,0,0
56445,-400,4,2,0,70,0,0
56528,-100,4,1,1,70,0,0
64528,-66.6666666666667,4,1,1,70,0,0
64569,-66.6666666666667,4,2,0,70,0,0
64570,-66.6666666666667,4,2,0,70,0,0
64695,-66.6666666666667,4,1,1,70,0,0
64736,-66.6666666666667,4,2,0,70,0,0
64737,-66.6666666666667,4,2,0,70,0,0
64862,-66.6666666666667,4,1,1,70,0,0
64903,-66.6666666666667,4,2,0,70,0,0
65028,-66.6666666666667,4,1,1,70,0,0
65070,-66.6666666666667,4,2,0,70,0,0
65195,-100,4,1,1,70,0,0
66278,-80,4,1,1,70,0,0
66528,-66.6666666666667,4,1,1,70,0,0
66778,-57.1428571428571,4,1,1,70,0,0
67028,-50,4,1,1,70,0,0
67195,-100,4,1,1,70,0,0
67278,-100,4,2,0,70,0,0
77862,-100,4,1,1,70,0,0
98862,-400,4,1,1,70,0,0
98945,-400,4,2,0,70,0,0
99028,-400,4,1,1,70,0,0
99112,-400,4,2,0,70,0,0
99195,-100,4,1,1,70,0,0
104195,-100,4,1,0,70,0,0
104528,-100,4,1,1,70,0,0

[Colours]
Combo1 : 255,128,192
Combo2 : 255,0,128
Combo3 : 255,0,255

[HitObjects]
280,320,529,6,0,L|284:384,1,33.7500012874604,12|0,0:0|2:2,0:0:0:0:
264,256,1028,2,0,L|268:320,1,33.7500012874604,12|0,0:0|2:2,0:0:0:0:
248,192,1528,2,0,L|252:256,1,33.7500012874604,12|0,0:0|2:2,0:0:0:0:
232,128,2028,2,0,L|236:192,1,33.7500012874604,12|0,0:0|2:2,0:0:0:0:
216,64,2362,2,0,L|220:128,1,33.7500012874604,12|0,0:0|2:2,0:0:0:0:
192,352,2695,5,12,0:0:0:0:
288,32,2862,1,12,0:0:0:0:
0,88,3195,6,0,L|4:136,1,45,12|0,0:0|0:0,0:0:0:0:
72,180,3362,1,2,0:0:0:0:
72,180,3445,1,0,0:0:0:0:
72,180,3528,2,0,L|76:132,1,45,8|0,0:0|0:0,0:0:0:0:
136,92,3695,1,2,0:0:0:0:
152,88,3778,1,0,0:0:0:0:
168,84,3862,1,8,0:0:0:0:
116,236,4028,1,2,0:0:0:0:
41,31,4195,1,8,0:0:0:0:
256,68,4362,5,2,0:0:0:0:
256,68,4445,1,0,0:0:0:0:
256,68,4528,1,8,0:0:0:0:
416,224,4695,1,2,0:0:0:0:
96,192,4862,1,8,0:0:0:0:
96,192,4945,1,0,0:0:0:0:
96,192,5028,1,2,0:0:0:0:
96,192,5112,1,0,0:0:0:0:
96,192,5195,6,0,L|104:272,1,67.5000025749208,8|0,0:0|0:0,0:0:0:0:
176,384,5362,2,0,L|184:304,1,67.5000025749208,2|0,0:0|0:0,0:0:0:0:
264,232,5528,1,8,0:0:0:0:
264,232,5612,1,0,0:0:0:0:
264,232,5695,1,2,0:0:0:0:
452,40,5862,6,0,L|448:112,1,45,8|0,0:0|0:0,0:0:0:0:
376,140,6028,2,0,L|380:212,1,45,2|0,0:0|0:0,0:0:0:0:
452,240,6195,1,8,0:0:0:0:
416,268,6278,1,0,0:0:0:0:
372,272,6362,1,2,0:0:0:0:
328,256,6445,1,0,0:0:0:0:
300,220,6528,1,8,0:0:0:0:
372,16,6695,1,2,0:0:0:0:
372,16,6778,1,0,0:0:0:0:
372,16,6862,1,8,0:0:0:0:
512,180,7029,1,2,0:0:0:0:
440,384,7195,5,8,0:0:0:0:
424,380,7278,1,0,0:0:0:0:
408,376,7362,1,2,0:0:0:0:
372,292,7528,1,8,0:0:0:0:
272,160,7695,1,2,0:0:0:0:
256,164,7778,1,0,0:0:0:0:
240,168,7862,1,8,0:0:0:0:
204,252,8028,1,2,0:0:0:0:
104,384,8195,1,8,0:0:0:0:
88,380,8278,1,0,0:0:0:0:
72,376,8362,1,2,0:0:0:0:
36,292,8528,5,8,0:0:0:0:
40,276,8612,1,0,0:0:0:0:
44,260,8695,1,2,0:0:0:0:
112,200,8862,1,8,0:0:0:0:
28,172,9028,1,2,0:0:0:0:
96,112,9195,1,8,0:0:0:0:
12,84,9362,1,2,0:0:0:0:
80,24,9529,1,8,0:0:0:0:
272,68,9695,5,2,0:0:0:0:
268,84,9778,1,0,0:0:0:0:
264,100,9862,1,8,0:0:0:0:
260,116,9945,1,0,0:0:0:0:
256,132,10028,1,2,0:0:0:0:
288,216,10195,1,8,0:0:0:0:
200,200,10362,1,2,0:0:0:0:
144,268,10529,1,8,0:0:0:0:
232,284,10695,1,2,0:0:0:0:
320,300,10862,1,8,0:0:0:0:
324,316,10945,1,0,0:0:0:0:
328,332,11028,1,2,0:0:0:0:
464,384,11195,5,8,0:0:0:0:
468,368,11278,1,0,0:0:0:0:
472,352,11361,1,2,0:0:0:0:
416,280,11528,1,8,0:0:0:0:
472,208,11695,1,2,0:0:0:0:
468,192,11778,1,0,0:0:0:0:
464,176,11862,1,8,0:0:0:0:
408,104,12029,1,2,0:0:0:0:
412,88,12112,1,0,0:0:0:0:
416,72,12195,1,8,0:0:0:0:
472,0,12362,1,2,0:0:0:0:
224,32,12528,5,8,0:0:0:0:
288,352,12695,1,10,0:0:0:0:
480,160,12862,1,8,0:0:0:0:
32,224,13029,1,10,0:0:0:0:
264,88,13195,1,8,0:0:0:0:
260,140,13278,1,8,0:0:0:0:
256,192,13362,1,10,0:0:0:0:
252,244,13445,1,8,0:0:0:0:
248,296,13528,6,0,L|232:300,1,11.25,0|0,0:0|0:0,0:0:0:0:
184,348,13695,2,0,L|168:352,1,11.25,0|0,0:0|0:0,0:0:0:0:
104,328,13862,6,0,P|88:272|96:224,1,90,8|2,0:0|0:0,0:0:0:0:
52,180,14112,1,0,0:0:0:0:
64,168,14195,1,8,0:0:0:0:
76,156,14278,2,0,L|168:152,1,90,0|0,0:0|0:0,0:0:0:0:
292,80,14528,6,0,B|316:52|316:52|312:156,1,135.000005149842,8|2,0:0|0:0,0:0:0:0:
272,292,14778,2,0,B|240:330|240:330|245:191,1,180,0|0,0:0|0:0,0:0:0:0:
388,108,15028,1,2,0:0:0:0:
512,224,15195,6,0,P|513:268|498:310,1,90,8|2,0:0|0:0,0:0:0:0:
432,344,15445,1,0,0:0:0:0:
416,340,15528,1,8,0:0:0:0:
400,336,15612,2,0,L|304:321,1,90,0|0,0:0|0:0,0:0:0:0:
148,308,15862,6,0,B|156:376|156:376|216:344,1,135.000005149842,8|2,0:0|0:0,0:0:0:0:
304,212,16112,2,0,B|293:121|293:121|213:164,1,180,0|0,0:0|0:0,0:0:0:0:
224,256,16362,1,2,0:0:0:0:
68,204,16528,6,0,P|60:156|76:108,1,90,8|2,0:0|0:0,0:0:0:0:
36,52,16778,1,0,0:0:0:0:
48,40,16862,1,8,0:0:0:0:
60,28,16945,2,0,L|156:36,1,90,0|0,0:0|0:0,0:0:0:0:
296,208,17195,6,0,B|268:228|268:228|260:128,1,135.000005149842,8|2,0:0|0:0,0:0:0:0:
240,260,17445,2,0,B|202:286|202:286|192:153,1,180,0|0,0:0|0:0,0:0:0:0:
352,156,17695,1,2,0:0:0:0:
480,200,17862,6,0,P|492:152|484:104,1,90,8|2,0:0|0:0,0:0:0:0:
444,52,18112,1,0,0:0:0:0:
444,52,18195,1,8,0:0:0:0:
428,48,18278,1,0,0:0:0:0:
412,44,18362,1,2,0:0:0:0:
396,40,18445,1,0,0:0:0:0:
380,36,18528,2,0,L|284:40,1,90,8|2,0:0|0:0,0:0:0:0:
252,80,18778,1,0,0:0:0:0:
236,132,18862,1,8,0:0:0:0:
240,184,18945,1,0,0:0:0:0:
264,232,19028,1,2,0:0:0:0:
360,360,19195,6,0,P|404:364|448:348,1,90,8|2,0:0|0:0,0:0:0:0:
488,288,19445,1,0,0:0:0:0:
492,272,19528,1,8,0:0:0:0:
496,256,19612,2,0,L|484:164,1,90,0|0,0:0|0:0,0:0:0:0:
332,240,19862,6,0,B|320:272|320:272|308:168,1,135.000005149842,8|2,0:0|0:0,0:0:0:0:
430,86,20112,2,0,B|414:43|414:43|398:181,1,180,0|0,0:0|0:0,0:0:0:0:
256,356,20362,1,2,0:0:0:0:
180,224,20528,6,0,P|136:228|96:208,1,90,8|2,0:0|0:0,0:0:0:0:
32,240,20778,1,0,0:0:0:0:
20,228,20862,1,8,0:0:0:0:
8,216,20945,2,0,L|16:124,1,90,0|0,0:0|0:0,0:0:0:0:
148,40,21195,6,0,B|211:59|211:59|163:107,1,135.000005149842,8|2,0:0|0:0,0:0:0:0:
344,160,21445,2,0,B|258:132|258:132|321:68,1,180,0|0,0:0|0:0,0:0:0:0:
400,96,21695,1,2,0:0:0:0:
56,312,21862,6,0,L|60:348,1,33.7500012874604,8|0,0:0|0:0,0:0:0:0:
136,280,22028,2,0,L|140:316,1,33.7500012874604,10|0,0:0|0:0,0:0:0:0:
216,248,22195,2,0,L|220:284,1,33.7500012874604,8|0,0:0|0:0,0:0:0:0:
296,216,22362,2,0,L|300:252,1,33.7500012874604,10|0,0:0|0:0,0:0:0:0:
216,168,22528,2,0,L|212:132,1,33.7500012874604,8|0,0:0|0:0,0:0:0:0:
296,136,22695,2,0,L|292:100,1,33.7500012874604,10|0,0:0|0:0,0:0:0:0:
376,104,22862,2,0,L|372:68,1,33.7500012874604,8|0,0:0|0:0,0:0:0:0:
456,72,23028,2,0,L|452:36,1,33.7500012874604,10|0,0:0|0:0,0:0:0:0:
512,308,23195,5,8,0:0:0:0:
484,272,23278,1,8,0:0:0:0:
444,256,23362,1,10,0:0:0:0:
400,260,23445,1,8,0:0:0:0:
364,288,23528,1,8,0:0:0:0:
336,324,23611,1,8,0:0:0:0:
296,340,23695,1,10,0:0:0:0:
252,336,23778,1,8,0:0:0:0:
216,308,23862,2,0,L|212:260,3,45,8|8|10|8,0:0|0:0|0:0|0:0,0:0:0:0:
168,204,24195,1,8,0:0:0:0:
128,240,24278,1,8,0:0:0:0:
72,244,24362,1,10,0:0:0:0:
24,220,24445,1,8,0:0:0:0:
8,168,24528,5,12,0:0:0:0:
96,148,24695,1,0,0:0:0:0:
36,80,24862,1,0,0:0:0:0:
124,60,25028,1,0,0:0:0:0:
184,128,25195,1,0,0:0:0:0:
272,108,25362,1,0,0:0:0:0:
212,40,25529,1,0,0:0:0:0:
300,20,25695,1,0,0:0:0:0:
432,40,25862,6,0,P|440:92|432:132,1,90,0|0,0:0|0:0,0:0:0:0:
340,340,26195,1,0,0:0:0:0:
360,88,26362,1,0,0:0:0:0:
480,200,26528,6,2,B|448:232|448:232|384:224|384:224|352:184|352:184|288:176|288:176|256:208,1,270,2|0,0:0|0:0,0:0:0:0:
48,144,27195,6,0,L|56:256,1,90,0|0,0:0|0:0,0:0:0:0:
28,320,27528,1,0,0:0:0:0:
180,380,27695,1,0,0:0:0:0:
252,140,27862,2,0,P|210:124|165:128,1,90,0|0,0:0|0:0,0:0:0:0:
192,288,28195,1,0,0:0:0:0:
95,68,28362,2,0,P|131:42|175:35,1,90,0|0,0:0|0:0,0:0:0:0:
500,16,28695,5,0,0:0:0:0:
356,88,28862,2,0,B|344:132|344:132|360:176,1,90,0|0,0:0|0:0,0:0:0:0:
256,364,29195,2,0,B|268:320|268:320|252:276,1,90,0|0,0:0|0:0,0:0:0:0:
72,188,29528,1,0,0:0:0:0:
448,124,29695,1,0,0:0:0:0:
468,344,29862,5,0,0:0:0:0:
504,260,30028,1,0,0:0:0:0:
416,272,30195,1,0,0:0:0:0:
328,284,30362,1,0,0:0:0:0:
380,356,30528,1,0,0:0:0:0:
292,368,30695,1,0,0:0:0:0:
204,380,30862,1,0,0:0:0:0:
240,296,31028,1,0,0:0:0:0:
84,252,31195,6,0,P|70:209|76:165,1,90,0|0,0:0|0:0,0:0:0:0:
188,48,31528,1,0,0:0:0:0:
152,308,31695,1,0,0:0:0:0:
20,112,31862,6,2,B|52:80|52:80|116:88|116:88|148:128|148:128|212:136|212:136|244:104,1,270,2|0,0:0|0:0,0:0:0:0:
436,44,32528,6,0,L|444:148,1,90,0|0,0:0|0:0,0:0:0:0:
512,192,32862,1,0,0:0:0:0:
460,344,33028,1,0,0:0:0:0:
256,280,33195,2,0,P|248:236|260:192,1,90,0|0,0:0|0:0,0:0:0:0:
416,244,33528,1,0,0:0:0:0:
216,112,33695,2,0,P|184:143|169:185,1,90,0|0,0:0|0:0,0:0:0:0:
108,336,34028,5,0,0:0:0:0:
24,60,34195,2,0,L|128:68,1,90,0|0,0:0|0:0,0:0:0:0:
472,192,34528,6,0,B|408:240|472:272|536:240|552:192|536:144|472:112|408:144|392:192|408:240|472:192|508:280|480:360|404:384|344:364,1,472.500018024445,2|0,0:0|0:0,0:0:0:0:
292,328,35195,6,0,L|220:336,3,45,12|8|8|8,0:0|0:0|0:0|0:0,0:0:0:0:
180,364,35528,1,8,0:0:0:0:
160,324,35612,1,8,0:0:0:0:
164,280,35695,1,8,0:0:0:0:
192,244,35778,1,8,0:0:0:0:
236,232,35862,1,8,0:0:0:0:
280,240,35945,1,8,0:0:0:0:
324,228,36029,1,8,0:0:0:0:
352,192,36112,1,8,0:0:0:0:
352,148,36195,1,8,0:0:0:0:
228,44,36362,5,8,0:0:0:0:
212,48,36445,1,8,0:0:0:0:
196,52,36528,2,0,L|152:44,3,45,8|8|8|8,0:0|0:0|0:0|0:0,0:0:0:0:
80,24,36862,1,8,0:0:0:0:
80,68,36945,1,8,0:0:0:0:
68,112,37028,1,8,0:0:0:0:
40,148,37112,1,8,0:0:0:0:
8,176,37195,1,8,0:0:0:0:
8,176,37528,1,8,0:0:0:0:
120,344,37695,5,8,0:0:0:0:
136,340,37778,1,8,0:0:0:0:
152,336,37862,2,0,L|160:292,3,45,8|8|8|8,0:0|0:0|0:0|0:0,0:0:0:0:
152,220,38195,1,8,0:0:0:0:
176,192,38278,1,8,0:0:0:0:
212,180,38362,1,8,0:0:0:0:
248,184,38445,1,8,0:0:0:0:
276,208,38528,1,8,0:0:0:0:
300,236,38611,1,8,0:0:0:0:
336,248,38695,1,8,0:0:0:0:
372,244,38778,1,8,0:0:0:0:
400,220,38861,1,8,0:0:0:0:
356,8,39028,5,8,0:0:0:0:
344,20,39112,1,8,0:0:0:0:
332,32,39195,2,0,L|336:80,3,45,8|8|8|8,0:0|0:0|0:0|0:0,0:0:0:0:
384,132,39528,1,8,0:0:0:0:
416,148,39612,1,8,0:0:0:0:
452,152,39695,1,8,0:0:0:0:
484,140,39778,1,8,0:0:0:0:
512,116,39862,1,8,0:0:0:0:
376,284,40028,5,8,0:0:0:0:
364,272,40112,1,8,0:0:0:0:
352,260,40195,2,0,L|356:216,3,45,8|8|8|8,0:0|0:0|0:0|0:0,0:0:0:0:
288,176,40528,6,0,L|284:132,3,45,8|8|8|8,0:0|0:0|0:0|0:0,0:0:0:0:
256,64,40862,1,8,0:0:0:0:
216,40,40946,1,8,0:0:0:0:
172,44,41029,1,8,0:0:0:0:
136,72,41112,1,8,0:0:0:0:
128,116,41195,1,8,0:0:0:0:
148,156,41278,1,8,0:0:0:0:
188,180,41362,1,8,0:0:0:0:
208,220,41445,1,8,0:0:0:0:
204,264,41528,1,8,0:0:0:0:
84,376,41695,5,8,0:0:0:0:
72,364,41779,1,8,0:0:0:0:
60,352,41862,2,0,L|64:308,3,45,8|8|8|8,0:0|0:0|0:0|0:0,0:0:0:0:
2,270,42195,1,8,0:0:0:0:
30,234,42278,1,8,0:0:0:0:
74,226,42362,1,8,0:0:0:0:
114,246,42445,1,8,0:0:0:0:
138,290,42528,1,8,0:0:0:0:
138,290,42862,1,8,0:0:0:0:
348,244,43028,5,8,0:0:0:0:
360,232,43112,1,8,0:0:0:0:
372,220,43195,2,0,L|368:176,3,45,8|8|8|8,0:0|0:0|0:0|0:0,0:0:0:0:
388,104,43528,1,8,0:0:0:0:
360,80,43611,1,8,0:0:0:0:
328,68,43694,1,8,0:0:0:0:
292,72,43778,1,8,0:0:0:0:
260,92,43862,1,8,0:0:0:0:
232,116,43945,1,8,0:0:0:0:
200,128,44028,1,8,0:0:0:0:
164,124,44112,1,8,0:0:0:0:
132,104,44196,1,8,0:0:0:0:
8,280,44362,5,8,0:0:0:0:
36,256,44445,1,8,0:0:0:0:
72,248,44528,1,8,0:0:0:0:
108,252,44612,1,8,0:0:0:0:
140,268,44695,2,8,L|144:312,1,45,8|8,0:0|0:0,0:0:0:0:
256,372,44862,5,8,0:0:0:0:
317,343,44945,2,8,L|326:246,1,67.5000025749208,8|8,0:0|0:0,0:0:0:0:
420,112,45112,5,8,0:0:0:0:
504,148,45195,2,8,L|512:240,1,90,12|0,0:0|0:0,0:0:0:0:
460,312,45362,1,0,0:0:0:0:
444,316,45445,1,0,0:0:0:0:
428,320,45528,6,0,L|392:316,1,33.75,0|0,0:0|0:0,0:0:0:0:
324,276,45862,5,12,0:0:0:0:
296,272,45945,1,0,0:0:0:0:
268,276,46028,1,2,0:0:0:0:
244,288,46112,1,0,0:0:0:0:
224,304,46195,1,8,0:0:0:0:
208,324,46278,1,0,0:0:0:0:
196,348,46362,2,0,L|152:344,1,45,2|0,0:0|0:0,0:0:0:0:
96,296,46528,5,8,0:0:0:0:
76,264,46612,1,0,0:0:0:0:
72,228,46695,1,2,0:0:0:0:
80,192,46778,1,0,0:0:0:0:
100,164,46862,2,0,L|144:160,3,45,8|0|2|0,0:0|0:0|0:0|0:0,0:0:0:0:
208,124,47195,5,8,0:0:0:0:
220,148,47278,1,0,0:0:0:0:
240,168,47362,1,2,0:0:0:0:
264,180,47445,1,0,0:0:0:0:
292,184,47528,1,8,0:0:0:0:
320,180,47612,1,0,0:0:0:0:
344,168,47695,2,0,L|388:164,1,45,2|0,0:0|0:0,0:0:0:0:
460,180,47862,5,8,0:0:0:0:
476,148,47945,1,0,0:0:0:0:
484,112,48028,1,2,0:0:0:0:
480,76,48112,1,0,0:0:0:0:
468,44,48195,1,8,0:0:0:0:
436,76,48278,1,0,0:0:0:0:
392,88,48362,1,2,0:0:0:0:
348,84,48445,1,0,0:0:0:0:
312,60,48528,5,8,0:0:0:0:
288,72,48611,1,0,0:0:0:0:
264,80,48694,1,2,0:0:0:0:
236,84,48778,1,0,0:0:0:0:
208,80,48861,1,8,0:0:0:0:
184,68,48944,1,0,0:0:0:0:
164,48,49028,2,0,L|160:112,1,45,2|0,0:0|0:0,0:0:0:0:
128,156,49194,5,8,0:0:0:0:
160,172,49278,1,0,0:0:0:0:
180,200,49361,1,2,0:0:0:0:
184,236,49444,1,0,0:0:0:0:
170,270,49528,2,0,L|172:328,3,45,8|0|2|0,0:0|0:0|0:0|0:0,0:0:0:0:
236,348,49861,5,8,0:0:0:0:
260,336,49944,1,0,0:0:0:0:
280,316,50028,1,2,0:0:0:0:
292,292,50111,1,0,0:0:0:0:
292,264,50194,1,8,0:0:0:0:
284,236,50278,1,0,0:0:0:0:
264,216,50362,2,0,L|268:152,1,45,2|0,0:0|0:0,0:0:0:0:
252,100,50528,5,8,0:0:0:0:
212,120,50611,1,0,0:0:0:0:
168,124,50694,1,2,0:0:0:0:
128,104,50778,1,0,0:0:0:0:
104,68,50861,1,8,0:0:0:0:
112,112,50944,1,0,0:0:0:0:
96,156,51028,1,2,0:0:0:0:
64,188,51111,1,0,0:0:0:0:
20,204,51195,5,8,0:0:0:0:
44,192,51278,1,0,0:0:0:0:
72,188,51361,1,2,0:0:0:0:
100,192,51445,1,0,0:0:0:0:
124,204,51528,1,8,0:0:0:0:
140,224,51611,1,0,0:0:0:0:
152,248,51695,2,0,L|148:296,1,45,2|0,0:0|0:0,0:0:0:0:
192,352,51862,5,8,0:0:0:0:
224,372,51945,1,0,0:0:0:0:
260,376,52028,1,2,0:0:0:0:
292,360,52111,1,0,0:0:0:0:
316,332,52195,2,0,L|320:284,3,45,8|0|2|0,0:0|0:0|0:0|0:0,0:0:0:0:
348,220,52528,5,8,0:0:0:0:
368,200,52611,1,0,0:0:0:0:
392,188,52695,1,2,0:0:0:0:
420,184,52778,1,0,0:0:0:0:
448,188,52861,1,8,0:0:0:0:
472,200,52945,1,0,0:0:0:0:
492,220,53028,2,0,L|492:264,1,45,2|0,0:0|0:0,0:0:0:0:
452,324,53195,5,8,0:0:0:0:
420,308,53278,1,0,0:0:0:0:
384,312,53361,1,2,0:0:0:0:
352,332,53445,1,0,0:0:0:0:
336,364,53528,1,8,0:0:0:0:
304,332,53611,1,0,0:0:0:0:
296,288,53695,1,2,0:0:0:0:
308,244,53778,1,0,0:0:0:0:
340,212,53861,5,8,0:0:0:0:
356,192,53945,1,0,0:0:0:0:
368,168,54028,1,2,0:0:0:0:
372,140,54111,1,0,0:0:0:0:
368,112,54195,1,8,0:0:0:0:
356,88,54278,1,0,0:0:0:0:
336,68,54362,2,0,L|272:64,1,45,2|0,0:0|0:0,0:0:0:0:
228,32,54528,5,8,0:0:0:0:
196,48,54612,1,0,0:0:0:0:
160,56,54695,1,2,0:0:0:0:
124,56,54778,1,0,0:0:0:0:
88,44,54862,2,0,L|84:-4,3,45,8|0|2|0,0:0|0:0|0:0|0:0,0:0:0:0:
40,100,55195,6,0,L|44:148,1,45,8|0,0:0|0:0,0:0:0:0:
96,196,55362,2,0,L|100:244,1,45,10|0,0:0|0:0,0:0:0:0:
228,284,55528,5,8,0:0:0:0:
281,232,55612,2,0,L|287:160,1,67.5000025749208,0|10,0:0|0:0,0:0:0:0:
419,88,55778,5,0,0:0:0:0:
472,140,55862,2,8,L|482:257,1,90
406,364,56028,1,8,0:0:0:0:
337,384,56112,1,8,0:0:0:0:
270,356,56195,6,0,L|258:352,1,11.25,0|0,0:0|0:0,0:0:0:0:
190,372,56362,2,0,L|178:368,1,11.25,0|0,0:0|0:0,0:0:0:0:
112,340,56528,5,12,0:0:0:0:
84,316,56612,1,0,0:0:0:0:
68,284,56695,1,2,0:0:0:0:
68,248,56778,1,0,0:0:0:0:
80,212,56862,1,8,0:0:0:0:
108,188,56945,1,0,0:0:0:0:
144,180,57028,2,0,L|188:184,1,45,2|0,0:0|0:0,0:0:0:0:
260,224,57195,5,8,0:0:0:0:
300,200,57278,1,0,0:0:0:0:
316,156,57361,1,2,0:0:0:0:
304,112,57445,1,0,0:0:0:0:
272,80,57528,2,0,L|228:76,3,45,8|0|2|0,0:0|0:0|0:0|0:0,0:0:0:0:
156,36,57862,5,8,0:0:0:0:
120,32,57945,1,0,0:0:0:0:
88,48,58028,1,2,0:0:0:0:
64,76,58112,1,0,0:0:0:0:
56,112,58195,1,8,0:0:0:0:
64,148,58278,1,0,0:0:0:0:
88,176,58362,2,0,L|96:224,1,45,2|0,0:0|0:0,0:0:0:0:
128,296,58528,5,8,0:0:0:0:
168,272,58612,1,0,0:0:0:0:
212,264,58695,1,2,0:0:0:0:
256,276,58778,1,0,0:0:0:0:
292,304,58862,1,8,0:0:0:0:
328,344,58946,1,0,0:0:0:0:
380,356,59029,1,2,0:0:0:0:
432,340,59112,1,0,0:0:0:0:
460,292,59195,5,8,0:0:0:0:
468,256,59277,1,0,0:0:0:0:
460,220,59361,1,2,0:0:0:0:
436,192,59444,1,0,0:0:0:0:
404,176,59527,1,8,0:0:0:0:
368,180,59612,1,0,0:0:0:0:
336,196,59695,2,0,L|304:248,1,45,2|0,0:0|0:0,0:0:0:0:
292,304,59862,1,8,0:0:0:0:
260,336,59945,1,0,0:0:0:0:
216,348,60028,1,2,0:0:0:0:
172,340,60113,1,0,0:0:0:0:
136,312,60196,2,0,L|104:260,3,45,8|0|2|0,0:0|0:0|0:0|0:0,0:0:0:0:
64,220,60528,5,8,0:0:0:0:
96,204,60612,1,0,0:0:0:0:
124,180,60695,1,2,0:0:0:0:
144,148,60779,1,0,0:0:0:0:
152,112,60862,1,8,0:0:0:0:
148,76,60945,1,0,0:0:0:0:
132,44,61028,2,0,L|176:36,1,45,2|0,0:0|0:0,0:0:0:0:
240,0,61195,5,8,0:0:0:0:
260,52,61278,1,0,0:0:0:0:
304,84,61362,1,2,0:0:0:0:
356,92,61445,1,0,0:0:0:0:
408,76,61528,1,8,0:0:0:0:
360,104,61612,1,0,0:0:0:0:
336,152,61695,1,2,0:0:0:0:
340,204,61778,1,0,0:0:0:0:
372,248,61862,5,8,0:0:0:0:
404,264,61945,1,0,0:0:0:0:
440,264,62028,1,2,0:0:0:0:
472,248,62112,1,0,0:0:0:0:
492,216,62195,1,8,0:0:0:0:
496,180,62278,1,0,0:0:0:0:
484,144,62362,2,0,L|480:100,1,45,2|0,0:0|0:0,0:0:0:0:
440,28,62528,5,8,0:0:0:0:
400,4,62612,1,0,0:0:0:0:
356,0,62695,1,2,0:0:0:0:
316,20,62778,1,0,0:0:0:0:
292,60,62862,2,0,L|288:104,3,45,8|0|2|0,0:0|0:0|0:0|0:0,0:0:0:0:
228,160,63195,1,8,0:0:0:0:
212,192,63278,1,0,0:0:0:0:
188,220,63362,1,2,0:0:0:0:
156,236,63445,1,0,0:0:0:0:
120,244,63528,1,8,0:0:0:0:
84,240,63612,1,0,0:0:0:0:
52,224,63695,2,0,L|48:180,1,45,2|0,0:0|0:0,0:0:0:0:
84,104,63862,5,8,0:0:0:0:
112,68,63945,1,0,0:0:0:0:
152,52,64028,1,2,0:0:0:0:
196,56,64112,1,0,0:0:0:0:
232,84,64195,1,8,0:0:0:0:
268,124,64278,1,0,0:0:0:0:
320,136,64362,1,2,0:0:0:0:
372,120,64445,1,0,0:0:0:0:
400,76,64528,6,0,L|404:40,1,33.7500012874604,8|0,0:0|0:0,0:0:0:0:
508,264,64695,2,0,L|512:228,1,33.7500012874604,10|0,0:0|0:0,0:0:0:0:
268,356,64862,2,0,L|272:320,1,33.7500012874604,8|0,0:0|0:0,0:0:0:0:
160,168,65029,2,0,L|164:132,1,33.7500012874604,10|0,0:0|0:0,0:0:0:0:
203,275,65195,5,8,0:0:0:0:
243,251,65278,1,8,0:0:0:0:
287,247,65362,1,10,0:0:0:0:
327,263,65445,1,8,0:0:0:0:
355,299,65528,1,8,0:0:0:0:
395,323,65611,1,8,0:0:0:0:
439,327,65695,1,10,0:0:0:0:
479,311,65778,1,8,0:0:0:0:
507,275,65862,6,8,L|511:231,1,45,8|8,0:0|0:0,0:0:0:0:
487,163,66028,2,8,L|491:119,1,45,8|8,0:0|0:0,0:0:0:0:
439,219,66195,5,8,0:0:0:0:
414,152,66278,2,8,L|421:75,1,56.25,8|8,0:0|0:0,0:0:0:0:
366,208,66445,5,8,0:0:0:0:
341,141,66528,2,8,L|350:37,1,67.5000025749208,8|8,0:0|0:0,0:0:0:0:
293,197,66695,5,8,0:0:0:0:
268,130,66778,2,8,L|277:26,1,78.7500007510185,8|8,0:0|0:0,0:0:0:0:
220,186,66945,5,8,0:0:0:0:
195,119,67028,2,8,L|204:15,1,90,8|8,0:0|0:0,0:0:0:0:
128,8,67195,5,12,0:0:0:0:
112,12,67278,2,0,P|88:56|100:116,1,90,2|0,0:0|0:0,0:0:0:0:
212,268,67695,1,2,0:0:0:0:
156,336,67862,1,2,0:0:0:0:
140,344,67945,2,0,P|96:348|56:328,1,90,0|2,0:0|0:0,0:0:0:0:
52,312,68195,1,0,0:0:0:0:
136,156,68362,6,0,L|228:160,1,90,2|0,0:0|0:0,0:0:0:0:
296,140,68611,2,0,P|304:184|292:232,1,90,0|0,0:0|0:0,0:0:0:0:
280,240,68862,1,2,0:0:0:0:
404,360,69028,1,2,0:0:0:0:
404,360,69112,1,0,0:0:0:0:
404,360,69195,2,0,P|396:316|408:268,1,90,2|0,0:0|0:0,0:0:0:0:
460,224,69445,2,0,L|464:132,1,90,2|0,0:0|0:0,0:0:0:0:
460,116,69695,1,2,0:0:0:0:
340,4,69862,5,0,0:0:0:0:
328,16,69945,2,0,P|284:32|228:16,1,90,2|0,0:0|0:0,0:0:0:0:
104,192,70362,1,2,0:0:0:0:
140,276,70528,1,2,0:0:0:0:
152,288,70611,2,0,P|196:304|252:288,1,90,0|2,0:0|0:0,0:0:0:0:
300,256,70862,2,0,L|304:164,1,90,0|2,0:0|0:0,0:0:0:0:
468,24,71195,5,0,0:0:0:0:
480,36,71278,2,0,L|476:128,1,90,2|0,0:0|0:0,0:0:0:0:
404,208,71528,2,0,L|402:162,1,45,2|0,0:0|0:0,0:0:0:0:
392,196,71695,2,0,L|390:150,1,45,2|0,0:0|0:0,0:0:0:0:
348,52,71862,2,0,L|256:56,1,90,2|0,0:0|0:0,0:0:0:0:
192,24,72112,2,0,P|180:68|188:116,1,90,2|0,0:0|0:0,0:0:0:0:
196,128,72362,1,2,0:0:0:0:
272,352,72528,5,0,0:0:0:0:
288,348,72611,2,0,P|304:304|292:248,1,90,2|2,0:0|0:0,0:0:0:0:
428,88,73028,1,2,0:0:0:0:
496,144,73195,1,2,0:0:0:0:
504,160,73278,2,0,P|508:204|488:244,1,90,0|2,0:0|0:0,0:0:0:0:
472,248,73528,1,0,0:0:0:0:
272,168,73695,6,0,L|180:172,1,90,2|0,0:0|0:0,0:0:0:0:
120,132,73945,2,0,P|116:88|136:48,1,90,0|0,0:0|0:0,0:0:0:0:
152,44,74195,1,2,0:0:0:0:
48,216,74361,1,0,0:0:0:0:
48,216,74445,1,0,0:0:0:0:
48,216,74528,2,0,P|52:260|32:300,1,90,2|0,0:0|0:0,0:0:0:0:
76,360,74778,2,0,L|168:356,1,90,2|0,0:0|0:0,0:0:0:0:
176,340,75028,1,2,0:0:0:0:
252,136,75195,5,0,0:0:0:0:
264,124,75278,2,0,P|320:120|356:140,1,90,2|0,0:0|0:0,0:0:0:0:
288,344,75695,1,2,0:0:0:0:
464,220,75862,5,2,0:0:0:0:
480,212,75945,2,0,P|500:172|500:128,1,90,0|2,0:0|0:0,0:0:0:0:
472,60,76195,2,0,L|376:52,1,90,0|2,0:0|0:0,0:0:0:0:
216,192,76528,5,0,0:0:0:0:
228,204,76612,2,0,L|324:196,1,90,2|0,0:0|0:0,0:0:0:0:
288,92,76861,2,0,L|242:90,1,45,2|0,0:0|0:0,0:0:0:0:
276,80,77028,2,0,L|230:78,1,45,2|0,0:0|0:0,0:0:0:0:
140,136,77195,2,0,L|48:140,1,90,2|0,0:0|0:0,0:0:0:0:
0,204,77445,2,0,P|-8:244|4:292,1,90,2|0,0:0|0:0,0:0:0:0:
16,304,77695,1,2,0:0:0:0:
456,316,77862,5,12,0:0:0:0:
463,299,77945,1,8,0:0:0:0:
469,282,78028,1,8,0:0:0:0:
474,264,78112,1,8,0:0:0:0:
477,246,78195,1,8,0:0:0:0:
479,228,78278,1,8,0:0:0:0:
479,209,78362,1,8,0:0:0:0:
478,191,78445,1,8,0:0:0:0:
475,173,78528,1,8,0:0:0:0:
471,155,78612,1,8,0:0:0:0:
465,137,78695,1,8,0:0:0:0:
458,120,78778,1,8,0:0:0:0:
449,103,78862,1,8,0:0:0:0:
256,128,79028,1,8,0:0:0:0:
256,128,79112,1,8,0:0:0:0:
256,128,79195,5,8,0:0:0:0:
251,146,79279,1,8,0:0:0:0:
248,164,79362,1,8,0:0:0:0:
246,182,79445,1,8,0:0:0:0:
246,201,79529,1,8,0:0:0:0:
247,219,79612,1,8,0:0:0:0:
250,237,79695,1,8,0:0:0:0:
254,255,79779,1,8,0:0:0:0:
264,277,79862,1,8,0:0:0:0:
264,277,80195,1,8,0:0:0:0:
64,368,80362,1,8,0:0:0:0:
64,368,80445,1,8,0:0:0:0:
64,368,80528,5,8,0:0:0:0:
40,352,80612,1,8,0:0:0:0:
28,328,80695,1,8,0:0:0:0:
24,300,80778,1,8,0:0:0:0:
28,272,80862,1,8,0:0:0:0:
40,248,80945,1,8,0:0:0:0:
60,232,81028,1,8,0:0:0:0:
84,224,81112,1,8,0:0:0:0:
112,224,81195,1,8,0:0:0:0:
136,236,81278,1,8,0:0:0:0:
156,256,81362,1,8,0:0:0:0:
180,264,81446,1,8,0:0:0:0:
208,264,81529,1,8,0:0:0:0:
396,160,81695,1,8,0:0:0:0:
396,160,81778,1,8,0:0:0:0:
396,160,81862,5,8,0:0:0:0:
372,152,81945,1,8,0:0:0:0:
344,152,82028,1,8,0:0:0:0:
316,156,82112,1,8,0:0:0:0:
292,168,82195,1,8,0:0:0:0:
268,176,82278,1,8,0:0:0:0:
240,176,82361,1,8,0:0:0:0:
212,172,82445,1,8,0:0:0:0:
188,160,82528,1,8,0:0:0:0:
32,64,82695,1,8,0:0:0:0:
32,64,82778,1,8,0:0:0:0:
32,64,82861,1,8,0:0:0:0:
32,64,82945,1,8,0:0:0:0:
32,64,83028,1,8,0:0:0:0:
32,64,83111,1,8,0:0:0:0:
32,64,83195,5,8,0:0:0:0:
24,100,83278,1,8,0:0:0:0:
32,136,83362,1,8,0:0:0:0:
60,160,83445,1,8,0:0:0:0:
96,168,83528,1,8,0:0:0:0:
132,164,83612,1,8,0:0:0:0:
160,140,83695,1,8,0:0:0:0:
196,136,83779,1,8,0:0:0:0:
232,144,83862,1,8,0:0:0:0:
260,168,83945,1,8,0:0:0:0:
268,204,84029,1,8,0:0:0:0:
260,240,84112,1,8,0:0:0:0:
236,268,84195,1,8,0:0:0:0:
424,376,84362,1,8,0:0:0:0:
424,376,84445,1,8,0:0:0:0:
424,376,84528,5,8,0:0:0:0:
388,380,84612,1,8,0:0:0:0:
352,372,84695,1,8,0:0:0:0:
324,348,84778,1,8,0:0:0:0:
316,312,84862,1,8,0:0:0:0:
324,276,84945,1,8,0:0:0:0:
348,248,85028,1,8,0:0:0:0:
380,236,85111,1,8,0:0:0:0:
420,244,85195,1,8,0:0:0:0:
420,244,85528,1,8,0:0:0:0:
496,112,85695,1,8,0:0:0:0:
496,112,85778,1,8,0:0:0:0:
496,112,85862,5,8,0:0:0:0:
456,132,85945,1,8,0:0:0:0:
412,128,86028,1,8,0:0:0:0:
376,100,86111,1,8,0:0:0:0:
360,56,86195,1,8,0:0:0:0:
324,28,86278,1,8,0:0:0:0:
280,24,86361,1,8,0:0:0:0:
240,44,86444,1,8,0:0:0:0:
216,84,86528,1,8,0:0:0:0:
220,128,86612,1,8,0:0:0:0:
248,164,86695,1,8,0:0:0:0:
288,184,86778,1,8,0:0:0:0:
332,176,86862,1,8,0:0:0:0:
512,312,87028,1,8,0:0:0:0:
512,312,87111,1,8,0:0:0:0:
512,312,87195,5,0,0:0:0:0:
472,276,87278,1,0,0:0:0:0:
420,268,87362,1,0,0:0:0:0:
372,292,87445,1,0,0:0:0:0:
348,340,87528,1,0,0:0:0:0:
308,376,87611,1,0,0:0:0:0:
256,384,87695,1,0,0:0:0:0:
208,360,87778,1,0,0:0:0:0:
184,312,87862,2,0,L|136:308,7,45,0|0|0|0|0|0|0|0,0:0|0:0|0:0|0:0|0:0|0:0|0:0|0:0,0:0:0:0:
68,320,88528,5,12,0:0:0:0:
68,320,88611,2,0,L|72:276,1,45,0|2,0:0|0:0,0:0:0:0:
20,228,88778,1,0,0:0:0:0:
20,228,88862,2,0,L|16:184,1,45,8|0,0:0|0:0,0:0:0:0:
64,132,89028,1,2,0:0:0:0:
64,132,89112,1,0,0:0:0:0:
64,132,89195,2,0,L|68:88,1,45,8|0,0:0|0:0,0:0:0:0:
160,28,89362,1,2,0:0:0:0:
160,28,89445,2,0,L|164:72,1,45,0|8,0:0|0:0,0:0:0:0:
232,180,89612,1,0,0:0:0:0:
232,180,89695,2,0,L|236:136,1,45,2|0,0:0|0:0,0:0:0:0:
320,68,89862,5,8,0:0:0:0:
320,68,89945,2,0,L|376:76,1,45,0|2,0:0|0:0,0:0:0:0:
340,148,90112,1,0,0:0:0:0:
340,148,90195,2,0,L|396:156,1,45,8|0,0:0|0:0,0:0:0:0:
480,208,90362,1,2,0:0:0:0:
480,208,90445,1,0,0:0:0:0:
480,208,90528,2,0,L|424:216,1,45,8|0,0:0|0:0,0:0:0:0:
460,288,90695,1,2,0:0:0:0:
460,288,90778,2,0,L|404:296,1,45,0|8,0:0|0:0,0:0:0:0:
440,368,90945,1,0,0:0:0:0:
440,368,91028,2,0,L|384:376,1,45,2|0,0:0|0:0,0:0:0:0:
304,364,91195,5,8,0:0:0:0:
304,364,91278,2,0,L|300:320,1,45,0|2,0:0|0:0,0:0:0:0:
208,268,91445,1,0,0:0:0:0:
208,268,91528,2,0,L|204:312,1,45,8|0,0:0|0:0,0:0:0:0:
320,204,91695,1,2,0:0:0:0:
320,204,91778,1,0,0:0:0:0:
320,204,91862,2,0,L|276:200,1,45,8|0,0:0|0:0,0:0:0:0:
192,124,92029,1,2,0:0:0:0:
192,124,92112,2,0,L|236:120,1,45,0|8,0:0|0:0,0:0:0:0:
352,60,92279,1,0,0:0:0:0:
352,60,92362,2,0,L|308:56,1,45,2|0,0:0|0:0,0:0:0:0:
128,32,92528,5,8,0:0:0:0:
128,32,92612,2,0,L|124:96,1,45,0|2,0:0|0:0,0:0:0:0:
32,128,92778,1,0,0:0:0:0:
32,128,92862,2,0,L|28:64,1,45,8|0,0:0|0:0,0:0:0:0:
160,160,93028,1,2,0:0:0:0:
160,160,93112,1,0,0:0:0:0:
160,160,93196,2,0,L|156:224,1,45,8|0,0:0|0:0,0:0:0:0:
256,256,93362,1,2,0:0:0:0:
256,256,93446,2,0,L|252:192,1,45,0|8,0:0|0:0,0:0:0:0:
352,256,93612,1,0,0:0:0:0:
352,256,93696,2,0,L|348:320,1,45,2|0,0:0|0:0,0:0:0:0:
448,352,93862,5,8,0:0:0:0:
448,352,93946,2,0,L|444:288,1,45,0|2,0:0|0:0,0:0:0:0:
424,240,94112,1,0,0:0:0:0:
424,240,94196,2,0,L|428:176,1,45,8|0,0:0|0:0,0:0:0:0:
468,136,94362,1,2,0:0:0:0:
468,136,94446,1,0,0:0:0:0:
468,136,94529,2,0,L|464:92,1,45,8|0,0:0|0:0,0:0:0:0:
372,32,94696,1,2,0:0:0:0:
372,32,94779,2,0,L|368:76,1,45,0|8,0:0|0:0,0:0:0:0:
300,184,94946,1,0,0:0:0:0:
300,184,95029,2,0,L|296:140,1,45,2|0,0:0|0:0,0:0:0:0:
212,80,95195,5,8,0:0:0:0:
212,80,95278,2,0,L|151:77,1,45,0|2,0:0|0:0,0:0:0:0:
180,152,95445,1,0,0:0:0:0:
180,152,95528,2,0,L|119:149,1,45,8|0,0:0|0:0,0:0:0:0:
48,212,95695,1,2,0:0:0:0:
48,212,95778,1,0,0:0:0:0:
48,212,95861,2,0,L|109:215,1,45,8|0,0:0|0:0,0:0:0:0:
76,288,96028,1,2,0:0:0:0:
76,288,96112,2,0,L|137:291,1,45,0|8,0:0|0:0,0:0:0:0:
104,364,96279,1,0,0:0:0:0:
104,364,96362,2,0,L|165:367,1,45,2|0,0:0|0:0,0:0:0:0:
288,320,96528,5,8,0:0:0:0:
288,320,96612,2,0,L|284:264,1,45,0|2,0:0|0:0,0:0:0:0:
224,192,96778,1,0,0:0:0:0:
224,192,96862,2,0,L|228:136,1,45,8|0,0:0|0:0,0:0:0:0:
352,64,97028,1,2,0:0:0:0:
352,64,97112,1,0,0:0:0:0:
352,64,97195,2,0,L|296:68,1,45,8|0,0:0|0:0,0:0:0:0:
96,192,97362,1,2,0:0:0:0:
96,192,97445,2,0,L|152:196,1,45,0|8,0:0|0:0,0:0:0:0:
416,320,97612,1,0,0:0:0:0:
416,320,97695,2,0,L|360:324,1,45,2|0,0:0|0:0,0:0:0:0:
288,352,97862,5,8,0:0:0:0:
224,32,98029,1,10,0:0:0:0:
32,224,98196,1,8,0:0:0:0:
480,160,98363,1,10,0:0:0:0:
248,296,98529,1,8,0:0:0:0:
252,244,98612,1,8,0:0:0:0:
256,192,98696,1,10,0:0:0:0:
260,140,98779,1,8,0:0:0:0:
264,88,98862,6,0,L|280:84,1,11.25,0|0,0:0|0:0,0:0:0:0:
328,36,99029,2,0,L|344:32,1,11.25,0|0,0:0|0:0,0:0:0:0:
408,56,99195,5,12,0:0:0:0:
420,68,99278,2,0,L|424:112,1,45,0|2,0:0|0:0,0:0:0:0:
480,180,99445,1,0,0:0:0:0:
468,192,99528,2,0,L|464:236,1,45,8|0,0:0|0:0,0:0:0:0:
500,316,99695,1,2,0:0:0:0:
476,344,99778,1,0,0:0:0:0:
440,352,99862,2,0,L|396:348,1,45,8|0,0:0|0:0,0:0:0:0:
336,292,100028,1,2,0:0:0:0:
300,284,100112,2,0,L|256:288,1,45,0|8,0:0|0:0,0:0:0:0:
196,344,100278,1,0,0:0:0:0:
160,352,100362,2,0,L|116:348,1,45,2|0,0:0|0:0,0:0:0:0:
76,276,100528,5,8,0:0:0:0:
68,260,100612,2,0,L|72:216,1,45,0|2,0:0|0:0,0:0:0:0:
132,160,100778,1,0,0:0:0:0:
140,144,100862,2,0,L|136:100,1,45,8|0,0:0|0:0,0:0:0:0:
76,44,101028,1,2,0:0:0:0:
108,24,101112,1,0,0:0:0:0:
144,20,101195,2,0,L|188:32,1,45,8|0,0:0|0:0,0:0:0:0:
232,100,101362,1,2,0:0:0:0:
268,104,101445,2,0,L|312:92,1,45,0|8,0:0|0:0,0:0:0:0:
356,24,101612,1,0,0:0:0:0:
392,20,101695,2,0,L|436:32,1,45,2|0,0:0|0:0,0:0:0:0:
480,100,101862,5,8,0:0:0:0:
492,112,101945,2,0,L|488:156,1,45,0|2,0:0|0:0,0:0:0:0:
448,228,102112,1,0,0:0:0:0:
436,240,102195,2,0,L|440:284,1,45,8|0,0:0|0:0,0:0:0:0:
384,344,102362,1,2,0:0:0:0:
348,340,102445,1,0,0:0:0:0:
316,320,102528,2,0,L|312:276,1,45,8|0,0:0|0:0,0:0:0:0:
240,236,102695,1,2,0:0:0:0:
208,256,102778,2,0,L|204:300,1,45,0|8,0:0|0:0,0:0:0:0:
132,340,102945,1,0,0:0:0:0:
100,320,103028,2,0,L|96:276,1,45,2|0,0:0|0:0,0:0:0:0:
32,224,103195,5,8,0:0:0:0:
480,160,103362,1,10,0:0:0:0:
224,32,103528,1,8,0:0:0:0:
288,352,103695,1,10,0:0:0:0:
484,92,103862,1,8,0:0:0:0:
432,80,103945,1,8,0:0:0:0:
380,68,104029,1,10,0:0:0:0:
328,56,104112,1,8,0:0:0:0:
276,44,104195,2,2,B|259:54|259:54|245:40|245:40|229:50|229:50|215:37|215:37|198:47|198:47|185:33|185:33|168:44|168:44,1,135,0|0,0:0|0:0,0:0:0:0:
108,84,104528,5,12,0:0:0:0:
168,293,104695,1,10,0:0:0:0:
320,135,104862,1,8,0:0:0:0:
59,217,105028,1,10,0:0:0:0:
384,328,105195,1,8,0:0:0:0:
388,276,105278,1,8,0:0:0:0:
392,224,105362,1,10,0:0:0:0:
396,172,105445,1,8,0:0:0:0:
400,120,105528,1,8,0:0:0:0:
152,172,105695,1,10,0:0:0:0:
296,192,105862,5,8,0:0:0:0:
252,340,106028,1,10,0:0:0:0:
192,72,106195,1,8,0:0:0:0:
453,154,106361,1,10,0:0:0:0:
128,265,106528,1,8,0:0:0:0:
124,213,106611,1,8,0:0:0:0:
120,161,106695,1,10,0:0:0:0:
116,109,106778,1,8,0:0:0:0:
112,57,106861,1,8,0:0:0:0:
360,109,107028,1,10,0:0:0:0:
512,288,107195,5,8,0:0:0:0:
468,256,107278,1,8,0:0:0:0:
412,252,107362,1,10,0:0:0:0:
368,284,107445,1,8,0:0:0:0:
348,332,107528,1,8,0:0:0:0:
304,364,107611,1,8,0:0:0:0:
248,368,107695,1,10,0:0:0:0:
204,336,107778,1,8,0:0:0:0:
184,288,107861,1,8,0:0:0:0:
192,232,107945,1,8,0:0:0:0:
228,192,108028,1,10,0:0:0:0:
280,180,108112,1,8,0:0:0:0:
328,204,108195,1,8,0:0:0:0:
500,68,108362,1,10,0:0:0:0:
500,68,108445,1,8,0:0:0:0:
500,68,108529,5,8,0:0:0:0:
456,100,108613,1,8,0:0:0:0:
404,108,108696,1,10,0:0:0:0:
356,84,108779,1,8,0:0:0:0:
324,40,108862,1,8,0:0:0:0:
280,8,108946,1,8,0:0:0:0:
228,0,109029,1,10,0:0:0:0:
180,24,109112,1,8,0:0:0:0:
148,68,109195,1,8,0:0:0:0:
0,224,109362,1,10,0:0:0:0:
52,212,109445,1,8,0:0:0:0:
104,228,109528,1,8,0:0:0:0:
140,268,109612,1,8,0:0:0:0:
156,320,109695,1,10,0:0:0:0:
256,192,109862,5,12,0:0:0:0:
