osu file format v14

[General]
AudioFilename: audio.mp3
AudioLeadIn: 0
PreviewTime: 88528
Countdown: 0
SampleSet: Normal
StackLeniency: 0.7
Mode: 1
LetterboxInBreaks: 0
WidescreenStoryboard: 1

[Editor]
DistanceSpacing: 0.8
BeatDivisor: 4
GridSize: 4
TimelineZoom: 2.799999

[Metadata]
Title:Verflucht
TitleUnicode:Verflucht
Artist:Tyrfing
ArtistUnicode:Tyrfing
Creator:MMzz
Version:Oni
Source:beatmania IIDX 21 SPADA
Tags:Hommarju HARD NRG Rhytoly Vulkin
BeatmapID:1953977
BeatmapSetID:934209

[Difficulty]
HPDrainRate:5.5
CircleSize:5
OverallDifficulty:5.5
ApproachRate:5
SliderMultiplier:1.4
SliderTickRate:1

[Events]
//Background and Video events
0,0,"vbg.jpg",0,85
//Break Periods
//Storyboard Layer 0 (Background)
//Storyboard Layer 1 (Fail)
//Storyboard Layer 2 (Pass)
//Storyboard Layer 3 (Foreground)
//Storyboard Layer 4 (Overlay)
//Storyboard Sound Samples

[TimingPoints]
529,333.333333333333,4,1,0,100,1,0
88528,-100,4,1,0,100,0,1
109862,-100,4,1,0,100,0,0

[HitObjects]
195,135,529,5,4,0:0:0:0:
204,133,1028,1,4,0:0:0:0:
204,133,1528,1,4,0:0:0:0:
204,133,2028,1,4,0:0:0:0:
204,133,2362,1,12,0:0:0:0:
204,133,2695,1,4,0:0:0:0:
204,133,2862,1,4,0:0:0:0:
204,133,3195,1,4,0:0:0:0:
214,130,3362,1,8,0:0:0:0:
217,128,3528,1,0,0:0:0:0:
217,127,3695,1,8,0:0:0:0:
217,127,3778,1,8,0:0:0:0:
216,127,3862,1,0,0:0:0:0:
216,127,4028,1,8,0:0:0:0:
214,130,4195,1,0,0:0:0:0:
197,93,4278,1,0,0:0:0:0:
217,116,4362,1,0,0:0:0:0:
197,93,4528,1,0,0:0:0:0:
197,93,4695,1,8,0:0:0:0:
197,93,4862,1,0,0:0:0:0:
197,93,5028,1,8,0:0:0:0:
197,93,5112,1,8,0:0:0:0:
197,93,5195,1,0,0:0:0:0:
188,81,5362,1,8,0:0:0:0:
188,81,5528,1,0,0:0:0:0:
177,79,5862,1,0,0:0:0:0:
179,61,6028,1,8,0:0:0:0:
179,61,6195,1,0,0:0:0:0:
179,61,6362,1,8,0:0:0:0:
179,61,6445,1,8,0:0:0:0:
179,61,6528,1,0,0:0:0:0:
179,61,6695,1,8,0:0:0:0:
179,61,6862,1,8,0:0:0:0:
179,61,6945,1,8,0:0:0:0:
179,61,7028,1,0,0:0:0:0:
179,61,7195,1,0,0:0:0:0:
179,61,7362,1,8,0:0:0:0:
179,61,7528,1,0,0:0:0:0:
185,70,7695,1,8,0:0:0:0:
172,53,7778,1,8,0:0:0:0:
172,53,7862,1,8,0:0:0:0:
172,53,8028,1,0,0:0:0:0:
172,53,8195,1,8,0:0:0:0:
240,146,8528,1,0,0:0:0:0:
240,146,8695,1,8,0:0:0:0:
240,146,8862,1,0,0:0:0:0:
240,146,9028,1,8,0:0:0:0:
240,146,9112,1,8,0:0:0:0:
240,146,9195,1,0,0:0:0:0:
240,146,9362,1,8,0:0:0:0:
235,150,9528,1,0,0:0:0:0:
235,150,9612,1,0,0:0:0:0:
240,146,9695,1,0,0:0:0:0:
240,146,9862,1,0,0:0:0:0:
240,146,10028,1,8,0:0:0:0:
240,146,10195,1,0,0:0:0:0:
171,135,10362,1,8,0:0:0:0:
205,78,10445,1,8,0:0:0:0:
205,78,10528,1,0,0:0:0:0:
205,78,10695,1,8,0:0:0:0:
205,78,10862,1,0,0:0:0:0:
205,78,11195,1,0,0:0:0:0:
205,78,11362,1,8,0:0:0:0:
205,78,11528,1,0,0:0:0:0:
205,78,11695,1,8,0:0:0:0:
205,78,11778,1,8,0:0:0:0:
205,78,11862,1,0,0:0:0:0:
205,78,12028,1,8,0:0:0:0:
205,78,12195,1,8,0:0:0:0:
205,78,12278,1,0,0:0:0:0:
205,78,12362,1,8,0:0:0:0:
202,154,12528,5,0,0:0:0:0:
202,154,12695,1,0,0:0:0:0:
202,154,12862,1,0,0:0:0:0:
202,154,13028,1,0,0:0:0:0:
202,154,13195,1,0,0:0:0:0:
202,154,13278,1,0,0:0:0:0:
202,154,13362,1,0,0:0:0:0:
194,150,13445,1,0,0:0:0:0:
223,143,13862,1,4,0:0:0:0:
238,163,14112,1,8,0:0:0:0:
239,163,14195,1,0,0:0:0:0:
226,135,14362,1,8,0:0:0:0:
238,163,14528,1,0,0:0:0:0:
211,169,14695,1,8,0:0:0:0:
211,91,14778,1,8,0:0:0:0:
216,163,14862,1,0,0:0:0:0:
216,163,15028,1,8,0:0:0:0:
216,163,15195,1,0,0:0:0:0:
216,160,15445,1,8,0:0:0:0:
216,160,15529,1,0,0:0:0:0:
216,163,15695,1,8,0:0:0:0:
181,134,15862,1,0,0:0:0:0:
216,163,16028,1,0,0:0:0:0:
216,163,16112,1,8,0:0:0:0:
216,163,16195,1,0,0:0:0:0:
214,144,16362,1,8,0:0:0:0:
214,144,16528,1,0,0:0:0:0:
250,135,16778,1,8,0:0:0:0:
221,156,16862,1,0,0:0:0:0:
207,96,17028,1,8,0:0:0:0:
207,96,17195,1,0,0:0:0:0:
207,96,17362,1,0,0:0:0:0:
207,96,17445,1,8,0:0:0:0:
207,96,17528,1,0,0:0:0:0:
207,96,17695,1,8,0:0:0:0:
207,96,17862,1,0,0:0:0:0:
197,90,18028,1,8,0:0:0:0:
197,90,18112,1,0,0:0:0:0:
197,90,18195,1,0,0:0:0:0:
197,90,18278,1,8,0:0:0:0:
198,90,18445,1,8,0:0:0:0:
198,90,18528,1,0,0:0:0:0:
198,90,18695,1,8,0:0:0:0:
212,71,18778,1,8,0:0:0:0:
198,90,18862,1,0,0:0:0:0:
197,90,19028,1,8,0:0:0:0:
197,90,19195,1,4,0:0:0:0:
184,95,19445,1,8,0:0:0:0:
184,95,19528,1,0,0:0:0:0:
184,95,19695,1,8,0:0:0:0:
184,95,19862,1,0,0:0:0:0:
192,81,20028,1,8,0:0:0:0:
192,81,20112,1,8,0:0:0:0:
192,81,20195,1,0,0:0:0:0:
192,81,20362,1,8,0:0:0:0:
192,81,20528,1,0,0:0:0:0:
206,137,20778,1,8,0:0:0:0:
206,137,20862,1,0,0:0:0:0:
206,137,21028,1,8,0:0:0:0:
206,137,21195,1,0,0:0:0:0:
206,137,21362,1,0,0:0:0:0:
206,137,21445,1,8,0:0:0:0:
206,137,21528,1,0,0:0:0:0:
206,137,21695,1,8,0:0:0:0:
206,141,21862,1,0,0:0:0:0:
207,127,22028,1,0,0:0:0:0:
206,141,22195,1,0,0:0:0:0:
206,141,22362,1,0,0:0:0:0:
206,141,22528,1,0,0:0:0:0:
206,127,22695,1,0,0:0:0:0:
176,107,22862,1,0,0:0:0:0:
206,141,23028,1,0,0:0:0:0:
228,129,23195,1,0,0:0:0:0:
227,129,23278,1,0,0:0:0:0:
228,129,23362,1,0,0:0:0:0:
228,129,23445,1,0,0:0:0:0:
228,129,23528,1,0,0:0:0:0:
228,129,23612,1,0,0:0:0:0:
228,129,23695,1,0,0:0:0:0:
228,129,23778,1,0,0:0:0:0:
228,129,23862,1,0,0:0:0:0:
233,128,23945,1,0,0:0:0:0:
233,128,24028,1,0,0:0:0:0:
233,128,24112,1,0,0:0:0:0:
215,128,24195,1,0,0:0:0:0:
215,128,24278,1,0,0:0:0:0:
215,128,24362,1,0,0:0:0:0:
217,128,24528,1,4,0:0:0:0:
223,140,24695,1,0,0:0:0:0:
227,117,24862,1,0,0:0:0:0:
162,146,25028,1,8,0:0:0:0:
181,62,25195,1,8,0:0:0:0:
226,117,25362,1,8,0:0:0:0:
226,117,25528,1,0,0:0:0:0:
216,108,25695,1,0,0:0:0:0:
227,117,25862,1,8,0:0:0:0:
226,117,26195,1,8,0:0:0:0:
226,117,26362,1,0,0:0:0:0:
226,117,26528,1,8,0:0:0:0:
226,117,27195,1,0,0:0:0:0:
181,116,27528,1,0,0:0:0:0:
181,116,27695,1,0,0:0:0:0:
181,116,27862,1,8,0:0:0:0:
181,116,28195,1,8,0:0:0:0:
181,116,28362,1,8,0:0:0:0:
181,116,28695,1,8,0:0:0:0:
181,116,28862,1,8,0:0:0:0:
181,116,29195,1,8,0:0:0:0:
181,116,29362,1,0,0:0:0:0:
181,116,29528,1,8,0:0:0:0:
181,116,29695,1,8,0:0:0:0:
181,116,29862,1,0,0:0:0:0:
181,116,30028,1,0,0:0:0:0:
181,116,30195,1,0,0:0:0:0:
181,116,30362,1,8,0:0:0:0:
181,116,30528,1,8,0:0:0:0:
181,116,30695,1,8,0:0:0:0:
181,116,30862,1,0,0:0:0:0:
181,116,31028,1,0,0:0:0:0:
181,116,31195,1,8,0:0:0:0:
181,116,31528,1,8,0:0:0:0:
181,116,31695,1,0,0:0:0:0:
181,116,31862,1,8,0:0:0:0:
181,116,32528,1,0,0:0:0:0:
181,116,32862,1,0,0:0:0:0:
181,116,33028,1,0,0:0:0:0:
181,116,33195,1,8,0:0:0:0:
181,116,33528,1,8,0:0:0:0:
181,116,33695,1,8,0:0:0:0:
181,116,34028,1,8,0:0:0:0:
181,116,34195,1,8,0:0:0:0:
256,192,34528,12,8,34862,0:0:0:0:
194,164,35195,5,0,0:0:0:0:
221,139,35278,1,0,0:0:0:0:
199,134,35362,1,0,0:0:0:0:
199,134,35445,1,0,0:0:0:0:
199,134,35528,1,8,0:0:0:0:
199,134,35695,1,0,0:0:0:0:
199,134,35862,1,8,0:0:0:0:
199,134,35945,1,8,0:0:0:0:
199,134,36028,1,8,0:0:0:0:
199,134,36112,1,8,0:0:0:0:
199,134,36195,1,0,0:0:0:0:
194,119,36362,1,8,0:0:0:0:
194,119,36528,1,0,0:0:0:0:
202,114,36612,1,0,0:0:0:0:
193,119,36695,1,0,0:0:0:0:
193,119,36778,1,0,0:0:0:0:
193,119,36862,1,8,0:0:0:0:
193,119,36945,1,8,0:0:0:0:
196,119,37028,1,8,0:0:0:0:
196,119,37112,1,8,0:0:0:0:
201,116,37195,1,0,0:0:0:0:
204,147,37528,1,0,0:0:0:0:
185,146,37695,1,0,0:0:0:0:
188,145,37862,1,0,0:0:0:0:
174,123,37945,1,0,0:0:0:0:
191,143,38028,1,0,0:0:0:0:
191,143,38112,1,0,0:0:0:0:
191,143,38195,1,8,0:0:0:0:
191,143,38362,1,0,0:0:0:0:
194,143,38528,1,8,0:0:0:0:
194,143,38612,1,8,0:0:0:0:
194,143,38695,1,8,0:0:0:0:
194,143,38778,1,8,0:0:0:0:
195,143,38862,1,0,0:0:0:0:
187,127,39028,1,8,0:0:0:0:
190,115,39195,1,0,0:0:0:0:
188,119,39278,1,0,0:0:0:0:
189,119,39362,1,0,0:0:0:0:
189,119,39445,1,0,0:0:0:0:
190,119,39528,1,8,0:0:0:0:
187,115,39612,1,8,0:0:0:0:
187,115,39695,1,0,0:0:0:0:
186,115,39778,1,0,0:0:0:0:
186,115,39862,1,8,0:0:0:0:
169,148,40195,1,8,0:0:0:0:
169,148,40362,1,8,0:0:0:0:
194,164,40528,5,0,0:0:0:0:
198,160,40612,1,0,0:0:0:0:
199,134,40695,1,0,0:0:0:0:
199,134,40778,1,0,0:0:0:0:
199,134,40861,1,8,0:0:0:0:
199,134,41028,1,0,0:0:0:0:
199,134,41195,1,8,0:0:0:0:
199,134,41278,1,8,0:0:0:0:
199,134,41361,1,8,0:0:0:0:
199,134,41445,1,8,0:0:0:0:
199,134,41528,1,0,0:0:0:0:
194,119,41695,1,8,0:0:0:0:
194,119,41861,1,0,0:0:0:0:
202,114,41945,1,0,0:0:0:0:
193,119,42028,1,0,0:0:0:0:
193,119,42111,1,0,0:0:0:0:
193,119,42195,1,8,0:0:0:0:
193,119,42278,1,8,0:0:0:0:
196,119,42361,1,8,0:0:0:0:
196,119,42445,1,8,0:0:0:0:
201,116,42528,1,0,0:0:0:0:
204,147,42861,1,0,0:0:0:0:
185,146,43028,1,0,0:0:0:0:
188,145,43195,1,0,0:0:0:0:
176,115,43278,1,0,0:0:0:0:
191,143,43361,1,0,0:0:0:0:
191,143,43445,1,0,0:0:0:0:
191,143,43528,1,8,0:0:0:0:
191,143,43695,1,0,0:0:0:0:
194,143,43861,1,8,0:0:0:0:
194,143,43945,1,8,0:0:0:0:
194,143,44028,1,8,0:0:0:0:
194,143,44111,1,8,0:0:0:0:
195,143,44195,1,0,0:0:0:0:
187,127,44361,1,8,0:0:0:0:
176,105,44528,1,0,0:0:0:0:
176,105,44612,1,0,0:0:0:0:
176,105,44695,1,0,0:0:0:0:
176,105,44778,1,0,0:0:0:0:
176,105,44862,1,8,0:0:0:0:
180,100,44945,1,8,0:0:0:0:
180,100,45028,1,0,0:0:0:0:
180,100,45112,1,0,0:0:0:0:
180,100,45195,1,8,0:0:0:0:
180,100,45528,1,0,0:0:0:0:
179,100,45862,1,4,0:0:0:0:
243,132,46028,1,8,0:0:0:0:
243,132,46112,1,8,0:0:0:0:
243,132,46195,1,0,0:0:0:0:
243,132,46362,1,8,0:0:0:0:
243,132,46528,1,0,0:0:0:0:
243,132,46695,1,0,0:0:0:0:
243,132,46778,1,8,0:0:0:0:
240,124,46862,1,0,0:0:0:0:
240,124,47028,1,8,0:0:0:0:
240,124,47195,1,0,0:0:0:0:
240,124,47362,1,8,0:0:0:0:
240,124,47445,1,8,0:0:0:0:
240,124,47528,1,0,0:0:0:0:
240,124,47695,1,8,0:0:0:0:
240,124,47862,1,0,0:0:0:0:
221,91,47945,1,0,0:0:0:0:
240,124,48028,1,8,0:0:0:0:
240,124,48195,1,8,0:0:0:0:
240,124,48528,1,0,0:0:0:0:
230,116,48695,1,8,0:0:0:0:
231,117,48778,1,8,0:0:0:0:
231,117,48862,1,0,0:0:0:0:
231,117,49028,1,8,0:0:0:0:
231,117,49195,1,0,0:0:0:0:
231,117,49362,1,0,0:0:0:0:
231,117,49445,1,8,0:0:0:0:
231,117,49528,1,0,0:0:0:0:
230,116,49695,1,8,0:0:0:0:
231,117,49862,1,0,0:0:0:0:
231,117,50028,1,8,0:0:0:0:
231,117,50112,1,8,0:0:0:0:
231,117,50195,1,0,0:0:0:0:
231,117,50362,1,8,0:0:0:0:
207,44,50528,1,0,0:0:0:0:
231,95,50612,1,0,0:0:0:0:
231,95,50695,1,8,0:0:0:0:
235,119,50862,1,0,0:0:0:0:
200,70,50945,1,0,0:0:0:0:
200,70,51028,1,8,0:0:0:0:
200,70,51112,1,8,0:0:0:0:
218,112,51195,1,0,0:0:0:0:
204,119,51362,1,8,0:0:0:0:
207,109,51445,1,8,0:0:0:0:
205,113,51528,1,0,0:0:0:0:
205,113,51695,1,8,0:0:0:0:
208,110,51862,1,0,0:0:0:0:
208,110,52028,1,0,0:0:0:0:
208,109,52112,1,8,0:0:0:0:
208,109,52195,1,0,0:0:0:0:
208,109,52362,1,8,0:0:0:0:
208,106,52528,1,0,0:0:0:0:
208,103,52695,1,8,0:0:0:0:
208,103,52778,1,8,0:0:0:0:
208,103,52862,1,0,0:0:0:0:
186,71,53028,1,8,0:0:0:0:
186,71,53195,1,0,0:0:0:0:
186,71,53278,1,0,0:0:0:0:
186,71,53362,1,8,0:0:0:0:
186,71,53528,1,8,0:0:0:0:
210,107,53862,1,0,0:0:0:0:
210,107,54028,1,8,0:0:0:0:
213,103,54112,1,8,0:0:0:0:
195,82,54195,1,0,0:0:0:0:
195,81,54362,1,8,0:0:0:0:
195,81,54528,1,0,0:0:0:0:
195,82,54695,1,0,0:0:0:0:
195,82,54778,1,8,0:0:0:0:
193,74,54862,1,0,0:0:0:0:
193,74,55028,1,8,0:0:0:0:
184,98,55195,1,0,0:0:0:0:
184,98,55362,1,0,0:0:0:0:
184,98,55528,1,0,0:0:0:0:
184,98,55695,1,0,0:0:0:0:
184,98,55862,1,0,0:0:0:0:
185,98,55945,1,0,0:0:0:0:
184,98,56028,1,0,0:0:0:0:
184,98,56112,1,0,0:0:0:0:
235,145,56528,1,4,0:0:0:0:
250,110,56695,1,8,0:0:0:0:
250,110,56778,1,8,0:0:0:0:
250,110,56862,1,0,0:0:0:0:
250,110,57028,1,8,0:0:0:0:
250,110,57195,1,0,0:0:0:0:
250,110,57362,1,8,0:0:0:0:
250,110,57445,1,0,0:0:0:0:
250,110,57528,1,0,0:0:0:0:
139,141,57612,1,0,0:0:0:0:
250,110,57695,1,8,0:0:0:0:
250,110,57862,1,0,0:0:0:0:
250,110,58028,1,8,0:0:0:0:
254,105,58112,1,8,0:0:0:0:
254,105,58195,1,0,0:0:0:0:
254,105,58362,1,8,0:0:0:0:
254,105,58528,1,0,0:0:0:0:
254,105,58612,1,0,0:0:0:0:
254,105,58695,1,8,0:0:0:0:
254,105,58862,1,8,0:0:0:0:
254,105,58945,1,8,0:0:0:0:
254,105,59028,1,8,0:0:0:0:
254,105,59195,1,0,0:0:0:0:
236,101,59362,1,8,0:0:0:0:
236,101,59445,1,8,0:0:0:0:
236,100,59528,1,0,0:0:0:0:
236,100,59695,1,8,0:0:0:0:
232,98,59862,1,0,0:0:0:0:
240,96,60028,1,8,0:0:0:0:
240,96,60112,1,0,0:0:0:0:
240,96,60195,1,0,0:0:0:0:
159,142,60278,1,0,0:0:0:0:
240,96,60362,1,8,0:0:0:0:
240,96,60528,1,0,0:0:0:0:
240,96,60695,1,8,0:0:0:0:
240,96,60778,1,8,0:0:0:0:
240,96,60862,1,0,0:0:0:0:
240,96,61028,1,8,0:0:0:0:
240,96,61195,1,8,0:0:0:0:
240,96,61278,1,0,0:0:0:0:
240,96,61362,1,8,0:0:0:0:
240,96,61528,1,8,0:0:0:0:
240,96,61612,1,0,0:0:0:0:
245,95,61695,1,8,0:0:0:0:
227,166,61778,1,8,0:0:0:0:
227,166,61862,1,0,0:0:0:0:
255,147,62028,1,8,0:0:0:0:
255,147,62112,1,8,0:0:0:0:
255,147,62195,1,0,0:0:0:0:
261,145,62362,1,8,0:0:0:0:
260,147,62528,1,0,0:0:0:0:
260,147,62695,1,8,0:0:0:0:
260,147,62778,1,0,0:0:0:0:
260,147,62862,1,0,0:0:0:0:
167,148,62945,1,0,0:0:0:0:
260,147,63028,1,8,0:0:0:0:
260,147,63195,1,0,0:0:0:0:
261,145,63362,1,8,0:0:0:0:
260,147,63445,1,8,0:0:0:0:
260,147,63528,1,0,0:0:0:0:
260,147,63695,1,8,0:0:0:0:
260,147,63862,1,0,0:0:0:0:
260,147,63945,1,0,0:0:0:0:
260,147,64028,1,8,0:0:0:0:
260,147,64195,1,8,0:0:0:0:
261,145,64278,1,8,0:0:0:0:
261,145,64362,1,8,0:0:0:0:
248,145,64528,1,0,0:0:0:0:
245,145,64695,1,0,0:0:0:0:
245,145,64862,1,0,0:0:0:0:
245,145,65028,1,0,0:0:0:0:
245,145,65195,1,0,0:0:0:0:
233,139,65278,1,0,0:0:0:0:
245,145,65362,1,0,0:0:0:0:
248,145,65528,1,0,0:0:0:0:
233,139,65612,1,0,0:0:0:0:
234,139,65695,1,0,0:0:0:0:
229,142,65862,1,0,0:0:0:0:
231,140,65945,1,0,0:0:0:0:
232,139,66028,1,0,0:0:0:0:
232,139,66112,1,0,0:0:0:0:
235,134,66195,1,0,0:0:0:0:
235,134,66278,1,0,0:0:0:0:
235,134,66362,1,0,0:0:0:0:
233,134,66445,1,0,0:0:0:0:
233,134,66528,1,0,0:0:0:0:
233,132,66612,1,0,0:0:0:0:
233,132,66695,1,0,0:0:0:0:
237,132,66778,1,0,0:0:0:0:
237,132,66862,1,0,0:0:0:0:
237,132,66945,1,0,0:0:0:0:
237,132,67028,1,0,0:0:0:0:
235,134,67195,1,4,0:0:0:0:
188,163,67862,1,8,0:0:0:0:
188,163,68112,1,0,0:0:0:0:
188,163,68362,1,8,0:0:0:0:
168,160,68695,1,8,0:0:0:0:
178,156,68862,1,0,0:0:0:0:
178,156,69028,1,0,0:0:0:0:
179,155,69195,1,8,0:0:0:0:
180,155,69445,1,8,0:0:0:0:
180,155,69695,1,8,0:0:0:0:
178,156,69862,1,0,0:0:0:0:
260,195,70528,1,8,0:0:0:0:
260,195,70778,1,0,0:0:0:0:
260,195,71028,1,8,0:0:0:0:
260,195,71278,1,8,0:0:0:0:
260,195,71528,1,0,0:0:0:0:
260,195,71695,1,0,0:0:0:0:
260,195,71862,1,0,0:0:0:0:
260,195,72112,1,8,0:0:0:0:
260,195,72362,1,8,0:0:0:0:
260,195,72528,1,0,0:0:0:0:
260,195,73195,1,8,0:0:0:0:
260,195,73445,1,0,0:0:0:0:
260,195,73695,1,8,0:0:0:0:
150,138,74028,1,8,0:0:0:0:
150,138,74195,1,0,0:0:0:0:
150,138,74362,1,0,0:0:0:0:
150,138,74528,1,8,0:0:0:0:
144,129,74778,1,8,0:0:0:0:
145,129,75028,1,8,0:0:0:0:
145,129,75195,1,0,0:0:0:0:
145,129,75862,1,8,0:0:0:0:
145,129,76112,1,0,0:0:0:0:
145,129,76362,1,8,0:0:0:0:
145,129,76612,1,8,0:0:0:0:
154,101,76862,1,0,0:0:0:0:
160,101,77028,1,0,0:0:0:0:
160,101,77195,1,0,0:0:0:0:
194,164,77862,5,0,0:0:0:0:
140,155,77945,1,0,0:0:0:0:
199,134,78029,1,0,0:0:0:0:
199,134,78112,1,0,0:0:0:0:
199,134,78195,1,8,0:0:0:0:
199,134,78362,1,0,0:0:0:0:
199,134,78529,1,8,0:0:0:0:
199,134,78612,1,8,0:0:0:0:
199,134,78695,1,8,0:0:0:0:
199,134,78779,1,8,0:0:0:0:
199,134,78862,1,0,0:0:0:0:
194,119,79029,1,8,0:0:0:0:
194,119,79195,1,0,0:0:0:0:
202,114,79279,1,0,0:0:0:0:
193,119,79362,1,0,0:0:0:0:
193,119,79445,1,0,0:0:0:0:
193,119,79529,1,8,0:0:0:0:
193,119,79612,1,8,0:0:0:0:
196,119,79695,1,8,0:0:0:0:
196,119,79779,1,8,0:0:0:0:
201,116,79862,1,0,0:0:0:0:
204,147,80195,1,0,0:0:0:0:
185,146,80362,1,0,0:0:0:0:
188,145,80529,1,0,0:0:0:0:
209,166,80612,1,0,0:0:0:0:
191,143,80695,1,0,0:0:0:0:
191,143,80779,1,0,0:0:0:0:
191,143,80862,1,8,0:0:0:0:
191,143,81029,1,0,0:0:0:0:
194,143,81195,1,8,0:0:0:0:
194,143,81279,1,8,0:0:0:0:
194,143,81362,1,8,0:0:0:0:
194,143,81445,1,8,0:0:0:0:
195,143,81529,1,0,0:0:0:0:
187,127,81695,1,8,0:0:0:0:
190,115,81862,1,0,0:0:0:0:
188,119,81945,1,0,0:0:0:0:
189,119,82029,1,0,0:0:0:0:
189,119,82112,1,0,0:0:0:0:
190,119,82195,1,8,0:0:0:0:
187,115,82279,1,8,0:0:0:0:
187,115,82362,1,0,0:0:0:0:
186,115,82445,1,0,0:0:0:0:
186,115,82529,1,8,0:0:0:0:
185,123,82862,1,8,0:0:0:0:
191,144,83028,1,8,0:0:0:0:
194,164,83195,5,0,0:0:0:0:
191,122,83278,1,0,0:0:0:0:
199,134,83362,1,0,0:0:0:0:
199,134,83445,1,0,0:0:0:0:
199,134,83528,1,8,0:0:0:0:
199,134,83695,1,0,0:0:0:0:
199,134,83862,1,8,0:0:0:0:
199,134,83945,1,8,0:0:0:0:
199,134,84028,1,8,0:0:0:0:
199,134,84112,1,8,0:0:0:0:
199,134,84195,1,0,0:0:0:0:
194,119,84362,1,8,0:0:0:0:
194,119,84528,1,0,0:0:0:0:
202,114,84612,1,0,0:0:0:0:
193,119,84695,1,0,0:0:0:0:
193,119,84778,1,0,0:0:0:0:
193,119,84862,1,8,0:0:0:0:
193,119,84945,1,8,0:0:0:0:
196,119,85028,1,8,0:0:0:0:
196,119,85112,1,8,0:0:0:0:
201,116,85195,1,0,0:0:0:0:
204,147,85528,1,0,0:0:0:0:
185,146,85695,1,0,0:0:0:0:
188,145,85862,1,0,0:0:0:0:
198,97,85945,1,0,0:0:0:0:
191,143,86028,1,0,0:0:0:0:
191,143,86112,1,0,0:0:0:0:
191,143,86195,1,8,0:0:0:0:
191,143,86362,1,0,0:0:0:0:
194,143,86528,1,8,0:0:0:0:
194,143,86612,1,8,0:0:0:0:
194,143,86695,1,8,0:0:0:0:
194,143,86778,1,8,0:0:0:0:
195,143,86862,1,0,0:0:0:0:
187,127,87028,1,8,0:0:0:0:
230,133,87195,1,8,0:0:0:0:
222,129,87278,1,8,0:0:0:0:
223,129,87362,1,8,0:0:0:0:
230,79,87445,1,8,0:0:0:0:
223,129,87528,1,0,0:0:0:0:
223,129,87612,1,0,0:0:0:0:
223,129,87695,1,0,0:0:0:0:
192,89,87778,1,0,0:0:0:0:
256,192,87862,12,8,88362,0:0:0:0:
168,178,88528,5,4,0:0:0:0:
173,178,88862,1,0,0:0:0:0:
168,178,89028,1,8,0:0:0:0:
168,178,89195,1,0,0:0:0:0:
168,178,89362,1,0,0:0:0:0:
168,178,89445,1,8,0:0:0:0:
168,178,89528,1,0,0:0:0:0:
173,178,89695,1,8,0:0:0:0:
198,167,89862,1,0,0:0:0:0:
194,162,90028,1,8,0:0:0:0:
194,161,90112,1,8,0:0:0:0:
206,158,90195,1,0,0:0:0:0:
198,158,90362,1,8,0:0:0:0:
193,158,90445,1,0,0:0:0:0:
193,158,90528,1,8,0:0:0:0:
196,151,90695,1,0,0:0:0:0:
194,146,90778,1,8,0:0:0:0:
196,146,90945,1,8,0:0:0:0:
195,146,91028,1,0,0:0:0:0:
195,146,91195,1,8,0:0:0:0:
215,131,91278,1,8,0:0:0:0:
215,131,91362,1,8,0:0:0:0:
205,138,91528,1,0,0:0:0:0:
211,79,91695,1,8,0:0:0:0:
211,79,91862,1,0,0:0:0:0:
211,79,92028,1,0,0:0:0:0:
211,79,92112,1,8,0:0:0:0:
211,79,92195,1,0,0:0:0:0:
211,79,92362,1,8,0:0:0:0:
211,79,92528,1,0,0:0:0:0:
211,79,92612,1,8,0:0:0:0:
211,79,92778,1,8,0:0:0:0:
211,79,92862,1,0,0:0:0:0:
211,79,93028,1,8,0:0:0:0:
102,155,93112,1,8,0:0:0:0:
211,79,93195,1,0,0:0:0:0:
214,74,93362,1,8,0:0:0:0:
108,148,93445,1,0,0:0:0:0:
214,74,93612,1,0,0:0:0:0:
214,74,93695,1,8,0:0:0:0:
150,129,93862,1,0,0:0:0:0:
150,129,93945,1,0,0:0:0:0:
150,129,94028,1,8,0:0:0:0:
145,154,94195,1,0,0:0:0:0:
145,154,94362,1,8,0:0:0:0:
145,154,94528,1,0,0:0:0:0:
145,154,94695,1,0,0:0:0:0:
145,154,94778,1,8,0:0:0:0:
145,154,94862,1,0,0:0:0:0:
145,154,95028,1,8,0:0:0:0:
145,154,95195,1,0,0:0:0:0:
145,154,95362,1,8,0:0:0:0:
145,154,95445,1,8,0:0:0:0:
150,150,95528,1,0,0:0:0:0:
149,150,95695,1,8,0:0:0:0:
149,150,95778,1,0,0:0:0:0:
149,150,95862,1,8,0:0:0:0:
124,157,96028,1,0,0:0:0:0:
124,157,96112,1,8,0:0:0:0:
122,155,96278,1,8,0:0:0:0:
124,155,96362,1,0,0:0:0:0:
127,155,96528,1,8,0:0:0:0:
159,103,96612,1,8,0:0:0:0:
159,103,96695,1,8,0:0:0:0:
200,144,96862,1,0,0:0:0:0:
200,144,97028,1,8,0:0:0:0:
200,144,97195,1,0,0:0:0:0:
200,144,97362,1,0,0:0:0:0:
200,144,97445,1,8,0:0:0:0:
200,144,97528,1,0,0:0:0:0:
200,144,97695,1,8,0:0:0:0:
209,140,97862,1,0,0:0:0:0:
209,140,98028,1,0,0:0:0:0:
209,140,98195,1,0,0:0:0:0:
209,140,98362,1,0,0:0:0:0:
209,140,98528,1,0,0:0:0:0:
209,140,98612,1,0,0:0:0:0:
209,140,98695,1,0,0:0:0:0:
209,140,98778,1,0,0:0:0:0:
200,138,98862,1,8,0:0:0:0:
200,138,99028,1,8,0:0:0:0:
185,110,99195,1,4,0:0:0:0:
184,152,99528,1,0,0:0:0:0:
186,152,99695,1,8,0:0:0:0:
186,152,99862,1,0,0:0:0:0:
186,152,100028,1,0,0:0:0:0:
184,152,100112,1,8,0:0:0:0:
184,152,100195,1,0,0:0:0:0:
184,152,100362,1,8,0:0:0:0:
184,152,100528,1,0,0:0:0:0:
199,148,100695,1,8,0:0:0:0:
199,148,100778,1,8,0:0:0:0:
199,148,100862,1,0,0:0:0:0:
213,143,101028,1,8,0:0:0:0:
213,143,101112,1,0,0:0:0:0:
213,143,101195,1,8,0:0:0:0:
216,143,101362,1,0,0:0:0:0:
216,143,101445,1,8,0:0:0:0:
212,149,101612,1,8,0:0:0:0:
213,149,101695,1,0,0:0:0:0:
214,148,101862,1,8,0:0:0:0:
202,103,101945,1,8,0:0:0:0:
202,103,102028,1,8,0:0:0:0:
214,148,102195,1,0,0:0:0:0:
140,146,102362,1,8,0:0:0:0:
179,57,102528,1,0,0:0:0:0:
183,72,102695,1,0,0:0:0:0:
184,72,102778,1,8,0:0:0:0:
184,72,102862,1,0,0:0:0:0:
187,72,103028,1,8,0:0:0:0:
117,145,103195,1,0,0:0:0:0:
117,145,103362,1,0,0:0:0:0:
117,145,103528,1,0,0:0:0:0:
117,145,103695,1,0,0:0:0:0:
124,139,103862,1,0,0:0:0:0:
124,139,103945,1,0,0:0:0:0:
124,139,104028,1,0,0:0:0:0:
124,139,104112,1,0,0:0:0:0:
203,142,104362,1,0,0:0:0:0:
203,142,104528,1,4,0:0:0:0:
198,138,104695,1,0,0:0:0:0:
203,142,104862,1,8,0:0:0:0:
203,142,105028,1,0,0:0:0:0:
196,138,105195,1,8,0:0:0:0:
196,138,105278,1,8,0:0:0:0:
196,138,105362,1,8,0:0:0:0:
196,138,105445,1,8,0:0:0:0:
196,138,105528,1,0,0:0:0:0:
207,129,105695,1,0,0:0:0:0:
209,128,105778,1,0,0:0:0:0:
209,128,105862,1,0,0:0:0:0:
209,128,106028,1,0,0:0:0:0:
207,126,106195,1,8,0:0:0:0:
207,126,106362,1,0,0:0:0:0:
187,68,106528,1,8,0:0:0:0:
187,68,106612,1,8,0:0:0:0:
187,68,106695,1,8,0:0:0:0:
187,68,106778,1,8,0:0:0:0:
187,68,106862,1,0,0:0:0:0:
187,68,107028,1,0,0:0:0:0:
120,126,107195,1,0,0:0:0:0:
187,88,107278,1,0,0:0:0:0:
120,126,107362,1,0,0:0:0:0:
120,126,107445,1,0,0:0:0:0:
120,126,107528,1,8,0:0:0:0:
120,126,107695,1,0,0:0:0:0:
195,118,107862,1,8,0:0:0:0:
195,118,107945,1,8,0:0:0:0:
195,118,108028,1,8,0:0:0:0:
195,118,108112,1,8,0:0:0:0:
195,118,108195,1,0,0:0:0:0:
183,121,108362,1,8,0:0:0:0:
183,121,108528,1,0,0:0:0:0:
186,119,108612,1,0,0:0:0:0:
187,119,108695,1,0,0:0:0:0:
187,119,108778,1,0,0:0:0:0:
187,119,108862,1,8,0:0:0:0:
187,119,108945,1,8,0:0:0:0:
187,119,109028,1,8,0:0:0:0:
186,118,109112,1,8,0:0:0:0:
186,118,109195,1,0,0:0:0:0:
183,121,109362,1,8,0:0:0:0:
183,121,109445,1,8,0:0:0:0:
183,121,109528,1,8,0:0:0:0:
186,119,109612,1,8,0:0:0:0:
187,119,109695,1,8,0:0:0:0:
187,119,109862,1,4,0:0:0:0:
