osu file format v14

[General]
AudioFilename: audio.mp3
AudioLeadIn: 0
PreviewTime: 88528
Countdown: 0
SampleSet: Normal
StackLeniency: 0.7
Mode: 1
LetterboxInBreaks: 0
WidescreenStoryboard: 1

[Editor]
DistanceSpacing: 0.8
BeatDivisor: 4
GridSize: 4
TimelineZoom: 2.799999

[Metadata]
Title:Verflucht
TitleUnicode:Verflucht
Artist:Tyrfing
ArtistUnicode:Tyrfing
Creator:MMzz
Version:Muzukashii
Source:beatmania IIDX 21 SPADA
Tags:Hommarju HARD NRG Rhytoly Vulkin
BeatmapID:1951379
BeatmapSetID:934209

[Difficulty]
HPDrainRate:5
CircleSize:5
OverallDifficulty:5
ApproachRate:5
SliderMultiplier:1.4
SliderTickRate:1

[Events]
//Background and Video events
0,0,"vbg.jpg",0,85
//Break Periods
//Storyboard Layer 0 (Background)
//Storyboard Layer 1 (Fail)
//Storyboard Layer 2 (Pass)
//Storyboard Layer 3 (Foreground)
//Storyboard Layer 4 (Overlay)
//Storyboard Sound Samples

[TimingPoints]
529,333.333333333333,4,1,0,100,1,0
88528,-100,4,1,0,100,0,1
109862,-100,4,1,0,100,0,0

[HitObjects]
196,173,529,5,0,0:0:0:0:
196,173,1028,1,0,0:0:0:0:
196,173,1528,1,0,0:0:0:0:
196,173,2028,1,0,0:0:0:0:
196,173,2362,1,8,0:0:0:0:
197,156,2695,1,0,0:0:0:0:
197,156,2862,1,8,0:0:0:0:
184,173,3195,1,4,0:0:0:0:
231,155,3528,1,0,0:0:0:0:
226,153,3695,1,8,0:0:0:0:
226,153,3862,1,0,0:0:0:0:
225,150,4028,1,8,0:0:0:0:
225,150,4195,1,0,0:0:0:0:
226,138,4528,1,0,0:0:0:0:
228,137,4862,1,0,0:0:0:0:
228,137,5028,1,8,0:0:0:0:
252,139,5112,1,8,0:0:0:0:
228,137,5195,1,0,0:0:0:0:
209,98,5362,1,8,0:0:0:0:
209,98,5528,1,0,0:0:0:0:
282,153,5862,1,0,0:0:0:0:
259,156,6195,1,0,0:0:0:0:
259,156,6362,1,8,0:0:0:0:
260,154,6528,1,0,0:0:0:0:
260,153,6695,1,8,0:0:0:0:
260,152,6862,1,0,0:0:0:0:
259,156,7195,1,0,0:0:0:0:
260,154,7528,1,0,0:0:0:0:
260,153,7695,1,0,0:0:0:0:
260,152,7778,1,0,0:0:0:0:
260,152,7862,1,0,0:0:0:0:
259,150,8028,1,8,0:0:0:0:
260,150,8195,1,0,0:0:0:0:
248,148,8528,1,0,0:0:0:0:
249,148,8862,1,0,0:0:0:0:
249,148,9028,1,8,0:0:0:0:
250,147,9195,1,0,0:0:0:0:
248,148,9362,1,8,0:0:0:0:
252,145,9528,1,0,0:0:0:0:
249,148,9862,1,0,0:0:0:0:
250,147,10195,1,0,0:0:0:0:
252,145,10362,1,8,0:0:0:0:
245,136,10445,1,8,0:0:0:0:
252,145,10528,1,0,0:0:0:0:
249,148,10695,1,8,0:0:0:0:
252,144,10862,1,0,0:0:0:0:
250,147,11195,1,0,0:0:0:0:
252,145,11528,1,0,0:0:0:0:
250,142,11695,1,8,0:0:0:0:
252,144,11862,1,0,0:0:0:0:
250,140,12028,1,8,0:0:0:0:
250,140,12195,1,0,0:0:0:0:
249,139,12528,1,0,0:0:0:0:
250,142,12695,1,0,0:0:0:0:
248,139,12862,1,0,0:0:0:0:
250,140,13028,1,0,0:0:0:0:
355,187,13195,2,0,L|266:250,1,105
228,136,13862,1,4,0:0:0:0:
229,163,14112,1,8,0:0:0:0:
229,163,14195,1,0,0:0:0:0:
229,163,14362,1,8,0:0:0:0:
229,163,14528,1,0,0:0:0:0:
229,163,14695,1,8,0:0:0:0:
229,163,14862,1,0,0:0:0:0:
229,163,15028,1,8,0:0:0:0:
229,163,15195,1,0,0:0:0:0:
229,163,15445,1,8,0:0:0:0:
229,163,15528,1,0,0:0:0:0:
229,163,15695,1,8,0:0:0:0:
229,163,15862,1,0,0:0:0:0:
229,163,16028,1,0,0:0:0:0:
229,163,16195,1,8,0:0:0:0:
229,163,16362,1,0,0:0:0:0:
229,163,16528,1,0,0:0:0:0:
229,163,16778,1,8,0:0:0:0:
229,163,16862,1,0,0:0:0:0:
229,163,17028,1,8,0:0:0:0:
229,163,17195,1,0,0:0:0:0:
229,163,17362,1,8,0:0:0:0:
229,163,17528,1,0,0:0:0:0:
229,163,17695,1,8,0:0:0:0:
229,163,17862,1,0,0:0:0:0:
229,163,18112,1,8,0:0:0:0:
229,163,18195,1,0,0:0:0:0:
229,163,18362,1,8,0:0:0:0:
229,163,18528,1,0,0:0:0:0:
229,163,18695,1,0,0:0:0:0:
229,163,18862,1,8,0:0:0:0:
229,163,19028,1,0,0:0:0:0:
229,163,19112,1,0,0:0:0:0:
229,163,19195,1,0,0:0:0:0:
229,163,19445,1,8,0:0:0:0:
229,163,19528,1,0,0:0:0:0:
229,163,19695,1,8,0:0:0:0:
229,163,19862,1,0,0:0:0:0:
229,163,20028,1,8,0:0:0:0:
229,163,20195,1,0,0:0:0:0:
230,158,20362,1,8,0:0:0:0:
231,157,20528,1,0,0:0:0:0:
231,157,20778,5,8,0:0:0:0:
231,157,20862,1,0,0:0:0:0:
231,157,21028,1,8,0:0:0:0:
231,157,21195,1,0,0:0:0:0:
230,158,21362,1,0,0:0:0:0:
231,157,21528,1,8,0:0:0:0:
231,157,21695,1,8,0:0:0:0:
250,171,21862,5,0,0:0:0:0:
250,171,22028,1,0,0:0:0:0:
250,171,22195,1,0,0:0:0:0:
250,171,22362,1,0,0:0:0:0:
250,171,22528,1,0,0:0:0:0:
250,171,22695,1,0,0:0:0:0:
250,171,22862,1,0,0:0:0:0:
250,171,23028,1,0,0:0:0:0:
332,137,23195,6,0,B|131:55|131:55|80:254,1,420
225,166,24528,1,4,0:0:0:0:
219,167,25195,1,0,0:0:0:0:
225,166,25528,1,0,0:0:0:0:
213,130,25695,1,0,0:0:0:0:
219,167,25862,1,8,0:0:0:0:
167,69,26195,1,8,0:0:0:0:
207,162,26362,1,0,0:0:0:0:
173,112,26528,1,8,0:0:0:0:
180,154,27195,1,0,0:0:0:0:
214,139,27528,1,0,0:0:0:0:
212,169,27695,1,0,0:0:0:0:
214,139,27862,1,8,0:0:0:0:
214,139,28195,1,8,0:0:0:0:
214,139,28362,1,8,0:0:0:0:
214,139,28695,1,8,0:0:0:0:
214,139,28862,1,8,0:0:0:0:
214,139,29195,1,8,0:0:0:0:
214,139,29528,1,8,0:0:0:0:
214,139,29695,1,8,0:0:0:0:
214,139,29862,1,0,0:0:0:0:
233,142,30528,1,0,0:0:0:0:
233,142,30862,1,0,0:0:0:0:
233,142,31028,1,0,0:0:0:0:
233,142,31195,1,8,0:0:0:0:
233,142,31528,1,8,0:0:0:0:
202,159,31695,1,0,0:0:0:0:
233,142,31862,1,8,0:0:0:0:
208,100,32528,1,0,0:0:0:0:
208,100,32862,1,0,0:0:0:0:
208,100,33028,1,0,0:0:0:0:
208,100,33195,1,8,0:0:0:0:
208,100,33528,1,8,0:0:0:0:
208,100,33695,1,8,0:0:0:0:
208,100,34028,1,8,0:0:0:0:
208,100,34195,1,8,0:0:0:0:
256,192,34528,12,0,34862,0:0:0:0:
216,171,35195,5,4,0:0:0:0:
216,171,35362,1,0,0:0:0:0:
216,171,35528,1,8,0:0:0:0:
216,171,35695,1,8,0:0:0:0:
216,171,35862,1,0,0:0:0:0:
216,171,36028,1,0,0:0:0:0:
188,136,36112,1,0,0:0:0:0:
216,171,36195,1,0,0:0:0:0:
255,185,36362,1,0,0:0:0:0:
210,166,36445,1,0,0:0:0:0:
216,171,36528,1,0,0:0:0:0:
216,171,36695,1,0,0:0:0:0:
216,171,36862,1,8,0:0:0:0:
216,171,37028,1,8,0:0:0:0:
216,171,37195,1,0,0:0:0:0:
216,171,37528,1,0,0:0:0:0:
207,132,37695,1,0,0:0:0:0:
207,132,37778,1,0,0:0:0:0:
216,171,37862,1,0,0:0:0:0:
216,171,38028,1,0,0:0:0:0:
216,171,38195,1,8,0:0:0:0:
216,171,38362,1,8,0:0:0:0:
216,171,38528,1,0,0:0:0:0:
216,171,38695,1,0,0:0:0:0:
223,146,38778,1,0,0:0:0:0:
216,171,38862,1,0,0:0:0:0:
197,151,39028,1,0,0:0:0:0:
197,151,39112,1,0,0:0:0:0:
216,171,39195,1,0,0:0:0:0:
216,171,39362,1,0,0:0:0:0:
216,171,39528,1,8,0:0:0:0:
216,171,39695,1,8,0:0:0:0:
216,171,39862,1,0,0:0:0:0:
216,171,40195,1,0,0:0:0:0:
216,171,40528,1,0,0:0:0:0:
216,171,40695,1,0,0:0:0:0:
216,171,40862,1,8,0:0:0:0:
216,171,41028,1,8,0:0:0:0:
216,171,41195,1,0,0:0:0:0:
216,171,41362,1,0,0:0:0:0:
204,149,41445,1,0,0:0:0:0:
216,171,41528,1,0,0:0:0:0:
131,152,41695,1,0,0:0:0:0:
133,147,41778,1,0,0:0:0:0:
216,171,41862,1,0,0:0:0:0:
216,171,42028,1,0,0:0:0:0:
216,171,42195,1,8,0:0:0:0:
216,171,42362,1,8,0:0:0:0:
216,171,42528,1,0,0:0:0:0:
216,171,42862,1,0,0:0:0:0:
221,158,43028,1,0,0:0:0:0:
224,156,43112,1,0,0:0:0:0:
221,158,43195,1,0,0:0:0:0:
216,171,43362,1,0,0:0:0:0:
216,171,43528,1,8,0:0:0:0:
216,171,43695,1,8,0:0:0:0:
216,171,43862,1,0,0:0:0:0:
216,171,44028,1,0,0:0:0:0:
207,144,44112,1,0,0:0:0:0:
216,171,44195,1,0,0:0:0:0:
214,141,44362,1,0,0:0:0:0:
256,192,44528,12,0,45528,0:0:0:0:
237,153,45862,5,4,0:0:0:0:
216,101,46195,1,0,0:0:0:0:
216,101,46362,1,8,0:0:0:0:
216,101,46528,1,0,0:0:0:0:
216,101,46695,1,8,0:0:0:0:
216,101,46862,1,0,0:0:0:0:
191,92,47028,1,8,0:0:0:0:
191,92,47112,1,8,0:0:0:0:
196,92,47195,1,0,0:0:0:0:
210,112,47528,1,0,0:0:0:0:
210,112,47695,1,8,0:0:0:0:
209,112,47862,1,0,0:0:0:0:
209,112,48028,1,0,0:0:0:0:
208,107,48195,1,8,0:0:0:0:
208,107,48362,1,8,0:0:0:0:
208,107,48528,1,0,0:0:0:0:
166,133,48862,1,0,0:0:0:0:
166,133,49028,1,8,0:0:0:0:
166,133,49195,1,0,0:0:0:0:
166,133,49362,1,8,0:0:0:0:
166,133,49528,1,0,0:0:0:0:
166,133,49695,1,8,0:0:0:0:
166,133,49778,1,8,0:0:0:0:
162,129,49862,1,0,0:0:0:0:
162,129,50195,1,0,0:0:0:0:
166,133,50362,1,8,0:0:0:0:
166,133,50528,1,8,0:0:0:0:
154,139,50612,1,8,0:0:0:0:
166,133,50695,1,8,0:0:0:0:
154,139,50862,1,8,0:0:0:0:
174,145,50945,1,8,0:0:0:0:
153,139,51028,1,8,0:0:0:0:
153,139,51195,1,0,0:0:0:0:
180,136,51528,1,0,0:0:0:0:
180,136,51695,1,8,0:0:0:0:
180,136,51862,1,0,0:0:0:0:
180,136,52028,1,8,0:0:0:0:
180,136,52195,1,0,0:0:0:0:
180,136,52362,1,8,0:0:0:0:
174,111,52445,5,8,0:0:0:0:
174,111,52528,1,0,0:0:0:0:
174,111,52862,1,0,0:0:0:0:
174,111,53028,1,8,0:0:0:0:
174,111,53195,1,0,0:0:0:0:
174,111,53362,1,0,0:0:0:0:
174,111,53528,1,8,0:0:0:0:
174,111,53695,1,8,0:0:0:0:
174,111,53862,1,0,0:0:0:0:
173,158,54195,1,0,0:0:0:0:
173,158,54362,1,8,0:0:0:0:
173,158,54528,1,0,0:0:0:0:
173,158,54695,1,8,0:0:0:0:
173,158,54862,1,0,0:0:0:0:
173,158,55028,1,8,0:0:0:0:
173,158,55112,1,8,0:0:0:0:
173,158,55195,1,0,0:0:0:0:
166,154,55362,1,0,0:0:0:0:
197,149,55528,1,0,0:0:0:0:
186,133,55695,1,0,0:0:0:0:
313,201,55862,2,0,L|206:246,1,105
249,147,56528,1,4,0:0:0:0:
253,149,56862,1,0,0:0:0:0:
253,149,57028,1,8,0:0:0:0:
253,149,57195,1,0,0:0:0:0:
253,149,57362,1,8,0:0:0:0:
254,149,57528,1,0,0:0:0:0:
253,149,57695,1,8,0:0:0:0:
251,142,57778,1,8,0:0:0:0:
251,142,57862,1,0,0:0:0:0:
193,150,58195,1,0,0:0:0:0:
193,150,58362,1,8,0:0:0:0:
193,150,58528,1,0,0:0:0:0:
185,150,58612,1,0,0:0:0:0:
193,150,58695,1,0,0:0:0:0:
193,150,58862,1,8,0:0:0:0:
193,150,59028,1,8,0:0:0:0:
193,150,59195,1,0,0:0:0:0:
193,150,59528,1,0,0:0:0:0:
193,150,59695,1,8,0:0:0:0:
193,150,59862,1,0,0:0:0:0:
193,150,60028,1,8,0:0:0:0:
193,150,60195,1,0,0:0:0:0:
193,150,60362,1,8,0:0:0:0:
193,150,60445,1,8,0:0:0:0:
193,150,60528,1,0,0:0:0:0:
187,145,60862,1,0,0:0:0:0:
190,145,61028,1,8,0:0:0:0:
191,145,61195,1,8,0:0:0:0:
191,145,61278,1,8,0:0:0:0:
190,145,61362,1,8,0:0:0:0:
190,145,61528,1,8,0:0:0:0:
187,145,61612,1,8,0:0:0:0:
187,145,61695,1,8,0:0:0:0:
187,145,61862,1,0,0:0:0:0:
191,145,62195,1,0,0:0:0:0:
190,145,62362,1,8,0:0:0:0:
190,145,62528,1,0,0:0:0:0:
187,145,62695,1,8,0:0:0:0:
187,145,62862,1,0,0:0:0:0:
191,145,63028,1,8,0:0:0:0:
191,145,63112,1,8,0:0:0:0:
191,145,63195,1,0,0:0:0:0:
201,141,63528,1,0,0:0:0:0:
201,141,63695,1,8,0:0:0:0:
201,141,63862,1,0,0:0:0:0:
200,139,63945,1,0,0:0:0:0:
199,139,64028,1,0,0:0:0:0:
201,141,64195,1,8,0:0:0:0:
201,141,64362,1,8,0:0:0:0:
201,141,64528,1,0,0:0:0:0:
222,146,64695,1,0,0:0:0:0:
222,146,64862,1,0,0:0:0:0:
244,143,65028,1,0,0:0:0:0:
244,143,65195,1,0,0:0:0:0:
244,143,65278,1,0,0:0:0:0:
244,143,65362,1,0,0:0:0:0:
244,143,65528,1,0,0:0:0:0:
244,143,65612,1,0,0:0:0:0:
243,143,65695,1,0,0:0:0:0:
256,192,65862,12,0,66862,0:0:0:0:
271,152,67195,5,4,0:0:0:0:
252,169,67862,1,8,0:0:0:0:
252,169,68112,1,8,0:0:0:0:
252,169,68362,1,8,0:0:0:0:
252,169,69195,1,0,0:0:0:0:
252,169,69445,1,0,0:0:0:0:
252,169,69695,1,0,0:0:0:0:
252,169,69862,1,8,0:0:0:0:
252,169,70528,1,8,0:0:0:0:
252,169,70778,1,8,0:0:0:0:
252,169,71028,1,8,0:0:0:0:
252,169,71862,1,8,0:0:0:0:
252,169,72112,1,8,0:0:0:0:
252,169,72362,1,8,0:0:0:0:
252,169,72528,1,0,0:0:0:0:
241,155,73195,1,8,0:0:0:0:
242,155,73445,1,8,0:0:0:0:
241,155,73695,1,8,0:0:0:0:
170,142,74528,1,0,0:0:0:0:
170,142,74778,1,0,0:0:0:0:
170,142,75028,1,0,0:0:0:0:
170,142,75195,1,8,0:0:0:0:
180,137,75862,1,8,0:0:0:0:
180,137,76112,1,8,0:0:0:0:
180,137,76362,1,8,0:0:0:0:
180,137,77195,1,8,0:0:0:0:
180,137,77528,1,8,0:0:0:0:
216,171,77862,5,4,0:0:0:0:
216,171,78029,1,0,0:0:0:0:
216,171,78195,1,8,0:0:0:0:
216,171,78362,1,8,0:0:0:0:
216,171,78529,1,0,0:0:0:0:
216,171,78695,1,0,0:0:0:0:
188,136,78779,1,0,0:0:0:0:
216,171,78862,1,0,0:0:0:0:
255,185,79029,1,0,0:0:0:0:
210,166,79112,1,0,0:0:0:0:
216,171,79195,1,0,0:0:0:0:
216,171,79362,1,0,0:0:0:0:
216,171,79529,1,8,0:0:0:0:
216,171,79695,1,8,0:0:0:0:
216,171,79862,1,0,0:0:0:0:
216,171,80195,1,0,0:0:0:0:
207,132,80362,1,0,0:0:0:0:
207,132,80445,1,0,0:0:0:0:
216,171,80529,1,0,0:0:0:0:
216,171,80695,1,0,0:0:0:0:
216,171,80862,1,8,0:0:0:0:
216,171,81029,1,8,0:0:0:0:
216,171,81195,1,0,0:0:0:0:
216,171,81362,1,0,0:0:0:0:
223,146,81445,1,0,0:0:0:0:
216,171,81529,1,0,0:0:0:0:
197,151,81695,1,0,0:0:0:0:
197,151,81779,1,0,0:0:0:0:
216,171,81862,1,0,0:0:0:0:
216,171,82029,1,0,0:0:0:0:
216,171,82195,1,8,0:0:0:0:
216,171,82362,1,8,0:0:0:0:
216,171,82529,1,0,0:0:0:0:
216,171,82862,1,0,0:0:0:0:
216,171,83195,1,0,0:0:0:0:
216,171,83362,1,0,0:0:0:0:
216,171,83529,1,8,0:0:0:0:
216,171,83695,1,8,0:0:0:0:
216,171,83862,1,0,0:0:0:0:
216,171,84029,1,0,0:0:0:0:
204,149,84112,1,0,0:0:0:0:
216,171,84195,1,0,0:0:0:0:
131,152,84362,1,0,0:0:0:0:
133,147,84445,1,0,0:0:0:0:
216,171,84529,1,0,0:0:0:0:
216,171,84695,1,0,0:0:0:0:
216,171,84862,1,8,0:0:0:0:
216,171,85029,1,8,0:0:0:0:
216,171,85195,1,0,0:0:0:0:
216,171,85529,1,0,0:0:0:0:
221,158,85695,1,0,0:0:0:0:
224,156,85779,1,0,0:0:0:0:
221,158,85862,1,0,0:0:0:0:
216,171,86029,1,0,0:0:0:0:
216,171,86195,1,8,0:0:0:0:
216,171,86362,1,8,0:0:0:0:
216,171,86529,1,0,0:0:0:0:
216,171,86695,1,0,0:0:0:0:
207,144,86779,1,0,0:0:0:0:
216,171,86862,1,0,0:0:0:0:
214,141,87029,1,0,0:0:0:0:
256,192,87195,12,0,88195,0:0:0:0:
243,171,88528,5,4,0:0:0:0:
248,191,88862,1,0,0:0:0:0:
248,191,89028,1,8,0:0:0:0:
248,191,89195,1,0,0:0:0:0:
90,143,89362,1,0,0:0:0:0:
90,143,89445,1,0,0:0:0:0:
248,191,89528,1,0,0:0:0:0:
186,176,89695,1,8,0:0:0:0:
186,176,89862,1,0,0:0:0:0:
191,175,90195,1,0,0:0:0:0:
192,175,90362,1,8,0:0:0:0:
192,175,90528,1,0,0:0:0:0:
192,175,90695,1,8,0:0:0:0:
192,175,90778,1,8,0:0:0:0:
186,176,90862,1,0,0:0:0:0:
191,175,91028,1,8,0:0:0:0:
191,175,91195,1,0,0:0:0:0:
198,145,91528,1,0,0:0:0:0:
208,140,91695,5,8,0:0:0:0:
210,135,91862,1,0,0:0:0:0:
217,131,92028,1,0,0:0:0:0:
220,128,92112,1,0,0:0:0:0:
210,135,92195,1,0,0:0:0:0:
210,135,92362,1,8,0:0:0:0:
210,135,92528,1,0,0:0:0:0:
210,135,92862,1,0,0:0:0:0:
210,135,93028,1,8,0:0:0:0:
210,135,93195,1,0,0:0:0:0:
210,135,93362,1,8,0:0:0:0:
210,135,93445,1,8,0:0:0:0:
210,135,93528,1,8,0:0:0:0:
210,135,93695,1,8,0:0:0:0:
210,135,93862,1,0,0:0:0:0:
217,131,94195,1,0,0:0:0:0:
217,131,94362,1,8,0:0:0:0:
217,131,94528,1,0,0:0:0:0:
210,135,94695,1,0,0:0:0:0:
131,131,94778,1,0,0:0:0:0:
217,131,94862,1,0,0:0:0:0:
219,129,95028,1,8,0:0:0:0:
217,131,95195,1,0,0:0:0:0:
221,178,95528,1,0,0:0:0:0:
221,178,95695,1,8,0:0:0:0:
216,179,95862,1,0,0:0:0:0:
221,178,96028,1,8,0:0:0:0:
221,178,96112,1,8,0:0:0:0:
228,178,96195,1,0,0:0:0:0:
228,178,96362,1,8,0:0:0:0:
231,177,96528,1,0,0:0:0:0:
218,145,96862,1,0,0:0:0:0:
218,145,97028,1,8,0:0:0:0:
218,145,97195,1,0,0:0:0:0:
186,136,97362,1,0,0:0:0:0:
186,136,97445,1,0,0:0:0:0:
218,145,97528,1,0,0:0:0:0:
218,145,97695,1,8,0:0:0:0:
253,183,97862,5,0,0:0:0:0:
253,183,98028,1,0,0:0:0:0:
253,183,98195,1,0,0:0:0:0:
253,183,98362,1,0,0:0:0:0:
318,156,98528,2,0,L|208:165,1,105
230,159,99195,1,4,0:0:0:0:
234,165,99528,1,0,0:0:0:0:
239,165,99695,1,8,0:0:0:0:
239,165,99862,1,0,0:0:0:0:
234,165,100028,1,0,0:0:0:0:
148,124,100112,1,0,0:0:0:0:
237,174,100195,1,0,0:0:0:0:
238,172,100362,1,8,0:0:0:0:
238,172,100528,1,0,0:0:0:0:
240,171,100862,1,0,0:0:0:0:
240,171,101028,1,8,0:0:0:0:
240,170,101195,1,0,0:0:0:0:
238,172,101362,1,8,0:0:0:0:
238,172,101445,1,8,0:0:0:0:
238,172,101528,1,0,0:0:0:0:
240,171,101695,1,8,0:0:0:0:
244,167,101862,1,0,0:0:0:0:
247,147,102195,1,0,0:0:0:0:
247,147,102362,1,8,0:0:0:0:
247,147,102528,1,0,0:0:0:0:
258,147,102695,1,0,0:0:0:0:
183,145,102778,1,0,0:0:0:0:
248,144,102862,1,0,0:0:0:0:
248,144,103028,1,8,0:0:0:0:
247,147,103195,1,0,0:0:0:0:
247,147,103362,1,0,0:0:0:0:
247,147,103528,1,0,0:0:0:0:
248,144,103695,1,0,0:0:0:0:
342,292,103862,2,0,L|239:266,1,105
238,129,104528,1,4,0:0:0:0:
240,129,104695,1,0,0:0:0:0:
240,129,104862,1,8,0:0:0:0:
240,129,105028,1,0,0:0:0:0:
238,129,105195,1,8,0:0:0:0:
238,129,105278,1,8,0:0:0:0:
238,129,105362,1,8,0:0:0:0:
238,129,105528,1,8,0:0:0:0:
257,115,105862,1,0,0:0:0:0:
254,113,106028,1,0,0:0:0:0:
255,111,106195,1,8,0:0:0:0:
255,111,106362,1,0,0:0:0:0:
254,111,106528,1,8,0:0:0:0:
257,115,106612,1,8,0:0:0:0:
257,115,106695,1,8,0:0:0:0:
253,110,106862,1,8,0:0:0:0:
243,98,107195,1,0,0:0:0:0:
243,98,107362,1,0,0:0:0:0:
243,98,107528,1,8,0:0:0:0:
243,98,107695,1,0,0:0:0:0:
243,98,107862,1,8,0:0:0:0:
243,98,107945,1,8,0:0:0:0:
243,98,108028,1,8,0:0:0:0:
243,98,108195,1,8,0:0:0:0:
208,131,108362,1,0,0:0:0:0:
204,166,108445,1,0,0:0:0:0:
238,95,108528,1,0,0:0:0:0:
238,95,108695,1,0,0:0:0:0:
238,95,108862,1,8,0:0:0:0:
238,95,109028,1,0,0:0:0:0:
238,95,109195,1,8,0:0:0:0:
238,95,109278,1,8,0:0:0:0:
238,95,109362,1,8,0:0:0:0:
238,95,109528,1,8,0:0:0:0:
238,95,109695,1,0,0:0:0:0:
191,109,109862,5,4,0:0:0:0:
