osu file format v14

[General]
AudioFilename: audio.mp3
AudioLeadIn: 0
PreviewTime: 88528
Countdown: 0
SampleSet: Normal
StackLeniency: 0.7
Mode: 1
LetterboxInBreaks: 0
WidescreenStoryboard: 0

[Editor]
DistanceSpacing: 0.8
BeatDivisor: 4
GridSize: 4
TimelineZoom: 2.799999

[Metadata]
Title:Verflucht
TitleUnicode:Verflucht
Artist:Tyrfing
ArtistUnicode:Tyrfing
Creator:MMzz
Version:Leggendaria
Source:beatmania IIDX 21 SPADA
Tags:Hommarju HARD NRG Rhytoly Vulkin
BeatmapID:1950426
BeatmapSetID:934209

[Difficulty]
HPDrainRate:6
CircleSize:5
OverallDifficulty:7
ApproachRate:5
SliderMultiplier:1.4
SliderTickRate:1

[Events]
//Background and Video events
0,0,"vbg.jpg",0,85
//Break Periods
//Storyboard Layer 0 (Background)
//Storyboard Layer 1 (Fail)
//Storyboard Layer 2 (Pass)
//Storyboard Layer 3 (Foreground)
//Storyboard Layer 4 (Overlay)
//Storyboard Sound Samples

[TimingPoints]
529,333.333333333333,4,1,0,100,1,0
88528,-100,4,1,0,100,0,1
109862,-100,4,1,0,100,0,0

[HitObjects]
288,192,529,5,4,0:0:0:0:
288,192,1028,1,4,0:0:0:0:
288,192,1529,1,4,0:0:0:0:
288,192,2029,1,4,0:0:0:0:
288,192,2362,1,12,0:0:0:0:
160,128,2695,1,4,0:0:0:0:
160,128,2862,1,12,0:0:0:0:
228,148,3195,1,8,0:0:0:0:
227,108,3278,1,0,0:0:0:0:
228,148,3362,1,8,0:0:0:0:
228,148,3445,1,8,0:0:0:0:
212,112,3528,1,0,0:0:0:0:
200,112,3695,1,8,0:0:0:0:
192,112,3778,1,8,0:0:0:0:
192,112,3862,1,0,0:0:0:0:
192,112,4028,1,8,0:0:0:0:
192,112,4195,1,0,0:0:0:0:
192,108,4278,1,8,0:0:0:0:
192,108,4362,1,0,0:0:0:0:
183,79,4445,1,0,0:0:0:0:
192,104,4528,1,8,0:0:0:0:
194,52,4612,1,8,0:0:0:0:
192,104,4695,1,0,0:0:0:0:
188,104,4778,1,8,0:0:0:0:
188,104,4862,1,0,0:0:0:0:
192,104,5028,1,8,0:0:0:0:
188,104,5112,1,8,0:0:0:0:
192,104,5195,1,0,0:0:0:0:
192,104,5362,1,8,0:0:0:0:
192,104,5528,1,8,0:0:0:0:
192,104,5612,1,8,0:0:0:0:
192,104,5695,1,0,0:0:0:0:
178,81,5778,1,0,0:0:0:0:
188,104,5862,1,8,0:0:0:0:
192,104,5945,1,0,0:0:0:0:
192,104,6028,1,8,0:0:0:0:
188,104,6112,1,8,0:0:0:0:
192,104,6195,1,0,0:0:0:0:
164,148,6362,1,8,0:0:0:0:
164,148,6445,1,8,0:0:0:0:
164,148,6528,1,0,0:0:0:0:
156,144,6695,1,8,0:0:0:0:
152,144,6862,1,0,0:0:0:0:
152,144,6945,1,8,0:0:0:0:
152,144,7028,1,0,0:0:0:0:
173,82,7112,1,0,0:0:0:0:
152,144,7195,1,8,0:0:0:0:
152,140,7278,1,8,0:0:0:0:
152,140,7362,1,0,0:0:0:0:
156,140,7445,1,0,0:0:0:0:
152,140,7528,1,8,0:0:0:0:
112,144,7695,1,8,0:0:0:0:
112,144,7778,1,8,0:0:0:0:
112,144,7862,1,0,0:0:0:0:
112,144,8028,1,8,0:0:0:0:
112,144,8195,1,8,0:0:0:0:
112,144,8278,1,8,0:0:0:0:
112,144,8362,1,0,0:0:0:0:
112,144,8445,1,0,0:0:0:0:
112,144,8528,1,8,0:0:0:0:
112,144,8612,1,0,0:0:0:0:
104,140,8695,1,8,0:0:0:0:
104,140,8778,1,8,0:0:0:0:
104,140,8862,1,0,0:0:0:0:
212,144,9028,1,8,0:0:0:0:
212,144,9112,1,8,0:0:0:0:
212,144,9195,1,0,0:0:0:0:
212,144,9362,1,8,0:0:0:0:
219,137,9528,1,0,0:0:0:0:
214,139,9612,1,8,0:0:0:0:
214,139,9695,1,0,0:0:0:0:
194,97,9778,1,0,0:0:0:0:
212,144,9862,1,8,0:0:0:0:
212,144,9945,1,8,0:0:0:0:
212,144,10028,1,0,0:0:0:0:
212,144,10112,1,0,0:0:0:0:
212,144,10195,1,8,0:0:0:0:
201,168,10362,1,8,0:0:0:0:
201,168,10445,1,8,0:0:0:0:
201,168,10528,1,0,0:0:0:0:
201,168,10695,1,8,0:0:0:0:
201,168,10862,1,8,0:0:0:0:
202,167,10945,1,8,0:0:0:0:
201,168,11028,1,0,0:0:0:0:
193,102,11112,1,0,0:0:0:0:
201,168,11195,1,8,0:0:0:0:
201,168,11278,1,8,0:0:0:0:
201,168,11362,5,0,0:0:0:0:
201,168,11445,1,8,0:0:0:0:
196,166,11528,1,8,0:0:0:0:
196,166,11695,1,8,0:0:0:0:
201,168,11778,1,8,0:0:0:0:
201,168,11862,1,0,0:0:0:0:
201,168,12028,1,8,0:0:0:0:
201,168,12195,1,8,0:0:0:0:
202,160,12278,1,8,0:0:0:0:
204,158,12362,1,0,0:0:0:0:
204,158,12445,1,8,0:0:0:0:
256,160,12529,5,0,0:0:0:0:
256,160,12695,1,0,0:0:0:0:
256,160,12862,1,8,0:0:0:0:
256,160,13029,1,0,0:0:0:0:
224,160,13195,1,0,0:0:0:0:
224,160,13279,1,0,0:0:0:0:
224,160,13362,1,0,0:0:0:0:
128,128,13445,1,0,0:0:0:0:
192,160,13862,1,4,0:0:0:0:
224,160,14028,1,8,0:0:0:0:
224,160,14112,1,0,0:0:0:0:
224,160,14195,1,0,0:0:0:0:
224,160,14278,1,8,0:0:0:0:
224,160,14362,1,0,0:0:0:0:
224,160,14445,1,0,0:0:0:0:
224,160,14528,1,8,0:0:0:0:
224,160,14612,1,8,0:0:0:0:
224,160,14695,1,0,0:0:0:0:
224,128,14778,1,8,0:0:0:0:
224,128,14862,1,8,0:0:0:0:
224,128,14945,1,0,0:0:0:0:
224,128,15028,1,8,0:0:0:0:
224,128,15195,1,0,0:0:0:0:
224,160,15362,1,8,0:0:0:0:
224,160,15445,1,8,0:0:0:0:
224,160,15528,1,0,0:0:0:0:
224,160,15612,1,8,0:0:0:0:
224,160,15695,1,8,0:0:0:0:
224,160,15778,1,0,0:0:0:0:
224,160,15862,1,8,0:0:0:0:
224,128,15945,1,0,0:0:0:0:
224,128,16028,1,0,0:0:0:0:
224,128,16112,1,8,0:0:0:0:
224,128,16195,1,0,0:0:0:0:
224,128,16278,1,0,0:0:0:0:
224,128,16362,1,8,0:0:0:0:
224,160,16528,1,0,0:0:0:0:
224,128,16695,1,8,0:0:0:0:
224,128,16778,1,8,0:0:0:0:
224,128,16862,1,0,0:0:0:0:
224,128,16945,1,8,0:0:0:0:
224,128,17028,1,0,0:0:0:0:
224,128,17112,1,0,0:0:0:0:
224,128,17195,1,8,0:0:0:0:
224,128,17278,1,0,0:0:0:0:
224,128,17362,1,0,0:0:0:0:
224,128,17445,1,8,0:0:0:0:
224,128,17528,1,0,0:0:0:0:
224,128,17612,1,8,0:0:0:0:
224,128,17695,1,8,0:0:0:0:
224,128,17862,1,0,0:0:0:0:
204,160,18028,1,8,0:0:0:0:
204,160,18112,1,8,0:0:0:0:
204,160,18195,1,0,0:0:0:0:
204,160,18278,1,8,0:0:0:0:
204,160,18362,1,0,0:0:0:0:
204,160,18445,1,0,0:0:0:0:
204,160,18528,1,8,0:0:0:0:
204,160,18612,1,0,0:0:0:0:
204,160,18695,1,0,0:0:0:0:
204,160,18778,1,8,0:0:0:0:
204,160,18862,1,8,0:0:0:0:
204,160,18945,1,0,0:0:0:0:
204,160,19028,1,8,0:0:0:0:
204,160,19112,1,8,0:0:0:0:
192,160,19195,1,0,0:0:0:0:
224,160,19361,1,8,0:0:0:0:
224,160,19445,1,0,0:0:0:0:
224,160,19528,1,0,0:0:0:0:
224,160,19611,1,8,0:0:0:0:
224,160,19695,1,0,0:0:0:0:
224,160,19778,1,0,0:0:0:0:
224,160,19861,1,8,0:0:0:0:
224,160,19945,1,8,0:0:0:0:
224,160,20028,1,0,0:0:0:0:
224,128,20111,1,8,0:0:0:0:
224,128,20195,1,8,0:0:0:0:
224,128,20278,1,0,0:0:0:0:
224,128,20361,1,8,0:0:0:0:
224,128,20528,1,0,0:0:0:0:
224,160,20695,1,8,0:0:0:0:
224,160,20778,1,8,0:0:0:0:
224,160,20861,1,0,0:0:0:0:
224,160,20945,1,8,0:0:0:0:
224,160,21028,1,8,0:0:0:0:
224,160,21111,1,0,0:0:0:0:
224,160,21195,1,8,0:0:0:0:
224,128,21278,1,0,0:0:0:0:
224,128,21361,1,0,0:0:0:0:
224,128,21445,1,8,0:0:0:0:
224,128,21528,1,0,0:0:0:0:
224,128,21611,1,0,0:0:0:0:
224,128,21695,1,8,0:0:0:0:
224,160,21862,1,0,0:0:0:0:
224,128,22028,1,0,0:0:0:0:
224,128,22112,1,8,0:0:0:0:
224,128,22195,1,0,0:0:0:0:
256,128,22362,1,0,0:0:0:0:
256,128,22528,1,0,0:0:0:0:
224,160,22612,1,8,0:0:0:0:
256,128,22695,1,0,0:0:0:0:
256,128,22778,1,8,0:0:0:0:
256,128,22862,1,0,0:0:0:0:
256,128,23028,1,0,0:0:0:0:
256,160,23195,1,0,0:0:0:0:
256,160,23278,1,8,0:0:0:0:
256,160,23362,1,0,0:0:0:0:
256,160,23445,1,0,0:0:0:0:
256,160,23528,1,8,0:0:0:0:
256,160,23612,1,0,0:0:0:0:
256,160,23695,1,8,0:0:0:0:
256,160,23778,1,8,0:0:0:0:
256,160,23862,1,0,0:0:0:0:
256,160,23945,1,8,0:0:0:0:
256,160,24028,1,0,0:0:0:0:
256,160,24112,1,0,0:0:0:0:
256,160,24195,1,8,0:0:0:0:
256,160,24278,1,8,0:0:0:0:
256,160,24362,1,8,0:0:0:0:
256,160,24445,1,8,0:0:0:0:
256,160,24528,1,4,0:0:0:0:
224,96,24695,1,0,0:0:0:0:
224,96,24862,1,0,0:0:0:0:
224,96,25028,1,8,0:0:0:0:
224,96,25195,1,8,0:0:0:0:
224,96,25362,1,8,0:0:0:0:
224,96,25528,1,0,0:0:0:0:
224,96,25695,1,0,0:0:0:0:
224,96,25862,1,8,0:0:0:0:
224,96,26028,1,8,0:0:0:0:
224,96,26195,1,0,0:0:0:0:
224,96,26362,1,0,0:0:0:0:
416,160,26528,2,0,P|216:288|216:288,1,210
128,176,27195,1,0,0:0:0:0:
128,176,27362,1,8,0:0:0:0:
128,176,27528,1,0,0:0:0:0:
128,176,27695,1,0,0:0:0:0:
212,168,27862,1,8,0:0:0:0:
184,164,28028,1,0,0:0:0:0:
212,168,28195,1,8,0:0:0:0:
212,168,28362,1,8,0:0:0:0:
192,164,28528,1,0,0:0:0:0:
212,168,28695,1,8,0:0:0:0:
212,168,28862,1,8,0:0:0:0:
192,164,29028,1,0,0:0:0:0:
212,168,29195,1,8,0:0:0:0:
192,164,29362,1,0,0:0:0:0:
212,168,29528,1,8,0:0:0:0:
212,168,29695,1,8,0:0:0:0:
192,164,29862,1,0,0:0:0:0:
192,164,30028,1,0,0:0:0:0:
192,164,30195,1,0,0:0:0:0:
200,164,30362,1,8,0:0:0:0:
200,164,30528,1,8,0:0:0:0:
200,164,30695,1,8,0:0:0:0:
200,164,30862,1,0,0:0:0:0:
200,164,31028,1,0,0:0:0:0:
200,164,31195,1,8,0:0:0:0:
200,164,31362,1,8,0:0:0:0:
168,176,31528,1,0,0:0:0:0:
168,176,31695,1,0,0:0:0:0:
460,240,31862,2,0,B|312:296|312:296|264:268,1,210
144,172,32528,1,0,0:0:0:0:
144,172,32695,1,8,0:0:0:0:
144,172,32862,1,0,0:0:0:0:
144,172,33028,1,0,0:0:0:0:
144,172,33195,1,8,0:0:0:0:
144,164,33362,1,0,0:0:0:0:
144,172,33528,1,8,0:0:0:0:
144,172,33695,1,8,0:0:0:0:
144,164,33862,1,0,0:0:0:0:
144,172,34028,1,8,0:0:0:0:
144,172,34195,1,8,0:0:0:0:
144,164,34362,1,0,0:0:0:0:
256,192,34528,12,0,35112,0:0:0:0:
175,162,35195,5,0,0:0:0:0:
175,162,35278,1,0,0:0:0:0:
175,162,35362,1,0,0:0:0:0:
175,162,35445,1,0,0:0:0:0:
193,154,35528,1,8,0:0:0:0:
192,155,35612,1,8,0:0:0:0:
191,154,35695,1,0,0:0:0:0:
191,154,35778,1,0,0:0:0:0:
185,151,35862,1,8,0:0:0:0:
185,151,35945,1,0,0:0:0:0:
186,151,36028,1,8,0:0:0:0:
182,151,36112,1,8,0:0:0:0:
207,160,36195,5,0,0:0:0:0:
208,149,36362,1,8,0:0:0:0:
206,149,36445,1,8,0:0:0:0:
206,149,36528,1,0,0:0:0:0:
206,149,36612,1,8,0:0:0:0:
206,149,36695,1,0,0:0:0:0:
207,148,36778,1,0,0:0:0:0:
185,151,36862,1,8,0:0:0:0:
177,154,36945,1,0,0:0:0:0:
178,154,37028,1,8,0:0:0:0:
182,151,37112,1,8,0:0:0:0:
207,160,37195,1,0,0:0:0:0:
207,160,37528,1,0,0:0:0:0:
185,174,37695,1,8,0:0:0:0:
185,174,37778,1,8,0:0:0:0:
198,174,37862,1,0,0:0:0:0:
198,174,37945,1,0,0:0:0:0:
198,174,38028,1,0,0:0:0:0:
203,175,38112,1,0,0:0:0:0:
203,175,38195,1,8,0:0:0:0:
203,175,38278,1,8,0:0:0:0:
203,175,38362,1,0,0:0:0:0:
203,175,38445,1,0,0:0:0:0:
203,175,38528,1,8,0:0:0:0:
203,175,38612,1,8,0:0:0:0:
204,175,38695,1,0,0:0:0:0:
204,175,38778,1,8,0:0:0:0:
237,179,38862,1,0,0:0:0:0:
168,171,39028,1,8,0:0:0:0:
168,171,39112,1,8,0:0:0:0:
205,159,39195,1,0,0:0:0:0:
205,159,39278,1,8,0:0:0:0:
205,159,39362,1,0,0:0:0:0:
205,159,39445,1,0,0:0:0:0:
205,159,39528,1,8,0:0:0:0:
205,159,39612,1,8,0:0:0:0:
205,159,39695,1,0,0:0:0:0:
205,159,39778,1,8,0:0:0:0:
237,179,39862,1,0,0:0:0:0:
218,166,40028,1,8,0:0:0:0:
218,166,40112,1,8,0:0:0:0:
218,166,40195,1,0,0:0:0:0:
218,166,40278,1,8,0:0:0:0:
226,161,40362,1,8,0:0:0:0:
226,161,40445,1,8,0:0:0:0:
235,152,40528,1,0,0:0:0:0:
235,152,40612,1,0,0:0:0:0:
235,152,40695,1,0,0:0:0:0:
233,152,40778,1,0,0:0:0:0:
233,152,40862,1,8,0:0:0:0:
234,152,40945,1,8,0:0:0:0:
234,152,41028,1,0,0:0:0:0:
238,152,41112,1,0,0:0:0:0:
238,152,41195,1,8,0:0:0:0:
238,152,41278,1,0,0:0:0:0:
238,152,41362,1,8,0:0:0:0:
232,151,41445,1,8,0:0:0:0:
237,179,41528,1,0,0:0:0:0:
225,160,41695,1,8,0:0:0:0:
227,160,41778,1,8,0:0:0:0:
227,160,41862,1,0,0:0:0:0:
227,160,41945,1,8,0:0:0:0:
229,160,42028,1,0,0:0:0:0:
228,161,42112,1,0,0:0:0:0:
228,158,42195,1,8,0:0:0:0:
228,158,42278,1,0,0:0:0:0:
228,158,42362,1,8,0:0:0:0:
228,158,42445,1,8,0:0:0:0:
237,179,42528,1,0,0:0:0:0:
237,179,42862,1,0,0:0:0:0:
214,156,43028,1,8,0:0:0:0:
214,156,43112,1,8,0:0:0:0:
217,156,43195,1,0,0:0:0:0:
217,156,43278,1,0,0:0:0:0:
217,156,43362,1,0,0:0:0:0:
216,156,43445,1,0,0:0:0:0:
214,156,43528,1,8,0:0:0:0:
214,156,43612,1,8,0:0:0:0:
214,156,43695,1,0,0:0:0:0:
214,156,43778,1,0,0:0:0:0:
211,147,43862,1,8,0:0:0:0:
211,147,43945,1,8,0:0:0:0:
207,125,44028,1,0,0:0:0:0:
207,125,44112,1,8,0:0:0:0:
241,175,44195,1,0,0:0:0:0:
193,125,44362,1,8,0:0:0:0:
193,125,44445,1,8,0:0:0:0:
232,144,44528,1,0,0:0:0:0:
209,124,44612,1,0,0:0:0:0:
208,124,44695,1,8,0:0:0:0:
208,124,44778,1,0,0:0:0:0:
208,124,44862,1,0,0:0:0:0:
209,124,44945,1,8,0:0:0:0:
207,125,45028,1,0,0:0:0:0:
211,123,45112,1,0,0:0:0:0:
241,175,45195,1,8,0:0:0:0:
184,142,45278,1,0,0:0:0:0:
214,162,45362,1,8,0:0:0:0:
214,162,45445,1,8,0:0:0:0:
238,151,45528,1,4,0:0:0:0:
211,130,45862,1,4,0:0:0:0:
227,145,46028,1,8,0:0:0:0:
225,149,46112,1,8,0:0:0:0:
225,149,46195,1,0,0:0:0:0:
225,149,46362,1,8,0:0:0:0:
225,149,46445,1,0,0:0:0:0:
226,149,46528,1,0,0:0:0:0:
226,149,46695,1,8,0:0:0:0:
211,130,46862,1,0,0:0:0:0:
211,134,46945,1,0,0:0:0:0:
217,133,47028,1,8,0:0:0:0:
217,133,47112,1,8,0:0:0:0:
216,133,47195,1,0,0:0:0:0:
218,133,47362,1,8,0:0:0:0:
176,89,47445,1,0,0:0:0:0:
176,89,47528,1,0,0:0:0:0:
176,89,47695,1,8,0:0:0:0:
176,89,47778,1,8,0:0:0:0:
176,89,47862,1,0,0:0:0:0:
176,89,48028,1,8,0:0:0:0:
176,89,48195,1,0,0:0:0:0:
176,89,48278,1,8,0:0:0:0:
176,89,48362,1,8,0:0:0:0:
176,89,48445,1,8,0:0:0:0:
176,89,48528,1,0,0:0:0:0:
188,106,48695,1,8,0:0:0:0:
188,106,48778,1,8,0:0:0:0:
187,106,48862,1,0,0:0:0:0:
187,106,49028,1,8,0:0:0:0:
187,106,49112,1,0,0:0:0:0:
187,106,49195,1,0,0:0:0:0:
183,143,49362,5,8,0:0:0:0:
183,143,49528,1,0,0:0:0:0:
183,143,49612,1,0,0:0:0:0:
183,143,49695,1,8,0:0:0:0:
183,143,49778,1,8,0:0:0:0:
183,143,49862,1,0,0:0:0:0:
183,143,50028,1,8,0:0:0:0:
183,143,50112,1,0,0:0:0:0:
183,143,50195,1,0,0:0:0:0:
183,143,50362,1,8,0:0:0:0:
186,170,50528,5,0,0:0:0:0:
186,170,50612,1,0,0:0:0:0:
186,170,50695,1,8,0:0:0:0:
186,170,50778,1,8,0:0:0:0:
190,168,50862,1,0,0:0:0:0:
186,170,50945,1,8,0:0:0:0:
191,166,51028,1,8,0:0:0:0:
193,166,51112,1,8,0:0:0:0:
196,165,51195,1,0,0:0:0:0:
184,102,51362,1,8,0:0:0:0:
184,102,51445,1,8,0:0:0:0:
184,102,51528,1,0,0:0:0:0:
184,102,51695,1,8,0:0:0:0:
184,102,51778,1,0,0:0:0:0:
184,102,51862,1,0,0:0:0:0:
184,102,52028,1,8,0:0:0:0:
184,110,52195,1,0,0:0:0:0:
184,110,52278,1,0,0:0:0:0:
187,110,52362,1,8,0:0:0:0:
188,110,52445,1,8,0:0:0:0:
189,110,52528,1,0,0:0:0:0:
191,111,52695,1,8,0:0:0:0:
191,111,52778,1,0,0:0:0:0:
193,111,52862,1,0,0:0:0:0:
192,111,53028,1,8,0:0:0:0:
192,111,53112,1,8,0:0:0:0:
194,111,53195,1,0,0:0:0:0:
194,111,53362,1,8,0:0:0:0:
189,110,53528,1,0,0:0:0:0:
191,111,53612,1,8,0:0:0:0:
191,111,53695,1,8,0:0:0:0:
196,111,53778,1,8,0:0:0:0:
193,111,53862,1,0,0:0:0:0:
192,111,54028,1,8,0:0:0:0:
192,111,54112,1,8,0:0:0:0:
194,111,54195,1,0,0:0:0:0:
199,110,54362,1,8,0:0:0:0:
199,110,54445,1,0,0:0:0:0:
199,110,54528,1,0,0:0:0:0:
205,118,54695,1,8,0:0:0:0:
207,115,54862,1,0,0:0:0:0:
207,115,54945,1,0,0:0:0:0:
207,115,55028,1,8,0:0:0:0:
207,115,55112,1,8,0:0:0:0:
208,111,55195,1,0,0:0:0:0:
216,150,55362,1,8,0:0:0:0:
216,150,55445,1,0,0:0:0:0:
216,150,55528,1,0,0:0:0:0:
216,150,55612,1,8,0:0:0:0:
216,150,55695,1,0,0:0:0:0:
216,150,55778,1,0,0:0:0:0:
222,150,55862,1,8,0:0:0:0:
222,150,55945,1,0,0:0:0:0:
222,150,56028,1,8,0:0:0:0:
222,150,56112,1,8,0:0:0:0:
228,121,56195,1,0,0:0:0:0:
153,161,56278,1,0,0:0:0:0:
228,121,56362,1,8,0:0:0:0:
200,136,56528,1,0,0:0:0:0:
200,136,56612,1,8,0:0:0:0:
200,136,56695,1,0,0:0:0:0:
200,136,56778,1,0,0:0:0:0:
187,111,56862,1,8,0:0:0:0:
187,111,56945,1,0,0:0:0:0:
187,111,57028,1,8,0:0:0:0:
187,111,57112,1,8,0:0:0:0:
187,111,57195,1,0,0:0:0:0:
187,111,57278,1,8,0:0:0:0:
187,111,57362,1,0,0:0:0:0:
187,111,57445,1,0,0:0:0:0:
187,111,57528,1,8,0:0:0:0:
187,111,57612,1,0,0:0:0:0:
187,111,57695,1,0,0:0:0:0:
187,111,57778,1,8,0:0:0:0:
187,111,57862,1,0,0:0:0:0:
163,170,57945,1,8,0:0:0:0:
163,170,58028,1,0,0:0:0:0:
163,170,58112,1,0,0:0:0:0:
163,170,58195,1,8,0:0:0:0:
163,170,58278,1,0,0:0:0:0:
163,170,58362,1,0,0:0:0:0:
163,170,58445,1,8,0:0:0:0:
163,170,58528,1,0,0:0:0:0:
163,170,58612,1,8,0:0:0:0:
163,170,58695,1,0,0:0:0:0:
163,170,58778,1,0,0:0:0:0:
165,135,58862,1,8,0:0:0:0:
165,135,58945,1,8,0:0:0:0:
165,135,59028,1,8,0:0:0:0:
167,130,59112,1,8,0:0:0:0:
167,130,59195,1,0,0:0:0:0:
171,108,59278,5,8,0:0:0:0:
174,107,59362,1,0,0:0:0:0:
175,107,59445,1,0,0:0:0:0:
177,106,59528,1,8,0:0:0:0:
177,106,59612,1,0,0:0:0:0:
178,106,59695,1,8,0:0:0:0:
178,106,59778,1,8,0:0:0:0:
178,106,59862,1,0,0:0:0:0:
174,106,59945,1,8,0:0:0:0:
176,109,60028,1,0,0:0:0:0:
177,108,60112,1,0,0:0:0:0:
177,106,60195,1,8,0:0:0:0:
177,106,60278,1,0,0:0:0:0:
174,107,60362,1,0,0:0:0:0:
175,107,60445,1,8,0:0:0:0:
177,106,60528,1,0,0:0:0:0:
177,106,60612,1,8,0:0:0:0:
178,106,60695,1,0,0:0:0:0:
178,106,60778,1,0,0:0:0:0:
178,106,60862,1,8,0:0:0:0:
174,106,60945,1,0,0:0:0:0:
176,109,61028,1,8,0:0:0:0:
177,108,61112,1,8,0:0:0:0:
137,161,61195,1,0,0:0:0:0:
137,161,61278,1,8,0:0:0:0:
137,161,61362,1,8,0:0:0:0:
137,161,61445,1,8,0:0:0:0:
137,161,61528,1,0,0:0:0:0:
137,161,61612,1,8,0:0:0:0:
137,161,61695,1,8,0:0:0:0:
137,161,61778,1,8,0:0:0:0:
176,148,61862,1,0,0:0:0:0:
200,136,61945,1,8,0:0:0:0:
200,136,62028,1,0,0:0:0:0:
200,136,62111,1,0,0:0:0:0:
187,111,62195,1,8,0:0:0:0:
187,111,62278,1,0,0:0:0:0:
187,111,62361,1,8,0:0:0:0:
187,111,62445,1,8,0:0:0:0:
187,111,62528,1,0,0:0:0:0:
187,111,62611,1,8,0:0:0:0:
187,111,62695,1,0,0:0:0:0:
187,111,62778,1,0,0:0:0:0:
187,111,62861,1,8,0:0:0:0:
187,111,62945,1,0,0:0:0:0:
187,111,63028,1,0,0:0:0:0:
187,111,63111,1,8,0:0:0:0:
187,111,63195,1,0,0:0:0:0:
163,170,63278,1,8,0:0:0:0:
163,170,63361,1,0,0:0:0:0:
163,170,63445,1,0,0:0:0:0:
163,170,63528,1,8,0:0:0:0:
163,170,63611,1,0,0:0:0:0:
163,170,63695,1,0,0:0:0:0:
163,170,63778,1,8,0:0:0:0:
163,170,63861,1,0,0:0:0:0:
163,170,63945,1,8,0:0:0:0:
163,170,64028,1,0,0:0:0:0:
163,170,64111,1,0,0:0:0:0:
165,135,64195,1,8,0:0:0:0:
165,135,64278,1,8,0:0:0:0:
165,135,64361,1,8,0:0:0:0:
167,130,64445,1,0,0:0:0:0:
167,130,64528,1,8,0:0:0:0:
199,156,64612,1,0,0:0:0:0:
199,156,64695,1,8,0:0:0:0:
199,156,64778,1,0,0:0:0:0:
199,156,64862,1,8,0:0:0:0:
199,156,64945,1,0,0:0:0:0:
199,156,65028,1,8,0:0:0:0:
199,156,65112,1,0,0:0:0:0:
199,156,65195,1,8,0:0:0:0:
199,156,65278,1,8,0:0:0:0:
202,147,65362,1,0,0:0:0:0:
202,147,65445,1,0,0:0:0:0:
202,147,65528,1,8,0:0:0:0:
202,147,65612,1,8,0:0:0:0:
202,147,65695,1,8,0:0:0:0:
203,147,65778,1,8,0:0:0:0:
206,143,65862,1,0,0:0:0:0:
206,143,65945,1,0,0:0:0:0:
206,143,66028,1,8,0:0:0:0:
206,143,66112,1,0,0:0:0:0:
206,143,66195,1,0,0:0:0:0:
207,143,66278,1,8,0:0:0:0:
207,143,66362,1,0,0:0:0:0:
207,143,66445,1,0,0:0:0:0:
209,143,66528,1,8,0:0:0:0:
209,143,66612,1,8,0:0:0:0:
209,143,66695,1,0,0:0:0:0:
210,143,66778,1,8,0:0:0:0:
194,143,66862,1,8,0:0:0:0:
199,142,66945,1,0,0:0:0:0:
199,142,67028,1,8,0:0:0:0:
200,142,67112,1,8,0:0:0:0:
201,142,67195,1,4,0:0:0:0:
263,193,67528,1,0,0:0:0:0:
263,193,67695,1,0,0:0:0:0:
263,193,67862,1,8,0:0:0:0:
263,193,68112,1,0,0:0:0:0:
263,193,68362,1,8,0:0:0:0:
150,174,68612,1,0,0:0:0:0:
256,193,68695,1,8,0:0:0:0:
263,193,68862,1,0,0:0:0:0:
263,193,69028,1,0,0:0:0:0:
263,193,69195,1,8,0:0:0:0:
256,193,69445,1,8,0:0:0:0:
256,193,69695,1,0,0:0:0:0:
267,178,69862,1,8,0:0:0:0:
267,178,69945,1,8,0:0:0:0:
251,167,70195,1,0,0:0:0:0:
223,151,70362,1,0,0:0:0:0:
223,151,70528,1,8,0:0:0:0:
223,151,70778,1,0,0:0:0:0:
223,151,71028,1,8,0:0:0:0:
173,120,71278,1,8,0:0:0:0:
173,120,71528,1,0,0:0:0:0:
173,120,71695,1,8,0:0:0:0:
173,120,71862,1,0,0:0:0:0:
174,105,72112,1,8,0:0:0:0:
174,105,72362,1,0,0:0:0:0:
174,105,72528,1,8,0:0:0:0:
174,105,72612,1,8,0:0:0:0:
258,169,72862,1,0,0:0:0:0:
258,169,73028,1,0,0:0:0:0:
258,169,73195,1,8,0:0:0:0:
258,169,73445,1,0,0:0:0:0:
258,169,73695,1,8,0:0:0:0:
210,112,73945,1,0,0:0:0:0:
241,181,74028,1,8,0:0:0:0:
258,169,74195,1,0,0:0:0:0:
258,169,74362,1,0,0:0:0:0:
258,169,74528,1,8,0:0:0:0:
256,174,74778,1,8,0:0:0:0:
256,174,75028,1,0,0:0:0:0:
253,200,75195,1,8,0:0:0:0:
253,200,75278,1,8,0:0:0:0:
262,186,75528,1,0,0:0:0:0:
261,186,75695,1,0,0:0:0:0:
263,186,75862,1,8,0:0:0:0:
260,186,76112,1,0,0:0:0:0:
262,186,76362,1,8,0:0:0:0:
256,180,76612,1,8,0:0:0:0:
252,182,76862,1,0,0:0:0:0:
251,182,77028,1,8,0:0:0:0:
251,182,77195,1,0,0:0:0:0:
151,146,77445,1,8,0:0:0:0:
151,146,77695,1,0,0:0:0:0:
175,162,77862,5,0,0:0:0:0:
175,162,77945,1,0,0:0:0:0:
175,162,78029,1,0,0:0:0:0:
175,162,78112,1,0,0:0:0:0:
193,154,78195,1,8,0:0:0:0:
192,155,78279,1,8,0:0:0:0:
191,154,78362,1,0,0:0:0:0:
191,154,78445,1,0,0:0:0:0:
185,151,78529,1,8,0:0:0:0:
185,151,78612,1,0,0:0:0:0:
186,151,78695,1,8,0:0:0:0:
182,151,78779,1,8,0:0:0:0:
207,160,78862,5,0,0:0:0:0:
208,149,79029,1,8,0:0:0:0:
206,149,79112,1,8,0:0:0:0:
206,149,79195,1,0,0:0:0:0:
206,149,79279,1,8,0:0:0:0:
206,149,79362,1,0,0:0:0:0:
207,148,79445,1,0,0:0:0:0:
185,151,79529,1,8,0:0:0:0:
177,154,79612,1,0,0:0:0:0:
178,154,79695,1,8,0:0:0:0:
182,151,79779,1,8,0:0:0:0:
207,160,79862,1,0,0:0:0:0:
207,160,80195,1,0,0:0:0:0:
185,174,80362,1,8,0:0:0:0:
185,174,80445,1,8,0:0:0:0:
198,174,80529,1,0,0:0:0:0:
198,174,80612,1,0,0:0:0:0:
198,174,80695,1,0,0:0:0:0:
203,175,80779,1,0,0:0:0:0:
203,175,80862,1,8,0:0:0:0:
203,175,80945,1,8,0:0:0:0:
203,175,81029,1,0,0:0:0:0:
203,175,81112,1,0,0:0:0:0:
203,175,81195,1,8,0:0:0:0:
203,175,81279,1,8,0:0:0:0:
204,175,81362,1,0,0:0:0:0:
204,175,81445,1,8,0:0:0:0:
237,179,81529,1,0,0:0:0:0:
168,171,81695,1,8,0:0:0:0:
168,171,81779,1,8,0:0:0:0:
205,159,81862,1,0,0:0:0:0:
205,159,81945,1,8,0:0:0:0:
205,159,82029,1,0,0:0:0:0:
205,159,82112,1,0,0:0:0:0:
205,159,82195,1,8,0:0:0:0:
205,159,82279,1,8,0:0:0:0:
205,159,82362,1,0,0:0:0:0:
205,159,82445,1,8,0:0:0:0:
237,179,82529,1,0,0:0:0:0:
218,166,82695,1,8,0:0:0:0:
218,166,82779,1,8,0:0:0:0:
218,166,82862,1,0,0:0:0:0:
218,166,82945,1,8,0:0:0:0:
226,161,83029,1,8,0:0:0:0:
226,161,83112,1,8,0:0:0:0:
235,152,83195,1,0,0:0:0:0:
235,152,83279,1,0,0:0:0:0:
235,152,83362,1,0,0:0:0:0:
233,152,83445,1,0,0:0:0:0:
233,152,83529,1,8,0:0:0:0:
234,152,83612,1,8,0:0:0:0:
234,152,83695,1,0,0:0:0:0:
238,152,83779,1,0,0:0:0:0:
238,152,83862,1,8,0:0:0:0:
238,152,83945,1,0,0:0:0:0:
238,152,84029,1,8,0:0:0:0:
232,151,84112,1,8,0:0:0:0:
237,179,84195,1,0,0:0:0:0:
225,160,84362,1,8,0:0:0:0:
227,160,84445,1,8,0:0:0:0:
227,160,84529,1,0,0:0:0:0:
227,160,84612,1,8,0:0:0:0:
229,160,84695,1,0,0:0:0:0:
228,161,84779,1,0,0:0:0:0:
228,158,84862,1,8,0:0:0:0:
228,158,84945,1,0,0:0:0:0:
228,158,85029,1,8,0:0:0:0:
228,158,85112,1,8,0:0:0:0:
237,179,85195,1,0,0:0:0:0:
237,179,85529,1,0,0:0:0:0:
214,156,85695,1,8,0:0:0:0:
214,156,85779,1,8,0:0:0:0:
217,156,85862,1,0,0:0:0:0:
217,156,85945,1,0,0:0:0:0:
217,156,86029,1,0,0:0:0:0:
216,156,86112,1,0,0:0:0:0:
214,156,86195,1,8,0:0:0:0:
214,156,86279,1,8,0:0:0:0:
214,156,86362,1,0,0:0:0:0:
214,156,86445,1,0,0:0:0:0:
211,147,86529,1,8,0:0:0:0:
211,147,86612,1,8,0:0:0:0:
207,125,86695,1,0,0:0:0:0:
207,125,86779,1,8,0:0:0:0:
241,175,86862,1,0,0:0:0:0:
194,96,87028,1,8,0:0:0:0:
194,96,87112,1,8,0:0:0:0:
234,143,87195,1,0,0:0:0:0:
234,143,87278,1,0,0:0:0:0:
234,143,87362,1,8,0:0:0:0:
234,143,87445,1,0,0:0:0:0:
234,143,87528,1,0,0:0:0:0:
234,143,87612,1,8,0:0:0:0:
234,143,87695,1,0,0:0:0:0:
234,143,87778,1,0,0:0:0:0:
234,143,87862,1,8,0:0:0:0:
241,141,87945,1,8,0:0:0:0:
241,141,88028,1,0,0:0:0:0:
241,141,88112,1,8,0:0:0:0:
241,141,88195,1,8,0:0:0:0:
242,140,88278,1,0,0:0:0:0:
242,140,88362,1,8,0:0:0:0:
242,140,88445,1,8,0:0:0:0:
207,122,88528,1,4,0:0:0:0:
129,151,88695,1,8,0:0:0:0:
210,125,88778,1,8,0:0:0:0:
186,149,88862,1,0,0:0:0:0:
186,149,89028,1,8,0:0:0:0:
210,137,89195,1,0,0:0:0:0:
210,137,89278,1,0,0:0:0:0:
210,137,89362,1,0,0:0:0:0:
211,137,89445,1,8,0:0:0:0:
282,136,89528,1,0,0:0:0:0:
217,133,89612,1,0,0:0:0:0:
219,132,89695,1,8,0:0:0:0:
219,131,89862,1,0,0:0:0:0:
204,137,90028,1,8,0:0:0:0:
204,137,90112,1,0,0:0:0:0:
206,135,90195,1,8,0:0:0:0:
206,135,90362,1,0,0:0:0:0:
206,135,90528,1,8,0:0:0:0:
206,135,90612,1,8,0:0:0:0:
213,132,90695,1,0,0:0:0:0:
185,105,90778,1,8,0:0:0:0:
185,105,90862,1,0,0:0:0:0:
185,105,90945,1,0,0:0:0:0:
185,105,91028,1,8,0:0:0:0:
203,113,91195,1,0,0:0:0:0:
202,111,91278,1,8,0:0:0:0:
207,110,91362,1,8,0:0:0:0:
212,130,91445,1,8,0:0:0:0:
205,109,91528,1,0,0:0:0:0:
208,110,91695,1,8,0:0:0:0:
208,110,91862,1,8,0:0:0:0:
208,110,91945,1,0,0:0:0:0:
242,110,92028,1,0,0:0:0:0:
210,108,92112,1,8,0:0:0:0:
201,70,92195,1,0,0:0:0:0:
242,110,92278,1,0,0:0:0:0:
216,105,92362,1,8,0:0:0:0:
227,121,92528,1,0,0:0:0:0:
225,105,92612,1,8,0:0:0:0:
224,105,92778,1,8,0:0:0:0:
223,105,92862,1,0,0:0:0:0:
186,80,93028,1,8,0:0:0:0:
186,80,93112,1,0,0:0:0:0:
186,80,93195,1,8,0:0:0:0:
186,80,93278,1,8,0:0:0:0:
186,80,93362,1,0,0:0:0:0:
189,75,93445,1,8,0:0:0:0:
189,75,93528,1,0,0:0:0:0:
189,75,93612,1,0,0:0:0:0:
189,74,93695,1,8,0:0:0:0:
177,137,93862,1,0,0:0:0:0:
177,137,93945,1,0,0:0:0:0:
177,137,94028,1,8,0:0:0:0:
222,91,94112,1,8,0:0:0:0:
177,137,94195,1,0,0:0:0:0:
177,137,94362,1,8,0:0:0:0:
175,131,94528,1,0,0:0:0:0:
176,131,94612,1,0,0:0:0:0:
177,131,94695,1,0,0:0:0:0:
175,131,94778,1,8,0:0:0:0:
241,110,94862,1,0,0:0:0:0:
180,132,94945,1,0,0:0:0:0:
181,132,95028,1,8,0:0:0:0:
187,131,95195,1,0,0:0:0:0:
247,152,95362,1,8,0:0:0:0:
247,152,95445,1,0,0:0:0:0:
247,152,95528,1,8,0:0:0:0:
247,152,95695,1,0,0:0:0:0:
260,152,95862,1,8,0:0:0:0:
256,156,95945,1,8,0:0:0:0:
256,156,96028,1,0,0:0:0:0:
256,156,96112,1,8,0:0:0:0:
256,156,96195,1,0,0:0:0:0:
256,156,96278,1,0,0:0:0:0:
256,156,96362,1,8,0:0:0:0:
251,156,96528,1,0,0:0:0:0:
250,156,96612,1,8,0:0:0:0:
252,155,96695,1,8,0:0:0:0:
248,103,96778,1,8,0:0:0:0:
251,155,96862,1,0,0:0:0:0:
246,142,97028,1,8,0:0:0:0:
242,144,97195,1,8,0:0:0:0:
243,143,97278,1,0,0:0:0:0:
243,143,97362,1,0,0:0:0:0:
250,143,97445,1,8,0:0:0:0:
240,100,97528,1,0,0:0:0:0:
250,144,97612,1,0,0:0:0:0:
247,141,97695,1,8,0:0:0:0:
231,125,97862,1,0,0:0:0:0:
231,125,98028,1,0,0:0:0:0:
229,125,98112,1,8,0:0:0:0:
228,125,98195,1,0,0:0:0:0:
229,125,98362,1,0,0:0:0:0:
222,132,98528,1,0,0:0:0:0:
220,132,98612,1,0,0:0:0:0:
222,132,98695,1,0,0:0:0:0:
222,132,98778,1,0,0:0:0:0:
217,155,98862,1,8,0:0:0:0:
227,153,98945,1,0,0:0:0:0:
228,151,99028,1,8,0:0:0:0:
178,147,99195,1,4,0:0:0:0:
178,147,99362,1,8,0:0:0:0:
178,147,99445,1,8,0:0:0:0:
178,147,99528,1,0,0:0:0:0:
178,147,99695,1,8,0:0:0:0:
204,70,99778,1,0,0:0:0:0:
187,130,99862,1,8,0:0:0:0:
187,130,99945,1,0,0:0:0:0:
189,130,100028,1,0,0:0:0:0:
194,130,100112,1,8,0:0:0:0:
190,129,100195,1,0,0:0:0:0:
190,129,100278,1,0,0:0:0:0:
186,130,100362,1,8,0:0:0:0:
187,130,100528,1,0,0:0:0:0:
181,129,100695,1,8,0:0:0:0:
187,130,100778,1,0,0:0:0:0:
187,130,100862,1,8,0:0:0:0:
181,129,101028,1,0,0:0:0:0:
124,126,101112,1,0,0:0:0:0:
181,131,101195,1,8,0:0:0:0:
181,137,101278,1,8,0:0:0:0:
180,134,101362,1,0,0:0:0:0:
181,132,101445,1,8,0:0:0:0:
181,132,101528,1,0,0:0:0:0:
181,129,101612,1,0,0:0:0:0:
181,129,101695,1,8,0:0:0:0:
182,112,101862,1,0,0:0:0:0:
179,111,101945,1,8,0:0:0:0:
179,109,102028,1,8,0:0:0:0:
181,93,102112,1,8,0:0:0:0:
179,109,102195,1,0,0:0:0:0:
180,113,102362,1,8,0:0:0:0:
177,94,102445,1,0,0:0:0:0:
177,115,102528,1,8,0:0:0:0:
181,111,102612,1,0,0:0:0:0:
181,111,102695,1,0,0:0:0:0:
182,112,102778,1,8,0:0:0:0:
187,110,102862,1,0,0:0:0:0:
189,110,102945,1,0,0:0:0:0:
184,109,103028,1,8,0:0:0:0:
184,109,103195,1,0,0:0:0:0:
202,111,103362,1,0,0:0:0:0:
202,111,103445,1,8,0:0:0:0:
201,111,103528,1,0,0:0:0:0:
204,96,103695,1,0,0:0:0:0:
115,147,103862,1,0,0:0:0:0:
124,144,103945,1,0,0:0:0:0:
194,111,104028,1,0,0:0:0:0:
162,84,104112,1,8,0:0:0:0:
194,111,104362,1,0,0:0:0:0:
194,111,104528,1,4,0:0:0:0:
158,125,104695,1,0,0:0:0:0:
158,125,104778,1,8,0:0:0:0:
158,125,104862,1,0,0:0:0:0:
190,138,105028,1,0,0:0:0:0:
191,122,105112,1,0,0:0:0:0:
190,138,105195,1,8,0:0:0:0:
195,135,105278,1,0,0:0:0:0:
202,134,105362,1,8,0:0:0:0:
200,134,105445,1,8,0:0:0:0:
199,134,105528,1,0,0:0:0:0:
193,109,105695,1,0,0:0:0:0:
191,110,105778,1,8,0:0:0:0:
191,110,105862,1,0,0:0:0:0:
192,110,106028,1,0,0:0:0:0:
192,110,106112,1,8,0:0:0:0:
190,111,106195,1,0,0:0:0:0:
171,73,106362,1,0,0:0:0:0:
170,67,106445,1,0,0:0:0:0:
199,134,106528,1,8,0:0:0:0:
199,134,106612,1,0,0:0:0:0:
199,134,106695,1,8,0:0:0:0:
199,134,106778,1,8,0:0:0:0:
199,134,106862,1,0,0:0:0:0:
166,91,107028,1,0,0:0:0:0:
166,91,107112,1,8,0:0:0:0:
176,82,107195,1,0,0:0:0:0:
176,82,107278,1,0,0:0:0:0:
178,82,107362,1,0,0:0:0:0:
178,82,107445,1,0,0:0:0:0:
178,82,107528,1,8,0:0:0:0:
178,82,107612,1,8,0:0:0:0:
169,116,107695,1,0,0:0:0:0:
169,115,107778,1,0,0:0:0:0:
169,114,107862,1,8,0:0:0:0:
169,114,107945,1,0,0:0:0:0:
170,111,108028,1,8,0:0:0:0:
171,109,108112,1,8,0:0:0:0:
172,109,108195,1,0,0:0:0:0:
204,107,108362,1,8,0:0:0:0:
204,107,108445,1,8,0:0:0:0:
204,107,108528,1,0,0:0:0:0:
204,107,108612,1,8,0:0:0:0:
204,107,108695,5,0,0:0:0:0:
200,110,108778,1,0,0:0:0:0:
200,110,108862,1,8,0:0:0:0:
197,110,108945,1,0,0:0:0:0:
204,107,109028,1,8,0:0:0:0:
204,107,109112,1,8,0:0:0:0:
204,107,109195,1,0,0:0:0:0:
204,107,109362,1,8,0:0:0:0:
204,107,109445,1,8,0:0:0:0:
204,107,109528,1,0,0:0:0:0:
204,107,109612,1,8,0:0:0:0:
204,107,109695,1,8,0:0:0:0:
257,173,109778,1,8,0:0:0:0:
199,173,109862,5,4,0:0:0:0:
