osu file format v14

[General]
AudioFilename: audio.mp3
AudioLeadIn: 0
PreviewTime: 88528
Countdown: 0
SampleSet: Normal
StackLeniency: 0.7
Mode: 1
LetterboxInBreaks: 0
WidescreenStoryboard: 1

[Editor]
DistanceSpacing: 0.8
BeatDivisor: 4
GridSize: 4
TimelineZoom: 2.799999

[Metadata]
Title:Verflucht
TitleUnicode:Verflucht
Artist:Tyrfing
ArtistUnicode:Tyrfing
Creator:MMzz
Version:Futsuu
Source:beatmania IIDX 21 SPADA
Tags:Hommarju HARD NRG Rhytoly Vulkin
BeatmapID:1951378
BeatmapSetID:934209

[Difficulty]
HPDrainRate:5
CircleSize:5
OverallDifficulty:4.6
ApproachRate:5
SliderMultiplier:1.2
SliderTickRate:1

[Events]
//Background and Video events
0,0,"vbg.jpg",0,85
//Break Periods
//Storyboard Layer 0 (Background)
//Storyboard Layer 1 (Fail)
//Storyboard Layer 2 (Pass)
//Storyboard Layer 3 (Foreground)
//Storyboard Layer 4 (Overlay)
//Storyboard Sound Samples

[TimingPoints]
529,333.333333333333,4,1,0,100,1,0
88528,-100,4,1,0,100,0,1
109862,-100,4,1,0,100,0,0

[HitObjects]
174,194,529,5,0,0:0:0:0:
174,194,1028,1,0,0:0:0:0:
174,194,1528,1,0,0:0:0:0:
174,194,2028,1,0,0:0:0:0:
174,194,2362,1,8,0:0:0:0:
174,194,2695,1,0,0:0:0:0:
174,194,3195,1,4,0:0:0:0:
165,173,3528,1,0,0:0:0:0:
172,173,3862,1,0,0:0:0:0:
172,173,4028,1,8,0:0:0:0:
172,173,4195,1,0,0:0:0:0:
172,173,4528,1,0,0:0:0:0:
172,173,4862,1,0,0:0:0:0:
172,173,5028,1,0,0:0:0:0:
172,173,5195,1,0,0:0:0:0:
172,173,5862,1,0,0:0:0:0:
172,173,6195,1,0,0:0:0:0:
172,173,6528,1,0,0:0:0:0:
172,173,6695,1,8,0:0:0:0:
172,173,6862,1,0,0:0:0:0:
172,173,7195,1,0,0:0:0:0:
172,173,7528,1,8,0:0:0:0:
87,151,7695,1,8,0:0:0:0:
172,173,7862,1,8,0:0:0:0:
172,173,8528,1,0,0:0:0:0:
172,173,8862,1,0,0:0:0:0:
172,173,9195,1,0,0:0:0:0:
172,173,9362,1,8,0:0:0:0:
172,173,9528,1,0,0:0:0:0:
172,173,9862,1,0,0:0:0:0:
172,173,10195,1,0,0:0:0:0:
172,173,10362,1,0,0:0:0:0:
172,173,10528,1,0,0:0:0:0:
172,173,11195,1,0,0:0:0:0:
172,173,11528,1,0,0:0:0:0:
172,173,11862,1,0,0:0:0:0:
172,173,12028,1,8,0:0:0:0:
172,173,12195,1,0,0:0:0:0:
172,173,12528,1,0,0:0:0:0:
172,173,12695,1,0,0:0:0:0:
172,173,12862,1,0,0:0:0:0:
172,173,13028,1,0,0:0:0:0:
172,173,13195,1,0,0:0:0:0:
196,170,13862,1,4,0:0:0:0:
215,165,14195,1,0,0:0:0:0:
215,165,14362,1,0,0:0:0:0:
215,165,14528,1,0,0:0:0:0:
215,163,14862,1,0,0:0:0:0:
184,158,15028,1,0,0:0:0:0:
215,165,15195,1,0,0:0:0:0:
215,165,15528,1,0,0:0:0:0:
215,163,15695,1,8,0:0:0:0:
215,163,15862,1,0,0:0:0:0:
215,165,16528,1,0,0:0:0:0:
215,163,16862,1,0,0:0:0:0:
215,165,17028,1,0,0:0:0:0:
215,165,17195,1,0,0:0:0:0:
215,165,17528,1,0,0:0:0:0:
211,150,17695,1,0,0:0:0:0:
215,163,17862,1,0,0:0:0:0:
215,165,18195,1,8,0:0:0:0:
225,142,18362,1,8,0:0:0:0:
215,165,18528,1,8,0:0:0:0:
208,152,19195,1,0,0:0:0:0:
208,152,19528,1,0,0:0:0:0:
208,152,19695,1,0,0:0:0:0:
208,152,19862,1,0,0:0:0:0:
208,152,20195,1,0,0:0:0:0:
212,135,20362,1,0,0:0:0:0:
208,152,20528,1,0,0:0:0:0:
208,152,20862,1,0,0:0:0:0:
208,152,21028,1,8,0:0:0:0:
208,152,21195,1,0,0:0:0:0:
208,152,21862,1,0,0:0:0:0:
208,152,22195,1,0,0:0:0:0:
208,152,22362,1,0,0:0:0:0:
208,152,22528,1,0,0:0:0:0:
208,152,22695,1,0,0:0:0:0:
208,152,22862,1,0,0:0:0:0:
442,135,23195,2,0,B|176:211|176:211|101:176,1,360
249,187,24528,1,4,0:0:0:0:
210,150,25195,1,0,0:0:0:0:
156,90,25862,1,8,0:0:0:0:
210,150,26195,1,0,0:0:0:0:
165,86,26362,1,0,0:0:0:0:
134,178,26528,1,8,0:0:0:0:
205,98,27195,1,0,0:0:0:0:
205,98,27862,1,8,0:0:0:0:
202,106,28195,1,8,0:0:0:0:
205,98,28362,1,8,0:0:0:0:
202,106,28695,1,8,0:0:0:0:
205,98,28862,1,8,0:0:0:0:
205,98,29195,1,8,0:0:0:0:
169,163,29862,1,0,0:0:0:0:
205,150,30528,1,0,0:0:0:0:
205,150,31195,1,8,0:0:0:0:
205,150,31528,1,0,0:0:0:0:
205,150,31695,1,0,0:0:0:0:
205,150,31862,1,8,0:0:0:0:
156,180,32528,1,0,0:0:0:0:
156,180,33195,1,8,0:0:0:0:
156,180,33528,1,8,0:0:0:0:
156,180,33695,1,8,0:0:0:0:
156,180,34028,1,8,0:0:0:0:
156,180,34195,1,8,0:0:0:0:
161,187,35195,1,4,0:0:0:0:
189,189,35528,1,0,0:0:0:0:
189,189,35695,1,0,0:0:0:0:
189,189,35862,1,0,0:0:0:0:
189,189,36028,1,0,0:0:0:0:
189,189,36195,1,0,0:0:0:0:
189,189,36528,1,0,0:0:0:0:
189,189,36862,1,0,0:0:0:0:
189,189,37028,1,0,0:0:0:0:
189,189,37195,1,0,0:0:0:0:
189,189,37862,1,0,0:0:0:0:
189,189,38195,1,0,0:0:0:0:
189,189,38362,1,0,0:0:0:0:
189,189,38528,1,0,0:0:0:0:
189,189,38695,1,0,0:0:0:0:
189,189,38862,1,0,0:0:0:0:
189,189,39195,1,0,0:0:0:0:
189,189,39528,1,0,0:0:0:0:
189,189,39695,1,0,0:0:0:0:
189,189,39862,1,0,0:0:0:0:
189,189,40195,1,0,0:0:0:0:
210,193,40528,1,0,0:0:0:0:
214,194,40862,1,0,0:0:0:0:
214,194,41028,1,0,0:0:0:0:
214,194,41195,1,0,0:0:0:0:
214,194,41362,1,0,0:0:0:0:
214,194,41528,1,0,0:0:0:0:
214,194,41862,1,0,0:0:0:0:
214,194,42195,1,0,0:0:0:0:
214,194,42362,1,0,0:0:0:0:
214,194,42528,1,0,0:0:0:0:
214,194,43195,1,0,0:0:0:0:
214,194,43528,1,0,0:0:0:0:
214,194,43695,1,0,0:0:0:0:
214,194,43862,1,0,0:0:0:0:
214,194,44028,1,0,0:0:0:0:
214,194,44195,1,0,0:0:0:0:
256,192,44528,12,0,45195,0:0:0:0:
177,171,45862,5,4,0:0:0:0:
207,182,46195,1,0,0:0:0:0:
207,182,46528,1,0,0:0:0:0:
207,182,46695,1,8,0:0:0:0:
207,182,46862,1,0,0:0:0:0:
207,182,47195,1,0,0:0:0:0:
207,182,47528,1,0,0:0:0:0:
207,182,47695,1,0,0:0:0:0:
207,182,47862,1,0,0:0:0:0:
207,182,48528,1,0,0:0:0:0:
207,182,48862,1,0,0:0:0:0:
207,182,49195,1,0,0:0:0:0:
207,182,49362,1,8,0:0:0:0:
207,182,49528,1,0,0:0:0:0:
207,182,49862,1,0,0:0:0:0:
207,182,50195,1,0,0:0:0:0:
207,182,50528,1,8,0:0:0:0:
207,182,50862,1,8,0:0:0:0:
207,182,51195,1,0,0:0:0:0:
207,182,51528,1,0,0:0:0:0:
207,182,51862,1,0,0:0:0:0:
207,182,52028,1,8,0:0:0:0:
207,182,52195,1,0,0:0:0:0:
207,182,52528,1,0,0:0:0:0:
207,182,52862,1,0,0:0:0:0:
207,182,53028,1,0,0:0:0:0:
207,182,53195,1,0,0:0:0:0:
186,172,53862,1,0,0:0:0:0:
186,172,54195,1,0,0:0:0:0:
186,172,54528,1,0,0:0:0:0:
186,172,54695,1,8,0:0:0:0:
186,172,54862,1,0,0:0:0:0:
186,172,55195,1,0,0:0:0:0:
198,185,55362,1,0,0:0:0:0:
198,185,55528,1,0,0:0:0:0:
198,185,55695,1,0,0:0:0:0:
198,185,55862,1,0,0:0:0:0:
177,176,56528,1,4,0:0:0:0:
177,176,56862,1,0,0:0:0:0:
177,176,57028,1,0,0:0:0:0:
177,176,57195,1,0,0:0:0:0:
177,176,57528,1,0,0:0:0:0:
205,159,57695,1,0,0:0:0:0:
177,176,57862,1,0,0:0:0:0:
177,176,58195,1,0,0:0:0:0:
169,164,58362,1,8,0:0:0:0:
177,176,58528,1,0,0:0:0:0:
169,164,59195,1,0,0:0:0:0:
169,164,59528,1,0,0:0:0:0:
173,132,59695,1,0,0:0:0:0:
169,164,59862,1,0,0:0:0:0:
169,164,60195,1,0,0:0:0:0:
169,164,60362,1,0,0:0:0:0:
169,164,60528,1,0,0:0:0:0:
169,164,60862,1,8,0:0:0:0:
152,157,61028,1,8,0:0:0:0:
169,164,61195,1,8,0:0:0:0:
169,164,61528,1,8,0:0:0:0:
169,164,61862,1,0,0:0:0:0:
169,164,62195,1,0,0:0:0:0:
169,164,62362,1,0,0:0:0:0:
169,164,62528,1,0,0:0:0:0:
169,164,62862,1,0,0:0:0:0:
186,161,63028,1,0,0:0:0:0:
169,164,63195,1,0,0:0:0:0:
169,164,63528,1,0,0:0:0:0:
169,164,63695,1,8,0:0:0:0:
169,164,63862,1,0,0:0:0:0:
169,164,64528,1,0,0:0:0:0:
126,136,64862,1,0,0:0:0:0:
169,164,65195,1,0,0:0:0:0:
169,164,65362,1,0,0:0:0:0:
169,164,65528,1,0,0:0:0:0:
213,82,65695,1,0,0:0:0:0:
391,171,65862,2,0,B|108:234|108:234|68:173,1,360
217,152,67195,1,4,0:0:0:0:
280,158,67862,1,8,0:0:0:0:
280,158,68112,1,8,0:0:0:0:
280,158,68362,1,8,0:0:0:0:
249,135,69195,1,8,0:0:0:0:
249,135,69528,1,8,0:0:0:0:
256,183,69862,1,0,0:0:0:0:
248,140,70528,1,8,0:0:0:0:
248,140,70778,1,8,0:0:0:0:
248,140,71028,1,8,0:0:0:0:
248,140,71862,1,0,0:0:0:0:
248,140,72195,1,8,0:0:0:0:
255,190,72528,1,0,0:0:0:0:
258,138,73195,1,8,0:0:0:0:
258,138,73445,1,8,0:0:0:0:
258,138,73695,1,8,0:0:0:0:
258,138,74528,1,8,0:0:0:0:
258,138,74862,1,8,0:0:0:0:
255,190,75195,1,0,0:0:0:0:
154,155,75862,1,8,0:0:0:0:
154,155,76112,1,8,0:0:0:0:
154,155,76362,1,8,0:0:0:0:
180,156,77195,1,8,0:0:0:0:
161,187,77862,1,4,0:0:0:0:
189,189,78195,1,0,0:0:0:0:
189,189,78362,1,0,0:0:0:0:
189,189,78529,1,0,0:0:0:0:
189,189,78695,1,0,0:0:0:0:
189,189,78862,1,0,0:0:0:0:
189,189,79195,1,0,0:0:0:0:
189,189,79529,1,0,0:0:0:0:
189,189,79695,1,0,0:0:0:0:
189,189,79862,1,0,0:0:0:0:
189,189,80529,1,0,0:0:0:0:
189,189,80862,1,0,0:0:0:0:
189,189,81029,1,0,0:0:0:0:
189,189,81195,1,0,0:0:0:0:
189,189,81362,1,0,0:0:0:0:
189,189,81529,1,0,0:0:0:0:
189,189,81862,1,0,0:0:0:0:
189,189,82195,1,0,0:0:0:0:
189,189,82362,1,0,0:0:0:0:
189,189,82529,1,0,0:0:0:0:
189,189,82862,1,0,0:0:0:0:
210,193,83195,1,0,0:0:0:0:
214,194,83529,1,0,0:0:0:0:
214,194,83695,1,0,0:0:0:0:
214,194,83862,1,0,0:0:0:0:
214,194,84029,1,0,0:0:0:0:
214,194,84195,1,0,0:0:0:0:
214,194,84529,1,0,0:0:0:0:
214,194,84862,1,0,0:0:0:0:
214,194,85029,1,0,0:0:0:0:
214,194,85195,1,0,0:0:0:0:
214,194,85862,1,0,0:0:0:0:
214,194,86195,1,0,0:0:0:0:
214,194,86362,1,0,0:0:0:0:
214,194,86529,1,0,0:0:0:0:
214,194,86695,1,0,0:0:0:0:
214,194,86862,1,0,0:0:0:0:
256,192,87195,12,0,87862,0:0:0:0:
152,164,88528,5,4,0:0:0:0:
198,163,88862,1,0,0:0:0:0:
190,175,89195,1,0,0:0:0:0:
190,175,89362,1,8,0:0:0:0:
190,175,89528,1,0,0:0:0:0:
190,175,89862,1,0,0:0:0:0:
190,175,90195,1,8,0:0:0:0:
152,167,90362,1,8,0:0:0:0:
190,175,90528,1,0,0:0:0:0:
190,175,90862,1,8,0:0:0:0:
190,175,91195,1,0,0:0:0:0:
198,167,91528,1,0,0:0:0:0:
206,170,91862,1,0,0:0:0:0:
206,170,92028,1,8,0:0:0:0:
206,170,92195,1,0,0:0:0:0:
206,170,92528,1,0,0:0:0:0:
206,170,92862,1,8,0:0:0:0:
172,138,93028,1,8,0:0:0:0:
206,170,93195,1,8,0:0:0:0:
206,170,93862,1,0,0:0:0:0:
163,150,94195,1,0,0:0:0:0:
206,170,94528,1,0,0:0:0:0:
206,170,94695,1,8,0:0:0:0:
206,170,94862,1,0,0:0:0:0:
206,170,95195,1,0,0:0:0:0:
206,170,95528,1,8,0:0:0:0:
184,153,95695,1,8,0:0:0:0:
206,170,95862,1,0,0:0:0:0:
206,170,96195,1,8,0:0:0:0:
206,170,96528,1,0,0:0:0:0:
172,146,96862,1,0,0:0:0:0:
172,146,97195,1,0,0:0:0:0:
172,146,97362,1,8,0:0:0:0:
172,146,97528,1,0,0:0:0:0:
172,146,97862,1,0,0:0:0:0:
167,136,98028,1,0,0:0:0:0:
167,136,98195,1,0,0:0:0:0:
167,136,98362,1,0,0:0:0:0:
167,136,98528,1,0,0:0:0:0:
167,136,99195,1,4,0:0:0:0:
171,132,99528,1,0,0:0:0:0:
171,132,99862,1,0,0:0:0:0:
171,132,100028,1,8,0:0:0:0:
171,132,100195,1,0,0:0:0:0:
171,132,100528,1,0,0:0:0:0:
171,132,100862,1,8,0:0:0:0:
171,132,101028,1,8,0:0:0:0:
171,132,101195,1,0,0:0:0:0:
171,132,101528,1,8,0:0:0:0:
171,132,101862,1,0,0:0:0:0:
171,132,102195,1,0,0:0:0:0:
171,132,102528,1,0,0:0:0:0:
171,132,102695,1,8,0:0:0:0:
171,132,102862,1,0,0:0:0:0:
171,132,103195,1,0,0:0:0:0:
171,132,103362,1,0,0:0:0:0:
171,132,103528,1,0,0:0:0:0:
171,132,103695,1,0,0:0:0:0:
171,132,103862,1,0,0:0:0:0:
171,132,104528,1,0,0:0:0:0:
171,132,104862,1,0,0:0:0:0:
171,132,105195,1,8,0:0:0:0:
171,132,105362,1,8,0:0:0:0:
171,132,105528,1,8,0:0:0:0:
171,132,105862,1,0,0:0:0:0:
171,132,106195,1,0,0:0:0:0:
171,132,106528,1,8,0:0:0:0:
171,132,106695,1,8,0:0:0:0:
171,132,106862,1,8,0:0:0:0:
171,132,107195,1,0,0:0:0:0:
171,132,107528,1,0,0:0:0:0:
171,132,107695,1,0,0:0:0:0:
171,132,107862,1,0,0:0:0:0:
171,132,108028,1,0,0:0:0:0:
171,132,108195,1,0,0:0:0:0:
171,132,108528,1,0,0:0:0:0:
171,132,108862,1,0,0:0:0:0:
171,132,109028,1,0,0:0:0:0:
171,132,109195,1,0,0:0:0:0:
171,132,109528,1,0,0:0:0:0:
171,132,109862,1,4,0:0:0:0:
