osu file format v14

[General]
AudioFilename: audio.mp3
AudioLeadIn: 0
PreviewTime: 51117
Countdown: 0
SampleSet: Soft
StackLeniency: 0.3
Mode: 0
LetterboxInBreaks: 0
WidescreenStoryboard: 0

[Editor]
Bookmarks: 3824,27518,35161,64206,66881,76435,91149,100894,113123,120958,121149,125352,137582
DistanceSpacing: 1
BeatDivisor: 4
GridSize: 16
TimelineZoom: 1.7

[Metadata]
Title:See You Again
TitleUnicode:See You Again
Artist:Tyler, The Creator feat. Kali Uchis
ArtistUnicode:Tyler, The Creator feat. Kali Uchis
Creator:Foxy Grandpa
Version:Forever
Source:
Tags:FoxyGrandpa Battle KKipalt MikasaSerket Blastthekidd Flower Boy Scum Fuck Rap Hip Hop English Pop
BeatmapID:1551946
BeatmapSetID:735154

[Difficulty]
HPDrainRate:6
CircleSize:3
OverallDifficulty:8
ApproachRate:9
SliderMultiplier:1.5
SliderTickRate:1

[Events]
//Background and Video events
0,0,"66080844_p0.jpg",0,0
//Break Periods
2,101146,112575
//Storyboard Layer 0 (Background)
//Storyboard Layer 1 (Fail)
//Storyboard Layer 2 (Pass)
//Storyboard Layer 3 (Foreground)
//Storyboard Layer 4 (Overlay)
//Storyboard Sound Samples

[TimingPoints]
3112,764.331210191083,4,2,4,50,1,0
6169,-100,4,2,5,50,0,0
6933,-100,4,2,4,50,0,0
9226,-100,4,2,6,50,0,0
9990,-100,4,2,4,50,0,0
12283,-100,4,2,5,50,0,0
15341,-100,4,2,4,50,0,0
18398,-100,4,2,5,50,0,0
19162,-100,4,2,4,50,0,0
21073,-100,4,2,6,50,0,0
21455,-100,4,2,6,50,0,0
22220,-100,4,2,4,50,0,0
24895,-100,4,2,5,50,0,0
27570,-66.6666666666667,4,2,1,50,0,0
34736,-66.6666666666667,4,2,11,60,0,0
34831,-57.1428571428571,4,2,1,60,0,0
35118,-57.1428571428571,4,2,11,60,0,0
35213,-133.333333333333,4,2,1,60,0,0
39799,-66.6666666666667,4,2,1,60,0,0
46965,-66.6666666666667,4,2,11,60,0,0
47061,-57.1428571428571,4,2,1,60,0,0
47347,-57.1428571428571,4,2,11,60,0,0
47443,-133.333333333333,4,2,1,60,0,0
52029,-100,4,2,1,60,0,0
76487,-50,4,2,2,70,0,1
76678,-50,4,2,2,70,0,0
79545,-50,4,2,2,70,0,1
79736,-50,4,2,2,70,0,0
82029,-50,4,2,3,50,0,0
82124,-50,4,2,11,5,0,0
82220,-100,4,2,3,50,0,0
82411,-100,4,2,11,5,0,0
82602,-50,4,2,2,70,0,1
82793,-50,4,2,2,70,0,0
83940,-50,4,2,1,70,0,0
84131,-50,4,2,2,70,0,0
85086,-50,4,2,3,80,0,0
85182,-50,4,2,11,5,0,0
85277,-50,4,2,2,70,0,0
85468,-50,4,2,3,80,0,0
85564,-50,4,2,11,5,0,0
85659,-50,4,2,2,70,0,1
85850,-50,4,2,2,70,0,0
87379,-50,4,2,3,60,0,0
87475,-50,4,2,11,5,0,0
87570,-50,4,2,2,70,0,0
87666,-50,4,2,11,5,0,0
87761,-50,4,2,2,70,0,0
88143,-50,4,2,3,50,0,0
88717,-50,4,2,2,70,0,1
88908,-50,4,2,2,70,0,0
90054,-50,4,2,1,70,0,0
90245,-50,4,2,2,70,0,0
91774,-50,4,2,2,70,0,1
91965,-50,4,2,2,70,0,0
94831,-50,4,2,2,70,0,1
95022,-50,4,2,2,70,0,0
95978,-50,4,2,1,70,0,0
96169,-50,4,2,2,70,0,0
97889,-50,4,2,2,70,0,1
98080,-50,4,2,2,70,0,0
99226,-50,4,2,1,70,0,0
99417,-50,4,2,2,60,0,0
113175,-100,4,2,1,60,0,0
113271,-100,4,2,2,60,0,0
115850,-100,4,2,1,60,0,0
116328,-100,4,2,2,60,0,0
118526,-100,4,2,1,60,0,0
119290,-106.382978723404,4,2,1,60,0,0
119385,-106.382978723404,4,2,2,60,0,0
122347,-106.382978723404,4,2,1,60,0,0
122538,-106.382978723404,4,2,1,60,0,0
125404,-25,4,2,8,80,0,1
125787,-25,4,2,1,80,0,1
125978,-25,4,2,8,80,0,1
126551,-25,4,2,1,80,0,1
126742,-25,4,2,8,80,0,1
128080,-25,4,2,1,80,0,1
128462,-25,4,2,8,80,0,1
128844,-25,4,2,1,80,0,1
129035,-25,4,2,8,80,0,1
129608,-25,4,2,1,80,0,1
129799,-25,4,2,8,80,0,1
131137,-25,4,2,1,80,0,1
131519,-25,4,2,8,80,0,1
131901,-25,4,2,1,80,0,1
132092,-25,4,2,8,80,0,1
132666,-25,4,2,1,80,0,1
132857,-25,4,2,8,80,0,1
134194,-25,4,2,1,80,0,1
134576,-25,4,2,8,80,0,1
134959,-25,4,2,1,80,0,1
135150,-25,4,2,8,80,0,1
135723,-25,4,2,1,80,0,1
135914,-25,4,2,8,80,0,1
137252,-25,4,2,1,80,0,1
137634,-25,4,2,8,80,0,1
138016,-25,4,2,1,80,0,1
138207,-25,4,2,8,80,0,1
138685,-25,4,2,11,5,0,1
138780,-25,4,2,1,80,0,1
138971,-25,4,2,8,80,0,1
140309,-25,4,2,1,80,0,1
140691,-25,4,2,8,80,0,1
141073,-25,4,2,1,80,0,1
141264,-25,4,2,8,80,0,1
141742,-25,4,2,11,5,0,1
141838,-25,4,2,1,80,0,1
142029,-25,4,2,8,80,0,1
143366,-25,4,2,1,80,0,1
143748,-25,4,2,8,80,0,1
144131,-25,4,2,1,80,0,1
144322,-25,4,2,8,80,0,1
144799,-25,4,2,11,5,0,1
144895,-25,4,2,1,80,0,1
145086,-25,4,2,8,80,0,1
146424,-25,4,2,1,80,0,1
146806,-25,4,2,8,80,0,1
147188,-25,4,2,1,80,0,1
147379,-25,4,2,8,80,0,1
147952,-25,4,2,1,80,0,1
148143,-25,4,2,8,80,0,1
149863,-50,4,2,8,80,0,0

[Colours]
Combo1 : 0,255,255
Combo2 : 96,68,253
Combo3 : 255,155,205
Combo4 : 255,98,98
Combo5 : 128,255,255
Combo6 : 70,28,198
Combo7 : 223,70,255
Combo8 : 255,0,255

[HitObjects]
218,102,3112,38,0,P|278:69|360:75,1,150,2|2,0:0|0:1,0:0:0:0:
380,82,4258,1,2,0:3:0:0:
229,144,4640,2,0,P|278:96|359:81,1,150,2|2,0:0|0:1,0:0:0:0:
380,82,5787,1,2,0:3:0:0:
437,301,6169,6,0,P|378:265|342:191,1,150,2|2,0:0|0:1,0:0:0:0:
338,170,7315,1,2,0:3:0:0:
467,270,7697,2,0,P|400:251|347:188,1,150,2|2,0:0|0:1,0:0:0:0:
338,170,8844,1,2,0:3:0:0:
500,12,9226,102,0,P|498:80|452:148,1,150,2|2,0:0|0:1,0:0:0:0:
436,162,10373,1,2,0:3:0:0:
458,0,10755,2,0,P|475:66|447:144,1,150,2|2,0:0|0:1,0:0:0:0:
361,265,11901,85,0,0:0:0:0:
92,295,12283,38,0,P|81:262|80:218,2,75,0|2|0,0:0|0:1|0:0,0:0:0:0:
92,295,13812,1,0,0:0:0:0:
141,140,15341,86,0,B|94:109|86:46|141:15|141:15|199:121|296:57|296:57|316:88|316:88|362:38|442:27|458:160|367:144,1,600,2|2,0:0|0:0,0:0:0:0:
370,144,19162,5,2,0:1:0:0:
291,56,19545,1,2,0:3:0:0:
479,156,19927,2,0,P|472:254|456:314,1,150,2|2,0:0|0:1,0:0:0:0:
459,303,21073,1,2,0:3:0:0:
116,361,21455,6,0,P|99:295|137:211,1,150,2|2,0:0|0:1,0:0:0:0:
127,220,22602,1,2,0:3:0:0:
367,243,22984,2,0,P|384:309|346:393,1,150,2|2,0:0|0:1,0:0:0:0:
294,77,24131,69,0,0:0:0:0:
74,198,24513,22,0,P|87:152|106:130,1,75,0|2,0:0|0:1,0:0:0:0:
352,210,25277,2,0,P|325:115|286:70,1,150
156,70,27570,85,2,0:0:0:0:
186,167,27761,1,0,0:0:0:0:
167,61,27952,1,2,0:0:0:0:
188,160,28143,1,0,0:0:0:0:
178,54,28334,1,2,0:0:0:0:
191,155,28526,1,0,0:0:0:0:
190,48,28717,1,2,0:0:0:0:
194,149,28908,1,0,0:0:0:0:
88,79,29099,6,0,P|142:47|195:49,1,112.500004291535,2|2,0:0|0:0,0:0:0:0:
322,109,29863,1,0,0:0:0:0:
70,236,30245,101,0,0:0:0:0:
29,141,30436,1,0,0:0:0:0:
78,264,30627,5,2,0:0:0:0:
127,111,30819,1,0,0:0:0:0:
106,247,31010,101,2,0:0:0:0:
65,152,31201,1,0,0:0:0:0:
114,275,31392,5,2,0:0:0:0:
163,122,31583,1,0,0:0:0:0:
142,258,31774,5,2,0:0:0:0:
89,53,31965,1,0,0:0:0:0:
293,109,32156,21,2,0:0:0:0:
89,357,32538,1,2,0:0:0:0:
89,53,32920,1,6,0:0:0:0:
89,53,33685,53,2,0:0:0:0:
65,101,33876,1,0,0:0:0:0:
89,190,34067,1,0,0:0:0:0:
66,281,34258,1,0,0:0:0:0:
89,357,34449,6,0,P|89:312|50:272,1,84.3750032186509,2|0,0:0|0:0,0:0:0:0:
66,280,34831,38,0,P|90:246|85:180,1,98.4375009387732,2|0,0:0|0:0,0:0:0:0:
89,191,35213,6,0,P|65:156|70:90,1,98.4375009387732,2|2,0:0|0:0,0:0:0:0:
89,53,35978,1,2,0:0:0:0:
197,185,36169,1,2,0:0:0:0:
359,47,36551,1,2,0:0:0:0:
349,371,36933,54,0,P|351:216|199:185,1,337.500012874604,6|0,0:0|0:0,0:0:0:0:
199,185,39417,1,0,0:0:0:0:
199,185,39608,1,0,0:0:0:0:
112,92,39799,101,6,0:0:0:0:
189,191,39990,1,0,0:0:0:0:
201,73,40182,1,2,0:0:0:0:
185,197,40373,1,0,0:0:0:0:
103,103,40564,1,2,0:0:0:0:
180,202,40755,1,0,0:0:0:0:
192,84,40946,1,2,0:0:0:0:
176,208,41137,1,0,0:0:0:0:
132,16,41328,6,0,P|188:0|241:12,1,112.500004291535,2|0,0:0|0:0,0:0:0:0:
176,208,42092,1,2,0:0:0:0:
437,230,42475,101,0,0:0:0:0:
439,103,42666,1,0,0:0:0:0:
421,252,42857,5,2,0:0:0:0:
512,159,43048,1,0,0:0:0:0:
342,179,43239,101,2,0:0:0:0:
431,270,43430,1,0,0:0:0:0:
415,100,43621,5,2,0:0:0:0:
324,189,43812,1,0,0:0:0:0:
494,173,44003,101,2,0:0:0:0:
405,82,44194,1,0,0:0:0:0:
405,302,44385,53,2,0:0:0:0:
405,1,44768,1,2,0:0:0:0:
503,366,45150,21,6,0:0:0:0:
378,53,45914,21,6,0:0:0:0:
373,89,46105,1,0,0:0:0:0:
459,125,46296,1,0,0:0:0:0:
423,211,46487,1,0,0:0:0:0:
396,288,46678,6,0,P|424:234|421:201,1,84.3750032186509
422,211,47061,38,0,P|426:169|460:125,1,98.4375009387732,2|0,0:0|0:0,0:0:0:0:
459,125,47443,6,0,B|406:119|406:119|372:87,1,98.4375037550928,2|2,0:0|0:0,0:0:0:0:
378,53,48207,1,2,0:0:0:0:
490,49,48398,1,2,0:0:0:0:
396,288,48780,1,2,0:0:0:0:
194,30,49162,38,0,B|131:132|188:217|188:217|242:194|238:121,1,309.37501180172,6|2,0:0|0:0,0:0:0:0:
239,128,51455,1,0,0:0:0:0:
239,128,51647,1,0,0:0:0:0:
239,128,51838,1,0,0:0:0:0:
126,211,52029,38,0,B|213:211|238:127|238:127|265:204|355:218,1,300,6|0,0:0|0:0,0:0:0:0:
450,345,53748,1,2,0:0:0:0:
453,213,53940,1,2,0:0:0:0:
369,377,54131,1,0,0:0:0:0:
346,216,54322,69,2,0:0:0:0:
450,345,54513,1,0,0:0:0:0:
388,120,54704,1,2,0:0:0:0:
346,216,54895,1,0,0:0:0:0:
311,21,55086,37,2,0:0:0:0:
388,120,55277,2,0,P|331:122|273:144,1,112.5,2|2,0:0|0:0,0:0:0:0:
98,325,56233,1,8,0:0:0:0:
91,127,56615,1,2,0:0:0:0:
91,127,56806,69,0,0:0:0:0:
68,45,56997,1,2,0:0:0:0:
150,69,57188,1,2,0:0:0:0:
18,286,57379,37,2,0:0:0:0:
91,127,57570,1,0,0:0:0:0:
154,222,57761,69,2,0:0:0:0:
91,127,57952,1,0,0:0:0:0:
204,119,58143,37,2,0:0:0:0:
387,269,58908,1,8,0:0:0:0:
433,151,59290,1,0,0:0:0:0:
433,151,59481,1,8,0:0:0:0:
387,269,59863,1,0,0:0:0:0:
341,152,60054,69,2,0:0:0:0:
387,269,60245,1,0,0:0:0:0:
249,153,60436,1,2,0:0:0:0:
433,151,60627,1,0,0:0:0:0:
249,153,60819,1,2,0:0:0:0:
346,74,61010,1,0,0:0:0:0:
388,232,61201,38,0,L|387:277,1,37.5,2|0,0:0|0:0,0:0:0:0:
359,363,61583,1,0,0:0:0:0:
184,218,61774,1,2,0:0:0:0:
184,218,61965,70,0,P|163:178|161:146,1,75,10|0,0:0|0:0,0:0:0:0:
160,148,62538,1,8,0:0:0:0:
68,330,63112,1,0,0:0:0:0:
41,68,63494,37,10,0:0:0:0:
151,44,63685,1,0,0:0:0:0:
235,84,63876,1,0,0:0:0:0:
269,150,64067,1,0,0:0:0:0:
247,200,64258,6,0,P|186:229|137:300,1,150,6|8,0:0|0:1,0:0:0:0:
161,111,65404,2,0,P|167:93|169:74,1,37.5,8|8,0:0|0:1,0:0:0:0:
163,38,65787,1,0,0:0:0:0:
163,38,65977,5,0,0:0:0:0:
169,74,66169,1,10,0:0:0:0:
161,111,66360,1,0,0:0:0:0:
315,159,66551,101,10,0:0:0:0:
313,1,66742,1,0,0:0:0:0:
289,182,66933,1,2,0:0:0:0:
262,37,67124,1,0,0:0:0:0:
322,211,67315,5,2,0:0:0:0:
364,37,67506,2,0,P|390:83|385:145,1,112.5,2|8,0:0|0:3,0:0:0:0:
386,141,68462,1,8,0:0:0:0:
459,243,68653,2,0,L|457:205,1,37.5,8|0,0:1|0:0,0:0:0:0:
469,349,69035,101,2,0:0:0:0:
417,354,69226,1,10,0:0:0:0:
392,319,69417,1,0,0:0:0:0:
399,327,69608,5,10,0:1:0:0:
346,199,69799,1,0,0:0:0:0:
332,204,69990,101,2,0:0:0:0:
205,153,70182,1,0,0:0:0:0:
195,165,70373,6,0,P|144:170|108:155,1,75,2|8,0:0|0:0,0:0:0:0:
70,97,70946,1,8,0:0:0:0:
70,97,71137,2,0,L|49:137,1,37.5,8|0,0:1|0:0,0:0:0:0:
18,265,71519,2,0,L|0:231,2,37.5,8|8|0,0:0|0:3|0:0,0:0:0:0:
60,336,72092,1,0,0:0:0:0:
66,342,72283,1,10,0:0:0:0:
72,348,72475,1,0,0:0:0:0:
109,222,72666,101,10,0:1:0:0:
72,348,72857,1,0,0:0:0:0:
72,96,73048,5,2,0:0:0:0:
109,222,73239,1,0,0:0:0:0:
279,23,73430,101,10,0:0:0:0:
242,149,73621,1,0,0:0:0:0:
151,53,73812,1,8,0:0:0:0:
337,104,74003,2,0,P|346:119|355:136,1,37.5,2|8,0:0|0:1,0:0:0:0:
391,271,74576,1,8,0:0:0:0:
391,271,74768,2,0,L|406:229,1,37.5,8|0,0:3|0:0,0:0:0:0:
434,110,75150,1,8,0:0:0:0:
434,110,75341,2,0,L|419:68,2,37.5,8|0|8,0:1|0:0|0:3,0:0:0:0:
400,293,76487,101,4,3:1:0:0:
333,117,76678,1,0,0:3:0:0:
392,308,76869,69,0,0:0:0:0:
459,132,77060,1,2,0:3:0:0:
400,323,77252,101,8,0:3:0:0:
333,147,77442,1,0,0:0:0:0:
392,338,77634,5,2,0:3:0:0:
459,162,77825,1,2,0:3:0:0:
257,192,78016,101,0,0:0:0:0:
433,259,78207,1,0,0:0:0:0:
404,74,78398,5,2,0:3:0:0:
404,74,78589,1,0,0:0:0:0:
257,192,78780,101,8,0:3:0:0:
257,192,78971,1,2,0:3:0:0:
229,6,79162,5,0,0:0:0:0:
257,192,79353,1,0,0:0:0:0:
67,70,79545,38,0,L|71:154,1,75,2|0,3:0|0:0,0:0:0:0:
82,300,79927,69,0,0:0:0:0:
193,115,80118,1,0,3:0:0:0:
83,321,80309,101,8,0:3:0:0:
67,70,80500,1,0,0:0:0:0:
257,192,80691,5,2,0:3:0:0:
6,208,80882,1,8,0:0:0:0:
201,0,81073,102,0,P|144:-3|124:3,1,75
193,115,81455,2,0,P|230:122|267:117,1,75,2|0,3:0|0:0,0:0:0:0:
332,40,81838,1,8,0:3:0:0:
332,40,82028,22,0,P|350:59|355:73,1,37.5
455,142,82220,54,0,P|446:158|432:171,1,37.5
407,319,82602,85,2,3:0:0:0:
344,182,82793,1,0,0:0:0:0:
394,352,82984,69,0,0:0:0:0:
432,170,83175,1,2,0:3:0:0:
361,366,83366,101,8,0:3:0:0:
503,224,83557,1,0,0:0:0:0:
344,182,83748,5,0,3:0:0:0:
344,182,83939,1,8,0:0:0:0:
461,57,84131,101,0,0:0:0:0:
461,57,84321,1,0,0:0:0:0:
295,19,84513,5,2,0:3:0:0:
295,19,84704,1,0,0:0:0:0:
178,144,84895,101,8,0:3:0:0:
112,298,85086,22,0,P|112:281|116:260,1,37.5
208,134,85277,101,2,0:3:0:0:
52,196,85468,6,0,P|64:183|81:172,1,37.5
236,148,85659,22,0,P|272:156|309:150,1,75,2|2,3:0|0:3,0:0:0:0:
295,19,86041,2,0,P|258:10|221:16,1,75,0|2,0:0|0:3,0:0:0:0:
387,134,86424,70,0,P|395:97|389:60,1,75,8|0,0:3|0:0,0:0:0:0:
144,33,86806,2,0,P|135:69|141:106,1,75,8|2,0:0|0:3,0:0:0:0:
309,149,87188,101,0,0:0:0:0:
478,37,87379,22,0,L|477:84,1,37.5
295,56,87570,102,0,L|294:9,1,37.5,0|0,3:0|0:0,0:0:0:0:
469,162,87761,1,0,0:0:0:0:
217,137,87952,1,8,0:3:0:0:
407,23,88143,5,0,0:0:0:0:
407,23,88526,1,0,0:0:0:0:
407,23,88717,21,2,3:0:0:0:
397,195,88908,1,0,0:0:0:0:
298,114,89099,69,0,0:0:0:0:
477,74,89290,1,2,3:0:0:0:
302,211,89481,101,8,0:3:0:0:
294,18,89672,1,0,0:0:0:0:
397,195,89863,5,0,3:0:0:0:
215,165,90054,1,8,0:0:0:0:
419,322,90245,101,0,0:0:0:0:
431,98,90436,1,0,0:0:0:0:
302,211,90627,5,2,3:0:0:0:
512,262,90819,2,0,L|511:174,1,75,0|8,0:0|0:3,0:0:0:0:
302,136,91201,2,0,L|301:224,1,75,2|0,0:3|0:0,0:0:0:0:
302,211,91583,1,0,3:0:0:0:
511,187,91774,38,0,P|519:131|491:75,1,112.5,2|0,3:0|0:0,0:0:0:0:
497,81,92156,1,0,0:0:0:0:
302,61,92347,2,0,L|301:149,1,75,2|8,0:3|0:3,0:0:0:0:
380,270,92729,69,0,0:0:0:0:
210,61,92920,1,0,3:0:0:0:
152,238,93112,1,2,0:3:0:0:
1,187,93303,102,0,P|-7:131|20:75,1,112.5
15,81,93685,1,2,3:0:0:0:
210,61,93876,2,0,L|211:149,2,75,0|8|0,0:0|0:3|0:0,0:0:0:0:
1,261,94449,2,0,L|0:173,1,75
298,210,94831,54,0,P|303:155|298:124,1,75,2|0,3:0|0:0,0:0:0:0:
147,96,95213,69,0,0:0:0:0:
210,135,95404,1,0,3:0:0:0:
321,23,95596,2,0,P|270:46|246:65,1,75,8|0,0:3|0:0,0:0:0:0:
395,110,95978,1,8,0:0:0:0:
395,110,96169,1,8,0:0:0:0:
321,23,96360,1,0,0:0:0:0:
321,23,96742,102,0,P|400:14|470:53,1,150,2|8,3:0|0:0,0:0:0:0:
147,96,97315,1,2,0:3:0:0:
147,96,97506,2,0,L|146:20,1,75
391,225,97889,53,2,3:0:0:0:
313,54,98080,1,0,0:0:0:0:
239,203,98271,69,0,0:0:0:0:
317,32,98462,1,2,3:0:0:0:
409,316,98653,102,0,P|447:293|466:262,1,75,8|0,0:3|0:0,0:0:0:0:
402,115,99035,2,0,P|364:138|345:169,1,75,0|8,0:0|0:0,0:0:0:0:
498,38,99417,5,8,0:0:0:0:
171,130,99799,1,2,3:0:0:0:
415,368,100182,1,8,0:3:0:0:
415,368,100564,22,0,B|414:305|414:305|421:296|421:296|419:217,1,150,2|0,0:0|0:0,0:0:0:0:
87,115,113175,118,0,B|154:178|221:137|221:137|286:177|366:139|366:139|281:99|271:32|271:32|243:74|258:116,1,525,6|0,0:0|0:0,0:0:0:0:
254,103,116233,6,0,B|234:198|296:234|296:234|358:202|352:106|352:106|403:186|483:146,1,450,6|2,0:0|0:0,0:0:0:0:
121,255,119290,6,0,B|121:192|105:146|12:208|12:161|-34:146|-34:68|-4:37|43:37|81:63|81:63|89:22|105:-9|152:-9|198:22|206:78|183:99|167:130|167:130|170:137|180:143,1,599.249990856171,6|4,0:0|0:0,0:0:0:0:
256,192,122729,12,0,124258,0:0:0:0:
441,97,124640,101,8,0:3:0:0:
441,97,125404,38,0,B|423:91|315:151|371:264|371:264|357:221|381:173,1,300,4|8,3:1|0:0,0:0:0:0:
345,29,125978,1,2,3:0:0:0:
490,28,126169,6,0,P|415:12|341:30,1,150,8|0,0:3|0:0,0:0:0:0:
232,180,126551,1,8,0:0:0:0:
232,180,126742,2,0,P|306:195|380:177,1,150,8|0,0:0|0:0,0:0:0:0:
125,42,127124,1,0,3:0:0:0:
125,42,127315,101,2,3:0:0:0:
95,258,127506,1,0,0:0:0:0:
44,1,127697,5,4,0:3:0:0:
97,283,127889,1,0,0:0:0:0:
206,83,128080,101,8,0:0:0:0:
99,308,128271,1,0,0:0:0:0:
359,332,128462,5,0,3:0:0:0:
98,308,128653,2,0,P|75:226|101:171,1,150,0|8,0:0|0:0,0:0:0:0:
380,333,129035,101,2,3:0:0:0:
2,265,129226,2,0,P|43:190|100:170,1,150,8|0,0:3|0:0,0:0:0:0:
295,69,129608,1,8,0:0:0:0:
295,69,129799,2,0,P|253:143|198:172,1,150,8|0,0:0|0:0,0:0:0:0:
442,97,130182,1,0,3:0:0:0:
380,333,130373,5,2,3:0:0:0:
197,172,130564,1,0,0:0:0:0:
381,350,130755,101,4,0:3:0:0:
442,97,130946,1,0,0:0:0:0:
381,367,131137,2,0,L|383:214,1,150,8|0,0:0|0:0,0:0:0:0:
388,14,131519,6,0,B|219:-33|153:105|303:159|295:59,1,300,0|8,3:0|0:0,0:0:0:0:
152,37,132092,1,2,3:0:0:0:
152,37,132283,2,0,P|158:116|202:176,1,150,8|0,0:3|0:0,0:0:0:0:
340,204,132666,101,8,0:0:0:0:
340,204,132857,2,0,P|334:125|290:65,1,150,8|0,0:0|0:0,0:0:0:0:
130,278,133239,1,0,3:0:0:0:
374,321,133430,5,2,3:0:0:0:
430,40,133621,1,0,0:0:0:0:
141,137,133812,101,4,0:3:0:0:
456,47,134003,1,0,0:0:0:0:
188,16,134194,5,8,0:0:0:0:
469,71,134385,1,0,0:0:0:0:
112,222,134576,101,0,3:0:0:0:
329,44,134768,1,0,0:0:0:0:
281,182,134959,1,8,0:0:0:0:
188,16,135150,1,2,3:0:0:0:
431,169,135341,6,0,P|468:234|479:308,1,150,8|0,0:3|0:0,0:0:0:0:
329,44,135723,1,8,0:0:0:0:
329,44,135914,2,0,P|292:108|281:182,1,150,8|0,0:0|0:0,0:0:0:0:
111,221,136296,1,0,3:0:0:0:
48,353,136487,102,0,P|67:281|111:221,1,150,2|0,3:0|0:0,0:0:0:0:
374,321,136869,5,4,0:3:0:0:
329,44,137061,1,0,0:0:0:0:
426,246,137252,101,8,0:0:0:0:
431,169,137443,1,0,0:0:0:0:
86,369,137634,6,0,B|105:324|62:275|62:275|20:224|72:163|72:163|114:183|110:229,1,300,4|8,3:2|0:0,0:0:0:0:
79,65,138207,1,2,3:0:0:0:
296,125,138398,6,0,B|220:93|220:93|291:113|366:83,1,225,8|0,0:3|0:0,0:0:0:0:
259,41,138780,2,0,P|322:78|397:82,2,150,8|8|0,0:0|0:0|0:0,0:0:0:0:
480,20,139354,1,0,3:0:0:0:
441,298,139545,85,2,3:0:0:0:
397,82,139736,1,0,0:0:0:0:
429,329,139927,5,4,0:3:0:0:
480,20,140118,1,0,0:0:0:0:
441,360,140309,101,8,0:0:0:0:
314,144,140500,1,0,0:0:0:0:
110,220,140691,5,0,3:0:0:0:
117,363,140882,2,0,P|95:279|112:215,1,150,0|8,0:0|0:0,0:0:0:0:
227,50,141264,1,2,3:0:0:0:
227,51,141455,6,0,B|265:152|223:200|223:200|194:184|194:140,1,225,8|0,0:3|0:0,0:0:0:0:
132,82,141838,2,0,P|220:67|277:98,2,150,8|8|0,0:0|0:0|0:0,0:0:0:0:
223,200,142411,1,0,3:0:0:0:
132,82,142602,85,2,3:0:0:0:
223,200,142793,1,0,0:0:0:0:
334,0,142984,5,4,0:3:0:0:
207,198,143175,1,0,0:0:0:0:
415,151,143366,101,8,0:0:0:0:
198,186,143557,1,0,0:0:0:0:
347,357,143748,5,2,3:0:0:0:
347,357,143940,2,0,P|370:286|345:217,1,150,2|8,3:0|0:0,0:0:0:0:
195,46,144322,1,2,3:0:0:0:
195,46,144513,6,0,P|172:116|301:108,1,225,8|0,0:3|0:0,0:0:0:0:
226,19,144895,2,0,P|155:71|145:138,2,150,8|8|0,0:0|0:0|0:0,0:0:0:0:
120,263,145468,1,0,3:0:0:0:
120,263,145659,85,2,3:0:0:0:
143,128,145850,1,0,0:0:0:0:
89,266,146041,5,4,0:3:0:0:
373,196,146233,1,0,0:0:0:0:
58,269,146424,101,8,0:0:0:0:
258,162,146615,1,0,0:0:0:0:
66,43,146806,5,0,3:0:0:0:
65,42,146997,2,0,P|139:68|205:45,1,150,0|8,0:0|0:0,0:0:0:0:
258,162,147379,1,2,3:0:0:0:
258,162,147570,2,0,P|331:136|397:159,2,150,8|0|8,0:3|0:0|0:0,0:0:0:0:
443,239,148143,1,8,0:0:0:0:
443,239,148334,102,0,P|483:162|452:94,1,150,0|0,0:0|3:0,0:0:0:0:
205,44,148717,1,2,3:0:0:0:
140,372,149099,70,0,P|262:162|358:385,1,600,4|2,0:3|3:0,0:0:0:0:
