osu file format v14

[General]
AudioFilename: audio.mp3
AudioLeadIn: 0
PreviewTime: 33979
Countdown: 0
SampleSet: Normal
StackLeniency: 0.7
Mode: 1
LetterboxInBreaks: 0
WidescreenStoryboard: 0

[Editor]
DistanceSpacing: 0.3
BeatDivisor: 4
GridSize: 32
TimelineZoom: 2.599999

[Metadata]
Title:Tamale
TitleUnicode:Tamale
Artist:Tyler, The Creator
ArtistUnicode:Tyler, The Creator
Creator:Skull Kid
Version:A VISUAL INTERPRETATION OF TYLER'S MIND
Source:
Tags:Ulqui Vulkin Genjuro ikin5050 Wolf hip hop rap english Okonma Tallulah
BeatmapID:2273140
BeatmapSetID:1087041

[Difficulty]
HPDrainRate:6.9
CircleSize:4
OverallDifficulty:6
ApproachRate:9
SliderMultiplier:1.4
SliderTickRate:1

[Events]
//Background and Video events
0,0,"BG.png",0,30
//Break Periods
//Storyboard Layer 0 (Background)
//Storyboard Layer 1 (Fail)
//Storyboard Layer 2 (Pass)
//Storyboard Layer 3 (Foreground)
//Storyboard Layer 4 (Overlay)
//Storyboard Sound Samples

[TimingPoints]
95,612.244897959184,4,1,0,60,1,0
95,-62.5,4,1,0,60,0,0
299,-71.4285714285714,4,1,0,60,0,0
503,-83.3333333333333,4,1,0,60,0,0
707,480,4,1,0,60,1,8
707,-62.5,4,1,0,60,0,8
867,-71.4285714285714,4,1,0,60,0,8
1027,-83.3333333333333,4,1,0,60,0,8
1187,410.958904109589,4,1,0,60,1,8
1187,-55.5555555555556,4,1,0,60,0,8
1323,-62.5,4,1,0,60,0,8
1460,-71.4285714285714,4,1,0,60,0,8
1597,-50,4,1,0,60,0,8
1734,-55.5555555555556,4,1,0,60,0,8
1871,-62.5,4,1,0,60,0,8
2008,-45.4545454545455,4,1,0,60,0,8
2145,-50,4,1,0,60,0,8
2282,-55.5555555555556,4,1,0,60,0,8
2419,-41.6666666666667,4,1,0,60,0,8
2556,-45.4545454545455,4,1,0,60,0,8
2693,-50,4,1,0,60,0,8
2830,410.958904109589,4,1,0,60,1,8
2830,-62.5,4,1,0,60,0,8
2984,-71.4285714285714,4,1,0,60,0,8
3138,-83.3333333333333,4,1,0,60,0,8
3857,-112.359550561798,4,1,0,60,0,8
4473,410.958904109589,4,1,0,60,1,8
4474,461.538461538462,4,1,0,60,1,0
17397,-200,4,1,0,60,0,0
18550,-125,4,1,0,60,0,0
18666,-133.333333333333,4,1,0,60,0,0
18781,-142.857142857143,4,1,0,60,0,0
19012,-153.846153846154,4,1,0,60,0,0
19243,-71.4285714285714,4,1,0,60,0,0
25704,-71.9424460431655,4,1,0,60,0,0
26050,-72.463768115942,4,1,0,60,0,0
26166,-72.992700729927,4,1,0,60,0,0
26397,-73.5294117647059,4,1,0,60,0,0
26627,-74.0740740740741,4,1,0,60,0,0
27550,-74.6268656716418,4,1,0,60,0,0
27897,-75.187969924812,4,1,0,60,0,0
28012,-75.7575757575758,4,1,0,60,0,0
28243,-76.3358778625954,4,1,0,60,0,0
28474,-76.9230769230769,4,1,0,60,0,0
29743,-77.5193798449612,4,1,0,60,0,0
29858,-78.125,4,1,0,60,0,0
30012,-78.7401574803149,4,1,0,60,0,0
30166,-79.3650793650794,4,1,0,60,0,0
30320,-80,4,1,0,60,0,0
31589,-80.6451612903226,4,1,0,60,0,0
31704,-81.3008130081301,4,1,0,60,0,0
31935,-81.9672131147541,4,1,0,60,0,0
32050,-82.6446280991736,4,1,0,60,0,0
32166,-83.3333333333333,4,1,0,60,0,0
33320,-84.0336134453781,4,1,0,60,0,0
33435,-84.7457627118644,4,1,0,60,0,0
33550,-85.4700854700855,4,1,0,60,0,0
33781,-86.2068965517241,4,1,0,60,0,0
34012,-40,4,1,0,60,0,1
34243,-62.5,4,1,0,60,0,1
34474,-74.0740740740741,4,1,0,60,0,1
34704,-90.9090909090909,4,1,0,60,0,1
34935,-117.647058823529,4,1,0,60,0,1
35166,-40,4,1,0,60,0,1
35281,-33.3333333333333,4,1,0,60,0,1
35397,-28.5714285714286,4,1,0,60,0,1
35627,-25,4,1,0,60,0,1
35857,-40,4,1,0,60,0,1
36088,-62.5,4,1,0,60,0,1
36319,-74.0740740740741,4,1,0,60,0,1
36549,-90.9090909090909,4,1,0,60,0,1
36780,-117.647058823529,4,1,0,60,0,1
37011,-40,4,1,0,60,0,1
37126,-33.3333333333333,4,1,0,60,0,1
37242,-28.5714285714286,4,1,0,60,0,1
37472,-25,4,1,0,60,0,1
37703,-40,4,1,0,60,0,1
37934,-62.5,4,1,0,60,0,1
38165,-74.0740740740741,4,1,0,60,0,1
38395,-90.9090909090909,4,1,0,60,0,1
38626,-117.647058823529,4,1,0,60,0,1
38857,-40,4,1,0,60,0,1
38972,-33.3333333333333,4,1,0,60,0,1
39088,-28.5714285714286,4,1,0,60,0,1
39318,-25,4,1,0,60,0,1
39549,-40,4,1,0,60,0,1
39780,-62.5,4,1,0,60,0,1
40011,-74.0740740740741,4,1,0,60,0,1
40241,-90.9090909090909,4,1,0,60,0,1
40472,-117.647058823529,4,1,0,60,0,1
40703,-40,4,1,0,60,0,1
40818,-33.3333333333333,4,1,0,60,0,1
40934,-28.5714285714286,4,1,0,60,0,1
41164,-25,4,1,0,60,0,1
41394,-40,4,1,0,60,0,1
41627,-62.5,4,1,0,60,0,1
41743,-71.4285714285714,4,1,0,60,0,1
41858,-83.3333333333333,4,1,0,60,0,1
42089,-100,4,1,0,60,0,1
42320,-125,4,1,0,60,0,1
42550,-40,4,1,0,60,0,1
42666,-33.3333333333333,4,1,0,60,0,1
42781,-28.5714285714286,4,1,0,60,0,1
43012,-25,4,1,0,60,0,1
43243,-40,4,1,0,60,0,1
43474,-62.5,4,1,0,60,0,1
43589,-71.4285714285714,4,1,0,60,0,1
43704,-83.3333333333333,4,1,0,60,0,1
43820,-100,4,1,0,60,0,1
43935,-125,4,1,0,60,0,1
44166,-166.666666666667,4,1,0,60,0,1
44397,-40,4,1,0,60,0,1
44512,-33.3333333333333,4,1,0,60,0,1
44627,-28.5714285714286,4,1,0,60,0,1
44858,-25,4,1,0,60,0,1
45089,-40,4,1,0,60,0,1
45320,-62.5,4,1,0,60,0,1
45435,-71.4285714285714,4,1,0,60,0,1
45550,-83.3333333333333,4,1,0,60,0,1
45781,-100,4,1,0,60,0,1
46012,-125,4,1,0,60,0,1
46243,-40,4,1,0,60,0,1
46358,-33.3333333333333,4,1,0,60,0,1
46474,-28.5714285714286,4,1,0,60,0,1
46704,-25,4,1,0,60,0,1
46935,-40,4,1,0,60,0,1
47166,-62.5,4,1,0,60,0,1
47281,-71.4285714285714,4,1,0,60,0,1
47397,-83.3333333333333,4,1,0,60,0,1
47512,-100,4,1,0,60,0,1
47627,-125,4,1,0,60,0,1
47858,-166.666666666667,4,1,0,60,0,1
48320,-250.000000000001,4,1,0,60,0,0
48781,-71.4285714285714,4,1,0,60,0,0
58243,-74.0740740740741,4,1,0,60,0,0
58358,-76.9230769230769,4,1,0,60,0,0
58474,-80,4,1,0,60,0,0
58589,-83.3333333333333,4,1,0,60,0,0
58704,-86.9565217391304,4,1,0,60,0,0
58935,-90.9090909090909,4,1,0,60,0,0
59397,-71.4285714285714,4,1,0,60,0,0
74743,-100,4,1,0,60,0,0
78320,-40,4,1,0,60,0,1
78550,-62.5,4,1,0,60,0,1
78781,-74.0740740740741,4,1,0,60,0,1
79011,-90.9090909090909,4,1,0,60,0,1
79242,-117.647058823529,4,1,0,60,0,1
79473,-40,4,1,0,60,0,1
79588,-33.3333333333333,4,1,0,60,0,1
79704,-28.5714285714286,4,1,0,60,0,1
79934,-25,4,1,0,60,0,1
80164,-40,4,1,0,60,0,1
80395,-62.5,4,1,0,60,0,1
80626,-74.0740740740741,4,1,0,60,0,1
80856,-90.9090909090909,4,1,0,60,0,1
81087,-117.647058823529,4,1,0,60,0,1
81318,-40,4,1,0,60,0,1
81433,-33.3333333333333,4,1,0,60,0,1
81549,-28.5714285714286,4,1,0,60,0,1
81779,-25,4,1,0,60,0,1
82010,-40,4,1,0,60,0,1
82241,-62.5,4,1,0,60,0,1
82472,-74.0740740740741,4,1,0,60,0,1
82702,-90.9090909090909,4,1,0,60,0,1
82933,-117.647058823529,4,1,0,60,0,1
83164,-40,4,1,0,60,0,1
83279,-33.3333333333333,4,1,0,60,0,1
83395,-28.5714285714286,4,1,0,60,0,1
83625,-25,4,1,0,60,0,1
83856,-40,4,1,0,60,0,1
84087,-62.5,4,1,0,60,0,1
84318,-74.0740740740741,4,1,0,60,0,1
84548,-90.9090909090909,4,1,0,60,0,1
84779,-117.647058823529,4,1,0,60,0,1
85010,-40,4,1,0,60,0,1
85125,-33.3333333333333,4,1,0,60,0,1
85241,-28.5714285714286,4,1,0,60,0,1
85471,-25,4,1,0,60,0,1
85701,-40,4,1,0,60,0,1
85934,-62.5,4,1,0,60,0,1
86050,-71.4285714285714,4,1,0,60,0,1
86165,-83.3333333333333,4,1,0,60,0,1
86396,-100,4,1,0,60,0,1
86627,-125,4,1,0,60,0,1
86857,-40,4,1,0,60,0,1
86973,-33.3333333333333,4,1,0,60,0,1
87088,-28.5714285714286,4,1,0,60,0,1
87319,-25,4,1,0,60,0,1
87550,-40,4,1,0,60,0,1
87781,-62.5,4,1,0,60,0,1
87896,-71.4285714285714,4,1,0,60,0,1
88011,-83.3333333333333,4,1,0,60,0,1
88127,-100,4,1,0,60,0,1
88242,-125,4,1,0,60,0,1
88473,-166.666666666667,4,1,0,60,0,1
88704,-40,4,1,0,60,0,1
88819,-33.3333333333333,4,1,0,60,0,1
88934,-28.5714285714286,4,1,0,60,0,1
89165,-25,4,1,0,60,0,1
89396,-40,4,1,0,60,0,1
89627,-62.5,4,1,0,60,0,1
89742,-71.4285714285714,4,1,0,60,0,1
89857,-83.3333333333333,4,1,0,60,0,1
90088,-100,4,1,0,60,0,1
90319,-125,4,1,0,60,0,1
90550,-142.857142857143,4,1,0,60,0,1
90781,-166.666666666667,4,1,0,60,0,1
91012,-200,4,1,0,60,0,1
91242,-40,4,1,0,60,0,1
91473,-62.5,4,1,0,60,0,1
91588,-71.4285714285714,4,1,0,60,0,1
91704,-83.3333333333333,4,1,0,60,0,1
91819,-100,4,1,0,60,0,1
91934,-125,4,1,0,60,0,1
92165,-166.666666666667,4,1,0,60,0,1
92627,-250.000000000001,4,1,0,60,0,0
93089,-71.4285714285714,4,1,0,60,0,0
107858,-40,4,1,0,60,0,1
108087,-62.5,4,1,0,60,0,1
108318,-74.0740740740741,4,1,0,60,0,1
108548,-90.9090909090909,4,1,0,60,0,1
108779,-117.647058823529,4,1,0,60,0,1
109010,-40,4,1,0,60,0,1
109125,-33.3333333333333,4,1,0,60,0,1
109241,-28.5714285714286,4,1,0,60,0,1
109471,-25,4,1,0,60,0,1
109701,-40,4,1,0,60,0,1
109932,-62.5,4,1,0,60,0,1
110163,-74.0740740740741,4,1,0,60,0,1
110393,-90.9090909090909,4,1,0,60,0,1
110624,-117.647058823529,4,1,0,60,0,1
110855,-40,4,1,0,60,0,1
110970,-33.3333333333333,4,1,0,60,0,1
111086,-28.5714285714286,4,1,0,60,0,1
111316,-25,4,1,0,60,0,1
111547,-40,4,1,0,60,0,1
111778,-62.5,4,1,0,60,0,1
112009,-74.0740740740741,4,1,0,60,0,1
112239,-90.9090909090909,4,1,0,60,0,1
112470,-117.647058823529,4,1,0,60,0,1
112701,-40,4,1,0,60,0,1
112816,-33.3333333333333,4,1,0,60,0,1
112932,-28.5714285714286,4,1,0,60,0,1
113162,-25,4,1,0,60,0,1
113393,-40,4,1,0,60,0,1
113624,-62.5,4,1,0,60,0,1
113855,-74.0740740740741,4,1,0,60,0,1
114085,-90.9090909090909,4,1,0,60,0,1
114316,-117.647058823529,4,1,0,60,0,1
114547,-40,4,1,0,60,0,1
114662,-33.3333333333333,4,1,0,60,0,1
114778,-28.5714285714286,4,1,0,60,0,1
115008,-25,4,1,0,60,0,1
115238,-40,4,1,0,60,0,1
115471,-62.5,4,1,0,60,0,1
115587,-71.4285714285714,4,1,0,60,0,1
115702,-83.3333333333333,4,1,0,60,0,1
115933,-100,4,1,0,60,0,1
116164,-125,4,1,0,60,0,1
116394,-40,4,1,0,60,0,1
116510,-33.3333333333333,4,1,0,60,0,1
116625,-28.5714285714286,4,1,0,60,0,1
116856,-25,4,1,0,60,0,1
117087,-40,4,1,0,60,0,1
117318,-62.5,4,1,0,60,0,1
117433,-71.4285714285714,4,1,0,60,0,1
117548,-83.3333333333333,4,1,0,60,0,1
117664,-100,4,1,0,60,0,1
117779,-125,4,1,0,60,0,1
118010,-166.666666666667,4,1,0,60,0,1
118241,-40,4,1,0,60,0,1
118356,-33.3333333333333,4,1,0,60,0,1
118471,-28.5714285714286,4,1,0,60,0,1
118702,-25,4,1,0,60,0,1
118933,-40,4,1,0,60,0,1
119164,-62.5,4,1,0,60,0,1
119279,-71.4285714285714,4,1,0,60,0,1
119394,-83.3333333333333,4,1,0,60,0,1
119625,-100,4,1,0,60,0,1
119856,-125,4,1,0,60,0,1
120087,-40,4,1,0,60,0,1
120318,-166.666666666667,4,1,0,60,0,1
120549,-200,4,1,0,60,0,1
120779,-40,4,1,0,60,0,1
121010,-62.5,4,1,0,60,0,1
121125,-71.4285714285714,4,1,0,60,0,1
121241,-83.3333333333333,4,1,0,60,0,1
121356,-100,4,1,0,60,0,1
121471,-125,4,1,0,60,0,1
121702,-166.666666666667,4,1,0,60,0,1
121935,-40,4,1,0,60,0,1
122050,-33.3333333333333,4,1,0,60,0,1
122166,-28.5714285714286,4,1,0,60,0,0
122397,-25,4,1,0,60,0,0
122627,-71.4285714285714,4,1,0,60,0,0
133935,-72.463768115942,4,1,0,60,0,0
134050,-73.5294117647059,4,1,0,60,0,0
134166,-74.6268656716418,4,1,0,60,0,0
134397,-75.7575757575758,4,1,0,60,0,0
134627,-76.9230769230769,4,1,0,60,0,0
134858,-78.125,4,1,0,60,0,0
135089,-79.3650793650794,4,1,0,60,0,0
135166,-80.6451612903226,4,1,0,60,0,0
135243,-81.9672131147541,4,1,0,60,0,0
135320,-83.3333333333333,4,1,0,60,0,0
135397,-84.7457627118644,4,1,0,60,0,0
135474,-86.2068965517241,4,1,0,60,0,0
135550,-71.4285714285714,4,1,0,60,0,0
135780,-72.463768115942,4,1,0,60,0,0
135895,-73.5294117647059,4,1,0,60,0,0
136011,-74.6268656716418,4,1,0,60,0,0
136242,-75.7575757575758,4,1,0,60,0,0
136472,-76.9230769230769,4,1,0,60,0,0
136703,-78.125,4,1,0,60,0,0
136934,-79.3650793650794,4,1,0,60,0,0
137011,-80.6451612903226,4,1,0,60,0,0
137088,-81.9672131147541,4,1,0,60,0,0
137165,-83.3333333333333,4,1,0,60,0,0
137242,-84.7457627118644,4,1,0,60,0,0
137319,-86.2068965517241,4,1,0,60,0,0
137397,-71.4285714285714,4,1,0,60,0,0
140166,-38.4615384615385,4,1,0,60,0,0
140397,-71.4285714285714,4,1,0,60,0,0
147781,-100,4,1,0,60,0,0
152166,-50,4,1,0,60,0,1
152396,-90.9090909090909,4,1,0,60,0,1
152627,-117.647058823529,4,1,0,60,0,1
152857,-166.666666666667,4,1,0,60,0,1
153088,-285.714285714284,4,1,0,60,0,1
153319,-50,4,1,0,60,0,1
153434,-40,4,1,0,60,0,1
153550,-33.3333333333333,4,1,0,60,0,1
153780,-28.5714285714286,4,1,0,60,0,1
154010,-50,4,1,0,60,0,1
154241,-90.9090909090909,4,1,0,60,0,1
154472,-117.647058823529,4,1,0,60,0,1
154702,-166.666666666667,4,1,0,60,0,1
154933,-285.714285714284,4,1,0,60,0,1
155164,-50,4,1,0,60,0,1
155279,-40,4,1,0,60,0,1
155395,-33.3333333333333,4,1,0,60,0,1
155625,-28.5714285714286,4,1,0,60,0,1
155856,-50,4,1,0,60,0,1
156087,-90.9090909090909,4,1,0,60,0,1
156318,-117.647058823529,4,1,0,60,0,1
156548,-166.666666666667,4,1,0,60,0,1
156779,-285.714285714284,4,1,0,60,0,1
157010,-50,4,1,0,60,0,1
157125,-40,4,1,0,60,0,1
157241,-33.3333333333333,4,1,0,60,0,1
157471,-28.5714285714286,4,1,0,60,0,1
157702,-50,4,1,0,60,0,1
157933,-90.9090909090909,4,1,0,60,0,1
158164,-117.647058823529,4,1,0,60,0,1
158394,-166.666666666667,4,1,0,60,0,1
158627,-285.714285714284,4,1,0,60,0,0

[HitObjects]
256,192,95,5,8,0:0:0:0:
256,192,299,1,8,0:0:0:0:
256,192,503,1,0,0:0:0:0:
256,192,707,1,8,0:0:0:0:
256,192,867,1,8,0:0:0:0:
256,192,1027,1,0,0:0:0:0:
256,192,1187,1,8,0:0:0:0:
256,192,1323,1,8,0:0:0:0:
256,192,1460,1,0,0:0:0:0:
256,192,1597,1,8,0:0:0:0:
256,192,1734,1,8,0:0:0:0:
256,192,1871,1,0,0:0:0:0:
256,192,2008,1,8,0:0:0:0:
256,192,2145,1,8,0:0:0:0:
256,192,2282,1,0,0:0:0:0:
256,192,2419,1,8,0:0:0:0:
256,192,2556,1,8,0:0:0:0:
256,192,2693,1,0,0:0:0:0:
256,192,2830,1,8,0:0:0:0:
256,192,2984,1,8,0:0:0:0:
256,192,3138,1,0,0:0:0:0:
256,192,3925,1,0,0:0:0:0:
256,192,4062,1,8,0:0:0:0:
256,192,4268,1,8,0:0:0:0:
256,192,4474,1,0,0:0:0:0:
256,192,4704,1,8,0:0:0:0:
256,192,4820,1,8,0:0:0:0:
256,192,4935,1,8,0:0:0:0:
256,192,5166,1,0,0:0:0:0:
256,192,5397,1,8,0:0:0:0:
256,192,5627,1,0,0:0:0:0:
256,192,5858,1,8,0:0:0:0:
256,192,6089,1,0,0:0:0:0:
256,192,6320,1,0,0:0:0:0:
256,192,6550,1,8,0:0:0:0:
256,192,6666,1,8,0:0:0:0:
256,192,6781,1,8,0:0:0:0:
256,192,7012,1,0,0:0:0:0:
256,192,7243,1,8,0:0:0:0:
256,192,7474,1,0,0:0:0:0:
256,192,7704,1,8,0:0:0:0:
256,192,7935,1,8,0:0:0:0:
256,192,8166,1,0,0:0:0:0:
256,192,8397,1,8,0:0:0:0:
256,192,8512,1,8,0:0:0:0:
256,192,8627,1,8,0:0:0:0:
256,192,8858,1,0,0:0:0:0:
256,192,9089,1,8,0:0:0:0:
256,192,9320,1,0,0:0:0:0:
256,192,9550,1,8,0:0:0:0:
256,192,9781,1,0,0:0:0:0:
256,192,10012,1,0,0:0:0:0:
256,192,10243,1,8,0:0:0:0:
256,192,10358,1,8,0:0:0:0:
256,192,10474,1,8,0:0:0:0:
256,192,10704,1,0,0:0:0:0:
256,192,10935,1,8,0:0:0:0:
256,192,11166,1,0,0:0:0:0:
256,192,11397,1,8,0:0:0:0:
256,192,11627,1,8,0:0:0:0:
256,192,11858,1,0,0:0:0:0:
256,192,12089,1,8,0:0:0:0:
256,192,12204,1,8,0:0:0:0:
256,192,12320,1,8,0:0:0:0:
256,192,12550,1,0,0:0:0:0:
256,192,12781,1,8,0:0:0:0:
256,192,13012,1,0,0:0:0:0:
256,192,13243,1,8,0:0:0:0:
256,192,13474,1,0,0:0:0:0:
256,192,13704,1,0,0:0:0:0:
256,192,13935,1,8,0:0:0:0:
256,192,14050,1,8,0:0:0:0:
256,192,14166,1,8,0:0:0:0:
256,192,14397,1,0,0:0:0:0:
256,192,14627,1,8,0:0:0:0:
256,192,14858,1,0,0:0:0:0:
256,192,15089,1,8,0:0:0:0:
256,192,15320,1,8,0:0:0:0:
256,192,15550,1,0,0:0:0:0:
256,192,15781,1,8,0:0:0:0:
256,192,15897,1,8,0:0:0:0:
256,192,16012,1,8,0:0:0:0:
256,192,16243,1,0,0:0:0:0:
256,192,16474,1,8,0:0:0:0:
256,192,16704,1,0,0:0:0:0:
256,192,18550,1,8,0:0:0:0:
256,192,18666,1,8,0:0:0:0:
256,192,18781,1,8,0:0:0:0:
256,192,19012,1,8,0:0:0:0:
256,192,19243,1,0,0:0:0:0:
256,192,19358,1,8,0:0:0:0:
256,192,19474,1,0,0:0:0:0:
256,192,19589,1,0,0:0:0:0:
256,192,19704,1,8,0:0:0:0:
256,192,19935,1,0,0:0:0:0:
256,192,20166,1,8,0:0:0:0:
256,192,20281,1,8,0:0:0:0:
256,192,20512,1,0,0:0:0:0:
256,192,20627,1,8,0:0:0:0:
256,192,20743,1,0,0:0:0:0:
256,192,20858,1,8,0:0:0:0:
256,192,20974,1,8,0:0:0:0:
256,192,21089,1,0,0:0:0:0:
256,192,21320,1,8,0:0:0:0:
256,192,21435,1,0,0:0:0:0:
256,192,21550,1,8,0:0:0:0:
256,192,21781,1,0,0:0:0:0:
256,192,21897,1,8,0:0:0:0:
256,192,22012,1,8,0:0:0:0:
256,192,22127,1,0,0:0:0:0:
256,192,22358,1,8,0:0:0:0:
256,192,22474,1,0,0:0:0:0:
256,192,22589,1,0,0:0:0:0:
256,192,22704,1,8,0:0:0:0:
256,192,22820,1,0,0:0:0:0:
256,192,22935,1,8,0:0:0:0:
256,192,23050,1,8,0:0:0:0:
256,192,23166,1,0,0:0:0:0:
256,192,23281,1,0,0:0:0:0:
256,192,23397,1,8,0:0:0:0:
256,192,23627,1,0,0:0:0:0:
256,192,23858,1,8,0:0:0:0:
256,192,23974,1,8,0:0:0:0:
256,192,24204,1,0,0:0:0:0:
256,192,24320,1,8,0:0:0:0:
256,192,24550,1,0,0:0:0:0:
256,192,24666,1,8,0:0:0:0:
256,192,24781,1,0,0:0:0:0:
256,192,24897,1,0,0:0:0:0:
256,192,25012,1,8,0:0:0:0:
256,192,25127,1,8,0:0:0:0:
256,192,25243,1,0,0:0:0:0:
256,192,25474,1,0,0:0:0:0:
256,192,25704,1,8,0:0:0:0:
256,192,25820,1,8,0:0:0:0:
256,192,26050,1,0,0:0:0:0:
256,192,26166,1,8,0:0:0:0:
256,192,26397,1,8,0:0:0:0:
256,192,26627,1,0,0:0:0:0:
256,192,26858,1,8,0:0:0:0:
256,192,26974,1,8,0:0:0:0:
256,192,27089,1,0,0:0:0:0:
256,192,27204,1,0,0:0:0:0:
256,192,27320,1,8,0:0:0:0:
256,192,27550,1,0,0:0:0:0:
256,192,27666,1,8,0:0:0:0:
256,192,27897,1,8,0:0:0:0:
256,192,28012,1,0,0:0:0:0:
256,192,28243,1,8,0:0:0:0:
256,192,28474,1,0,0:0:0:0:
256,192,28589,1,0,0:0:0:0:
256,192,28704,1,8,0:0:0:0:
256,192,28820,1,8,0:0:0:0:
256,192,28935,1,0,0:0:0:0:
256,192,29166,1,8,0:0:0:0:
256,192,29397,1,0,0:0:0:0:
256,192,29512,1,8,0:0:0:0:
256,192,29743,1,8,0:0:0:0:
256,192,29858,1,0,0:0:0:0:
256,192,30089,1,8,0:0:0:0:
256,192,30204,1,0,0:0:0:0:
256,192,30320,1,8,0:0:0:0:
256,192,30474,1,0,0:0:0:0:
256,192,30627,1,0,0:0:0:0:
256,192,30781,1,8,0:0:0:0:
256,192,31012,1,0,0:0:0:0:
256,192,31243,1,8,0:0:0:0:
256,192,31474,1,0,0:0:0:0:
256,192,31589,1,8,0:0:0:0:
256,192,31704,1,8,0:0:0:0:
256,192,31935,1,0,0:0:0:0:
256,192,32050,1,0,0:0:0:0:
256,192,32166,1,8,0:0:0:0:
256,192,32281,1,0,0:0:0:0:
256,192,32397,1,8,0:0:0:0:
256,192,32512,1,8,0:0:0:0:
256,192,32627,1,0,0:0:0:0:
256,192,32781,1,8,0:0:0:0:
256,192,32935,1,8,0:0:0:0:
256,192,33089,1,0,0:0:0:0:
256,192,33320,1,8,0:0:0:0:
256,192,33435,1,8,0:0:0:0:
256,192,33550,1,0,0:0:0:0:
256,192,33781,1,8,0:0:0:0:
256,192,34012,1,4,0:0:0:0:
256,192,34243,1,0,0:0:0:0:
256,192,34474,1,8,0:0:0:0:
256,192,34704,1,0,0:0:0:0:
256,192,34935,1,0,0:0:0:0:
256,192,35166,1,12,0:0:0:0:
256,192,35281,1,12,0:0:0:0:
256,192,35397,1,12,0:0:0:0:
256,192,35627,1,12,0:0:0:0:
256,192,35858,1,4,0:0:0:0:
256,192,36089,1,0,0:0:0:0:
256,192,36320,1,8,0:0:0:0:
256,192,36550,1,0,0:0:0:0:
256,192,36781,1,0,0:0:0:0:
256,192,37012,1,12,0:0:0:0:
256,192,37127,1,12,0:0:0:0:
256,192,37243,1,12,0:0:0:0:
256,192,37474,1,12,0:0:0:0:
256,192,37704,1,4,0:0:0:0:
256,192,37935,1,0,0:0:0:0:
256,192,38166,1,8,0:0:0:0:
256,192,38397,1,0,0:0:0:0:
256,192,38627,1,0,0:0:0:0:
256,192,38858,1,12,0:0:0:0:
256,192,38974,1,12,0:0:0:0:
256,192,39089,1,12,0:0:0:0:
256,192,39320,1,12,0:0:0:0:
256,192,39550,1,4,0:0:0:0:
256,192,39781,1,0,0:0:0:0:
256,192,40012,1,8,0:0:0:0:
256,192,40243,1,0,0:0:0:0:
256,192,40474,1,0,0:0:0:0:
256,192,40704,1,12,0:0:0:0:
256,192,40820,1,12,0:0:0:0:
256,192,40935,1,12,0:0:0:0:
256,192,41166,1,12,0:0:0:0:
256,192,41397,1,4,0:0:0:0:
256,192,41627,1,8,0:0:0:0:
256,192,41743,1,8,0:0:0:0:
256,192,41858,1,0,0:0:0:0:
256,192,42089,1,8,0:0:0:0:
256,192,42320,1,0,0:0:0:0:
256,192,42550,1,12,0:0:0:0:
256,192,42666,1,12,0:0:0:0:
256,192,42781,1,12,0:0:0:0:
256,192,43012,1,12,0:0:0:0:
256,192,43243,1,4,0:0:0:0:
256,192,43474,1,8,0:0:0:0:
256,192,43589,1,8,0:0:0:0:
256,192,43704,1,0,0:0:0:0:
256,192,43820,1,0,0:0:0:0:
256,192,43935,1,8,0:0:0:0:
256,192,44166,1,0,0:0:0:0:
256,192,44397,1,12,0:0:0:0:
256,192,44512,1,12,0:0:0:0:
256,192,44627,1,12,0:0:0:0:
256,192,44858,1,12,0:0:0:0:
256,192,45089,1,4,0:0:0:0:
256,192,45320,1,8,0:0:0:0:
256,192,45435,1,8,0:0:0:0:
256,192,45550,1,0,0:0:0:0:
256,192,45781,1,8,0:0:0:0:
256,192,46012,1,0,0:0:0:0:
256,192,46243,1,12,0:0:0:0:
256,192,46358,1,12,0:0:0:0:
256,192,46474,1,12,0:0:0:0:
256,192,46704,1,12,0:0:0:0:
256,192,46935,1,4,0:0:0:0:
256,192,47166,1,8,0:0:0:0:
256,192,47281,1,8,0:0:0:0:
256,192,47397,1,0,0:0:0:0:
256,192,47512,1,0,0:0:0:0:
256,192,47627,1,8,0:0:0:0:
256,192,47858,1,0,0:0:0:0:
256,192,48320,1,8,0:0:0:0:
256,192,48781,1,0,0:0:0:0:
256,192,48954,1,8,0:0:0:0:
256,192,49012,1,0,0:0:0:0:
256,192,49127,1,0,0:0:0:0:
256,192,49243,1,8,0:0:0:0:
256,192,49358,1,0,0:0:0:0:
256,192,49474,1,8,0:0:0:0:
256,192,49589,1,8,0:0:0:0:
256,192,49704,1,0,0:0:0:0:
256,192,49820,1,8,0:0:0:0:
256,192,50050,1,0,0:0:0:0:
256,192,50166,1,8,0:0:0:0:
256,192,50281,1,0,0:0:0:0:
256,192,50397,1,8,0:0:0:0:
256,192,50512,1,8,0:0:0:0:
256,192,50627,1,0,0:0:0:0:
256,192,50743,1,8,0:0:0:0:
256,192,50858,1,0,0:0:0:0:
256,192,50974,1,0,0:0:0:0:
256,192,51089,1,8,0:0:0:0:
256,192,51320,1,0,0:0:0:0:
256,192,51435,1,8,0:0:0:0:
256,192,51550,1,8,0:0:0:0:
256,192,51666,1,0,0:0:0:0:
256,192,51897,1,8,0:0:0:0:
256,192,52012,1,8,0:0:0:0:
256,192,52127,1,0,0:0:0:0:
256,192,52243,1,8,0:0:0:0:
256,192,52474,1,0,0:0:0:0:
256,192,52589,1,8,0:0:0:0:
256,192,52704,1,0,0:0:0:0:
256,192,52820,1,0,0:0:0:0:
256,192,52935,1,8,0:0:0:0:
256,192,53166,1,0,0:0:0:0:
256,192,53281,1,8,0:0:0:0:
256,192,53397,1,8,0:0:0:0:
256,192,53512,1,0,0:0:0:0:
256,192,53743,1,8,0:0:0:0:
256,192,53858,1,0,0:0:0:0:
256,192,53974,1,8,0:0:0:0:
256,192,54089,1,0,0:0:0:0:
256,192,54204,1,0,0:0:0:0:
256,192,54320,1,8,0:0:0:0:
256,192,54435,1,0,0:0:0:0:
256,192,54550,1,8,0:0:0:0:
256,192,54666,1,8,0:0:0:0:
256,192,54781,1,0,0:0:0:0:
256,192,55012,1,8,0:0:0:0:
256,192,55127,1,8,0:0:0:0:
256,192,55243,1,0,0:0:0:0:
256,192,55358,1,8,0:0:0:0:
256,192,55589,1,0,0:0:0:0:
256,192,55704,1,8,0:0:0:0:
256,192,55820,1,0,0:0:0:0:
256,192,55935,1,8,0:0:0:0:
256,192,56050,1,8,0:0:0:0:
256,192,56166,1,0,0:0:0:0:
256,192,56281,1,8,0:0:0:0:
256,192,56512,1,0,0:0:0:0:
256,192,56627,1,8,0:0:0:0:
256,192,56858,1,0,0:0:0:0:
256,192,56974,1,8,0:0:0:0:
256,192,57089,1,8,0:0:0:0:
256,192,57320,1,0,0:0:0:0:
256,192,57435,1,0,0:0:0:0:
256,192,57550,1,8,0:0:0:0:
256,192,57666,1,0,0:0:0:0:
256,192,57781,1,8,0:0:0:0:
256,192,57897,1,8,0:0:0:0:
256,192,58012,1,0,0:0:0:0:
256,192,58243,1,8,0:0:0:0:
256,192,58358,1,8,0:0:0:0:
256,192,58474,1,0,0:0:0:0:
256,192,58589,1,0,0:0:0:0:
256,192,58704,1,8,0:0:0:0:
256,192,58935,1,0,0:0:0:0:
256,192,59397,1,8,0:0:0:0:
256,192,59627,1,8,0:0:0:0:
256,192,59858,1,0,0:0:0:0:
256,192,60031,1,8,0:0:0:0:
256,192,60089,1,0,0:0:0:0:
256,192,60204,1,0,0:0:0:0:
256,192,60320,1,8,0:0:0:0:
256,192,60550,1,0,0:0:0:0:
256,192,60666,1,8,0:0:0:0:
256,192,60781,1,0,0:0:0:0:
256,192,61012,1,8,0:0:0:0:
256,192,61127,1,8,0:0:0:0:
256,192,61243,1,0,0:0:0:0:
256,192,61358,1,0,0:0:0:0:
256,192,61474,1,8,0:0:0:0:
256,192,61704,1,0,0:0:0:0:
256,192,61935,1,8,0:0:0:0:
256,192,62050,1,0,0:0:0:0:
256,192,62166,1,8,0:0:0:0:
256,192,62397,1,0,0:0:0:0:
256,192,62512,1,8,0:0:0:0:
256,192,62627,1,0,0:0:0:0:
256,192,62858,1,8,0:0:0:0:
256,192,62974,1,8,0:0:0:0:
256,192,63089,1,0,0:0:0:0:
256,192,63320,1,0,0:0:0:0:
256,192,63550,1,8,0:0:0:0:
256,192,63704,1,8,0:0:0:0:
256,192,63858,1,0,0:0:0:0:
256,192,64012,1,8,0:0:0:0:
256,192,64243,1,0,0:0:0:0:
256,192,64358,1,8,0:0:0:0:
256,192,64474,1,8,0:0:0:0:
256,192,64704,1,8,0:0:0:0:
256,192,64935,1,0,0:0:0:0:
256,192,65050,1,8,0:0:0:0:
256,192,65166,1,0,0:0:0:0:
256,192,65281,1,0,0:0:0:0:
256,192,65397,1,8,0:0:0:0:
256,192,65627,1,0,0:0:0:0:
256,192,65743,1,8,0:0:0:0:
256,192,65858,1,0,0:0:0:0:
256,192,66089,1,8,0:0:0:0:
256,192,66204,1,8,0:0:0:0:
256,192,66320,1,0,0:0:0:0:
256,192,66435,1,0,0:0:0:0:
256,192,66550,1,8,0:0:0:0:
256,192,66781,1,0,0:0:0:0:
256,192,66897,1,8,0:0:0:0:
256,192,67012,1,8,0:0:0:0:
256,192,67127,1,0,0:0:0:0:
256,192,67243,1,8,0:0:0:0:
256,192,67474,1,0,0:0:0:0:
256,192,67589,1,0,0:0:0:0:
256,192,67704,1,8,0:0:0:0:
256,192,67820,1,0,0:0:0:0:
256,192,67935,1,8,0:0:0:0:
256,192,68050,1,8,0:0:0:0:
256,192,68166,1,0,0:0:0:0:
256,192,68397,1,8,0:0:0:0:
256,192,68512,1,0,0:0:0:0:
256,192,68627,1,8,0:0:0:0:
256,192,68858,1,0,0:0:0:0:
256,192,68974,1,8,0:0:0:0:
256,192,69089,1,8,0:0:0:0:
256,192,69320,1,0,0:0:0:0:
256,192,70474,1,8,0:0:0:0:
256,192,70704,1,0,0:0:0:0:
256,192,70820,1,0,0:0:0:0:
256,192,71050,1,8,0:0:0:0:
256,192,71281,1,0,0:0:0:0:
256,192,71397,1,8,0:0:0:0:
256,192,71627,1,0,0:0:0:0:
256,192,71743,1,8,0:0:0:0:
256,192,71858,1,8,0:0:0:0:
256,192,72089,1,0,0:0:0:0:
256,192,72320,1,8,0:0:0:0:
256,192,72435,1,8,0:0:0:0:
256,192,72550,1,0,0:0:0:0:
256,192,72666,1,0,0:0:0:0:
256,192,72781,1,8,0:0:0:0:
256,192,73012,1,0,0:0:0:0:
256,192,73127,1,8,0:0:0:0:
256,192,73243,1,8,0:0:0:0:
256,192,73474,1,0,0:0:0:0:
256,192,73589,1,8,0:0:0:0:
256,192,73704,1,0,0:0:0:0:
256,192,73935,1,0,0:0:0:0:
256,192,74050,1,8,0:0:0:0:
256,192,74166,1,0,0:0:0:0:
256,192,74281,1,0,0:0:0:0:
256,192,74512,1,8,0:0:0:0:
256,192,78320,1,4,0:0:0:0:
256,192,78550,1,0,0:0:0:0:
256,192,78781,1,8,0:0:0:0:
256,192,79012,1,0,0:0:0:0:
256,192,79243,1,0,0:0:0:0:
256,192,79474,1,12,0:0:0:0:
256,192,79589,1,12,0:0:0:0:
256,192,79704,1,12,0:0:0:0:
256,192,79935,1,12,0:0:0:0:
256,192,80166,1,4,0:0:0:0:
256,192,80397,1,0,0:0:0:0:
256,192,80627,1,8,0:0:0:0:
256,192,80858,1,0,0:0:0:0:
256,192,81089,1,0,0:0:0:0:
256,192,81320,1,12,0:0:0:0:
256,192,81435,1,12,0:0:0:0:
256,192,81550,1,12,0:0:0:0:
256,192,81781,1,12,0:0:0:0:
256,192,82012,1,4,0:0:0:0:
256,192,82243,1,0,0:0:0:0:
256,192,82474,1,8,0:0:0:0:
256,192,82704,1,0,0:0:0:0:
256,192,82935,1,0,0:0:0:0:
256,192,83166,1,12,0:0:0:0:
256,192,83281,1,12,0:0:0:0:
256,192,83397,1,12,0:0:0:0:
256,192,83627,1,12,0:0:0:0:
256,192,83858,1,4,0:0:0:0:
256,192,84089,1,0,0:0:0:0:
256,192,84320,1,8,0:0:0:0:
256,192,84550,1,0,0:0:0:0:
256,192,84781,1,0,0:0:0:0:
256,192,85012,1,12,0:0:0:0:
256,192,85127,1,12,0:0:0:0:
256,192,85243,1,12,0:0:0:0:
256,192,85474,1,12,0:0:0:0:
256,192,85704,1,4,0:0:0:0:
256,192,85935,1,8,0:0:0:0:
256,192,86050,1,8,0:0:0:0:
256,192,86166,1,0,0:0:0:0:
256,192,86397,1,8,0:0:0:0:
256,192,86627,1,0,0:0:0:0:
256,192,86858,1,12,0:0:0:0:
256,192,86974,1,12,0:0:0:0:
256,192,87089,1,12,0:0:0:0:
256,192,87320,1,12,0:0:0:0:
256,192,87550,1,4,0:0:0:0:
256,192,87781,1,8,0:0:0:0:
256,192,87897,1,8,0:0:0:0:
256,192,88012,1,0,0:0:0:0:
256,192,88127,1,0,0:0:0:0:
256,192,88243,1,8,0:0:0:0:
256,192,88474,1,0,0:0:0:0:
256,192,88704,1,12,0:0:0:0:
256,192,88820,1,12,0:0:0:0:
256,192,88935,1,12,0:0:0:0:
256,192,89166,1,12,0:0:0:0:
256,192,89397,1,4,0:0:0:0:
256,192,89627,1,8,0:0:0:0:
256,192,89743,1,8,0:0:0:0:
256,192,89858,1,0,0:0:0:0:
256,192,90089,1,8,0:0:0:0:
256,192,90320,1,0,0:0:0:0:
256,192,90550,1,0,0:0:0:0:
256,192,90781,1,8,0:0:0:0:
256,192,91012,1,8,0:0:0:0:
256,192,91243,1,4,0:0:0:0:
256,192,91474,1,8,0:0:0:0:
256,192,91589,1,8,0:0:0:0:
256,192,91704,1,0,0:0:0:0:
256,192,91820,1,0,0:0:0:0:
256,192,91935,1,8,0:0:0:0:
256,192,92166,1,0,0:0:0:0:
256,192,92627,1,8,0:0:0:0:
256,192,93089,1,0,0:0:0:0:
256,192,93320,1,8,0:0:0:0:
256,192,93435,1,8,0:0:0:0:
256,192,93550,1,8,0:0:0:0:
256,192,93781,1,0,0:0:0:0:
256,192,94012,1,8,0:0:0:0:
256,192,94243,1,0,0:0:0:0:
256,192,94358,1,8,0:0:0:0:
256,192,94474,1,0,0:0:0:0:
256,192,94704,1,8,0:0:0:0:
256,192,94935,1,0,0:0:0:0:
256,192,95166,1,8,0:0:0:0:
256,192,95281,1,8,0:0:0:0:
256,192,95397,1,0,0:0:0:0:
256,192,95512,1,0,0:0:0:0:
256,192,95627,1,8,0:0:0:0:
256,192,95858,1,0,0:0:0:0:
256,192,96089,1,8,0:0:0:0:
256,192,96204,1,8,0:0:0:0:
256,192,96320,1,0,0:0:0:0:
256,192,96550,1,8,0:0:0:0:
256,192,96781,1,0,0:0:0:0:
256,192,96897,1,8,0:0:0:0:
256,192,97012,1,0,0:0:0:0:
256,192,97127,1,0,0:0:0:0:
256,192,97243,1,8,0:0:0:0:
256,192,97474,1,0,0:0:0:0:
256,192,97589,1,8,0:0:0:0:
256,192,97704,1,8,0:0:0:0:
256,192,97935,1,0,0:0:0:0:
256,192,98627,1,8,0:0:0:0:
256,192,98743,1,8,0:0:0:0:
256,192,98858,1,0,0:0:0:0:
256,192,98974,1,0,0:0:0:0:
256,192,99089,1,8,0:0:0:0:
256,192,99320,1,0,0:0:0:0:
256,192,99435,1,8,0:0:0:0:
256,192,99550,1,0,0:0:0:0:
256,192,99781,1,8,0:0:0:0:
256,192,100012,1,0,0:0:0:0:
256,192,100127,1,8,0:0:0:0:
256,192,100243,1,8,0:0:0:0:
256,192,100358,1,0,0:0:0:0:
256,192,100474,1,8,0:0:0:0:
256,192,100704,1,8,0:0:0:0:
256,192,100935,1,0,0:0:0:0:
256,192,101050,1,8,0:0:0:0:
256,192,101166,1,0,0:0:0:0:
256,192,101281,1,0,0:0:0:0:
256,192,101397,1,8,0:0:0:0:
256,192,101512,1,0,0:0:0:0:
256,192,101627,1,8,0:0:0:0:
256,192,101743,1,8,0:0:0:0:
256,192,101858,1,0,0:0:0:0:
256,192,101974,1,0,0:0:0:0:
256,192,102089,1,8,0:0:0:0:
256,192,102320,1,0,0:0:0:0:
256,192,102493,1,8,0:0:0:0:
256,192,102550,1,0,0:0:0:0:
256,192,102666,1,0,0:0:0:0:
256,192,102781,1,8,0:0:0:0:
256,192,102897,1,0,0:0:0:0:
256,192,103012,1,8,0:0:0:0:
256,192,103127,1,8,0:0:0:0:
256,192,103243,1,0,0:0:0:0:
256,192,103358,1,8,0:0:0:0:
256,192,103589,1,0,0:0:0:0:
256,192,103704,1,8,0:0:0:0:
256,192,103935,1,0,0:0:0:0:
256,192,104050,1,8,0:0:0:0:
256,192,104166,1,0,0:0:0:0:
256,192,104397,1,8,0:0:0:0:
256,192,104512,1,8,0:0:0:0:
256,192,104627,1,0,0:0:0:0:
256,192,104858,1,0,0:0:0:0:
256,192,105089,1,8,0:0:0:0:
256,192,105204,1,8,0:0:0:0:
256,192,105435,1,0,0:0:0:0:
256,192,105550,1,8,0:0:0:0:
256,192,105666,1,8,0:0:0:0:
256,192,105781,1,8,0:0:0:0:
256,192,106012,1,0,0:0:0:0:
256,192,107858,1,4,0:0:0:0:
256,192,108089,1,0,0:0:0:0:
256,192,108320,1,8,0:0:0:0:
256,192,108550,1,0,0:0:0:0:
256,192,108781,1,0,0:0:0:0:
256,192,109012,1,12,0:0:0:0:
256,192,109127,1,12,0:0:0:0:
256,192,109243,1,12,0:0:0:0:
256,192,109474,1,12,0:0:0:0:
256,192,109704,1,4,0:0:0:0:
256,192,109935,1,8,0:0:0:0:
256,192,110166,1,8,0:0:0:0:
256,192,110397,1,8,0:0:0:0:
256,192,110627,1,0,0:0:0:0:
256,192,110858,1,12,0:0:0:0:
256,192,110974,1,12,0:0:0:0:
256,192,111089,1,12,0:0:0:0:
256,192,111320,1,12,0:0:0:0:
256,192,111550,1,4,0:0:0:0:
256,192,111781,1,0,0:0:0:0:
256,192,112012,1,8,0:0:0:0:
256,192,112243,1,0,0:0:0:0:
256,192,112474,1,0,0:0:0:0:
256,192,112704,1,12,0:0:0:0:
256,192,112820,1,12,0:0:0:0:
256,192,112935,1,12,0:0:0:0:
256,192,113166,1,12,0:0:0:0:
256,192,113397,1,4,0:0:0:0:
256,192,113627,1,8,0:0:0:0:
256,192,113858,1,8,0:0:0:0:
256,192,114089,1,8,0:0:0:0:
256,192,114320,1,0,0:0:0:0:
256,192,114550,1,12,0:0:0:0:
256,192,114666,1,12,0:0:0:0:
256,192,114781,1,12,0:0:0:0:
256,192,115012,1,12,0:0:0:0:
256,192,115243,1,4,0:0:0:0:
256,192,115474,1,8,0:0:0:0:
256,192,115589,1,8,0:0:0:0:
256,192,115704,1,0,0:0:0:0:
256,192,115935,1,8,0:0:0:0:
256,192,116166,1,0,0:0:0:0:
256,192,116397,1,12,0:0:0:0:
256,192,116512,1,12,0:0:0:0:
256,192,116627,1,12,0:0:0:0:
256,192,116858,1,12,0:0:0:0:
256,192,117089,1,4,0:0:0:0:
256,192,117320,1,8,0:0:0:0:
256,192,117435,1,8,0:0:0:0:
256,192,117550,1,0,0:0:0:0:
256,192,117666,1,0,0:0:0:0:
256,192,117781,1,8,0:0:0:0:
256,192,118012,1,0,0:0:0:0:
256,192,118243,1,12,0:0:0:0:
256,192,118358,1,12,0:0:0:0:
256,192,118474,1,12,0:0:0:0:
256,192,118704,1,12,0:0:0:0:
256,192,118935,1,4,0:0:0:0:
256,192,119166,1,8,0:0:0:0:
256,192,119281,1,8,0:0:0:0:
256,192,119397,1,0,0:0:0:0:
256,192,119627,1,8,0:0:0:0:
256,192,119858,1,0,0:0:0:0:
256,192,120089,1,12,0:0:0:0:
256,192,120320,1,0,0:0:0:0:
256,192,120550,1,8,0:0:0:0:
256,192,120781,1,4,0:0:0:0:
256,192,121012,1,8,0:0:0:0:
256,192,121127,1,8,0:0:0:0:
256,192,121243,1,0,0:0:0:0:
256,192,121358,1,0,0:0:0:0:
256,192,121474,1,8,0:0:0:0:
256,192,121704,1,0,0:0:0:0:
256,192,121935,1,12,0:0:0:0:
256,192,122050,1,12,0:0:0:0:
256,192,122166,1,12,0:0:0:0:
256,192,122397,1,12,0:0:0:0:
256,192,122627,1,0,0:0:0:0:
256,192,122858,1,8,0:0:0:0:
256,192,122974,1,8,0:0:0:0:
256,192,123089,1,8,0:0:0:0:
256,192,123320,1,0,0:0:0:0:
256,192,123550,1,8,0:0:0:0:
256,192,123781,1,0,0:0:0:0:
256,192,123897,1,8,0:0:0:0:
256,192,124012,1,8,0:0:0:0:
256,192,124127,1,0,0:0:0:0:
256,192,124243,1,8,0:0:0:0:
256,192,124358,1,0,0:0:0:0:
256,192,124474,1,0,0:0:0:0:
256,192,124704,1,8,0:0:0:0:
256,192,124820,1,0,0:0:0:0:
256,192,124935,1,8,0:0:0:0:
256,192,125166,1,0,0:0:0:0:
256,192,125281,1,8,0:0:0:0:
256,192,125512,1,0,0:0:0:0:
256,192,125627,1,8,0:0:0:0:
256,192,125743,1,0,0:0:0:0:
256,192,125858,1,8,0:0:0:0:
256,192,126012,1,8,0:0:0:0:
256,192,126166,1,8,0:0:0:0:
256,192,126320,1,0,0:0:0:0:
256,192,126550,1,8,0:0:0:0:
256,192,126666,1,8,0:0:0:0:
256,192,126781,1,0,0:0:0:0:
256,192,126897,1,0,0:0:0:0:
256,192,127012,1,8,0:0:0:0:
256,192,127243,1,0,0:0:0:0:
256,192,127474,1,8,0:0:0:0:
256,192,127589,1,0,0:0:0:0:
256,192,127704,1,8,0:0:0:0:
256,192,127935,1,0,0:0:0:0:
256,192,128050,1,0,0:0:0:0:
256,192,128166,1,8,0:0:0:0:
256,192,128281,1,0,0:0:0:0:
256,192,128397,1,8,0:0:0:0:
256,192,128512,1,8,0:0:0:0:
256,192,128627,1,0,0:0:0:0:
256,192,128858,1,8,0:0:0:0:
256,192,129089,1,0,0:0:0:0:
256,192,129320,1,8,0:0:0:0:
256,192,129435,1,8,0:0:0:0:
256,192,129550,1,0,0:0:0:0:
256,192,129666,1,0,0:0:0:0:
256,192,129781,1,8,0:0:0:0:
256,192,130012,1,0,0:0:0:0:
256,192,130127,1,8,0:0:0:0:
256,192,130243,1,0,0:0:0:0:
256,192,130358,1,0,0:0:0:0:
256,192,130474,1,8,0:0:0:0:
256,192,130589,1,0,0:0:0:0:
256,192,130704,1,8,0:0:0:0:
256,192,130820,1,8,0:0:0:0:
256,192,130935,1,0,0:0:0:0:
256,192,131166,1,8,0:0:0:0:
256,192,131397,1,0,0:0:0:0:
256,192,131512,1,8,0:0:0:0:
256,192,131627,1,0,0:0:0:0:
256,192,131743,1,0,0:0:0:0:
256,192,131858,1,8,0:0:0:0:
256,192,131974,1,0,0:0:0:0:
256,192,132089,1,8,0:0:0:0:
256,192,132204,1,8,0:0:0:0:
256,192,132320,1,0,0:0:0:0:
256,192,132435,1,8,0:0:0:0:
256,192,132550,1,0,0:0:0:0:
256,192,132666,1,0,0:0:0:0:
256,192,132781,1,8,0:0:0:0:
256,192,133012,1,0,0:0:0:0:
256,192,133127,1,8,0:0:0:0:
256,192,133358,1,0,0:0:0:0:
256,192,133474,1,8,0:0:0:0:
256,192,133589,1,8,0:0:0:0:
256,192,133704,1,0,0:0:0:0:
256,192,133935,1,8,0:0:0:0:
256,192,134050,1,8,0:0:0:0:
256,192,134166,1,8,0:0:0:0:
256,192,134397,1,0,0:0:0:0:
256,192,134627,1,8,0:0:0:0:
256,192,134858,1,0,0:0:0:0:
256,192,135089,1,8,0:0:0:0:
256,192,135166,1,8,0:0:0:0:
256,192,135243,1,8,0:0:0:0:
256,192,135320,1,8,0:0:0:0:
256,192,135397,1,8,0:0:0:0:
256,192,135474,1,8,0:0:0:0:
256,192,135550,1,0,0:0:0:0:
256,192,135781,1,8,0:0:0:0:
256,192,135897,1,8,0:0:0:0:
256,192,136012,1,8,0:0:0:0:
256,192,136243,1,0,0:0:0:0:
256,192,136474,1,8,0:0:0:0:
256,192,136704,1,0,0:0:0:0:
256,192,136935,1,8,0:0:0:0:
256,192,137012,1,8,0:0:0:0:
256,192,137089,1,8,0:0:0:0:
256,192,137166,1,8,0:0:0:0:
256,192,137243,1,8,0:0:0:0:
256,192,137320,1,8,0:0:0:0:
256,192,137397,1,0,0:0:0:0:
256,192,137627,1,8,0:0:0:0:
256,192,137743,1,8,0:0:0:0:
256,192,137858,1,0,0:0:0:0:
256,192,137974,1,0,0:0:0:0:
256,192,138089,1,8,0:0:0:0:
256,192,138320,1,0,0:0:0:0:
256,192,138435,1,8,0:0:0:0:
256,192,138550,1,8,0:0:0:0:
256,192,138781,1,0,0:0:0:0:
256,192,139012,1,8,0:0:0:0:
256,192,139127,1,0,0:0:0:0:
256,192,139243,1,8,0:0:0:0:
256,192,139474,1,0,0:0:0:0:
256,192,139589,1,0,0:0:0:0:
256,192,139704,1,8,0:0:0:0:
256,192,139820,1,8,0:0:0:0:
256,192,139935,1,0,0:0:0:0:
256,192,140166,1,12,0:0:0:0:
256,192,140397,1,0,0:0:0:0:
256,192,140512,1,8,0:0:0:0:
256,192,140627,1,8,0:0:0:0:
256,192,140858,1,8,0:0:0:0:
256,192,141089,1,0,0:0:0:0:
256,192,141204,1,8,0:0:0:0:
256,192,141320,1,0,0:0:0:0:
256,192,141435,1,0,0:0:0:0:
256,192,141550,1,8,0:0:0:0:
256,192,141781,1,8,0:0:0:0:
256,192,142012,1,0,0:0:0:0:
256,192,142185,1,8,0:0:0:0:
256,192,142243,1,0,0:0:0:0:
256,192,142358,1,0,0:0:0:0:
256,192,142474,1,8,0:0:0:0:
256,192,142704,1,0,0:0:0:0:
256,192,142820,1,8,0:0:0:0:
256,192,142935,1,8,0:0:0:0:
256,192,143166,1,0,0:0:0:0:
256,192,143281,1,8,0:0:0:0:
256,192,143397,1,0,0:0:0:0:
256,192,143512,1,0,0:0:0:0:
256,192,143627,1,8,0:0:0:0:
256,192,143858,1,0,0:0:0:0:
256,192,144089,1,8,0:0:0:0:
256,192,144204,1,8,0:0:0:0:
256,192,144320,1,8,0:0:0:0:
256,192,144550,1,0,0:0:0:0:
256,192,144666,1,8,0:0:0:0:
256,192,144897,1,0,0:0:0:0:
256,192,145012,1,8,0:0:0:0:
256,192,145127,1,0,0:0:0:0:
256,192,145243,1,8,0:0:0:0:
256,192,145358,1,8,0:0:0:0:
256,192,145474,1,0,0:0:0:0:
256,192,145589,1,8,0:0:0:0:
256,192,145704,1,0,0:0:0:0:
256,192,145935,1,0,0:0:0:0:
256,192,146050,1,8,0:0:0:0:
256,192,146281,1,0,0:0:0:0:
256,192,146397,1,8,0:0:0:0:
256,192,146512,1,8,0:0:0:0:
256,192,146627,1,0,0:0:0:0:
256,192,146858,1,8,0:0:0:0:
256,192,146974,1,8,0:0:0:0:
256,192,147089,1,0,0:0:0:0:
256,192,147204,1,0,0:0:0:0:
256,192,147320,1,8,0:0:0:0:
256,192,147550,1,0,0:0:0:0:
256,192,152166,1,4,0:0:0:0:
256,192,152397,1,0,0:0:0:0:
256,192,152627,1,8,0:0:0:0:
256,192,152858,1,0,0:0:0:0:
256,192,153089,1,0,0:0:0:0:
256,192,153320,1,12,0:0:0:0:
256,192,153435,1,12,0:0:0:0:
256,192,153550,1,12,0:0:0:0:
256,192,153781,1,12,0:0:0:0:
256,192,154012,1,4,0:0:0:0:
256,192,154243,1,0,0:0:0:0:
256,192,154474,1,8,0:0:0:0:
256,192,154704,1,0,0:0:0:0:
256,192,154935,1,0,0:0:0:0:
256,192,155166,1,12,0:0:0:0:
256,192,155281,1,12,0:0:0:0:
256,192,155397,1,12,0:0:0:0:
256,192,155627,1,12,0:0:0:0:
256,192,155858,1,4,0:0:0:0:
256,192,156089,1,0,0:0:0:0:
256,192,156320,1,8,0:0:0:0:
256,192,156550,1,0,0:0:0:0:
256,192,156781,1,0,0:0:0:0:
256,192,157012,1,12,0:0:0:0:
256,192,157127,1,12,0:0:0:0:
256,192,157243,1,12,0:0:0:0:
256,192,157474,1,12,0:0:0:0:
256,192,157704,1,4,0:0:0:0:
256,192,157935,1,0,0:0:0:0:
256,192,158166,1,8,0:0:0:0:
256,192,158397,1,0,0:0:0:0:
256,192,158627,1,0,0:0:0:0:
