osu file format v14

[General]
AudioFilename: audio.mp3
AudioLeadIn: 0
PreviewTime: 164452
Countdown: 0
SampleSet: Normal
StackLeniency: 0.7
Mode: 1
LetterboxInBreaks: 0
WidescreenStoryboard: 0

[Editor]
DistanceSpacing: 0.4
BeatDivisor: 4
GridSize: 32
TimelineZoom: 2.3

[Metadata]
Title:I THINK
TitleUnicode:I THINK
Artist:Tyler, The Creator
ArtistUnicode:Tyler, The Creator
Creator:Skull Kid
Version:Muzukashii
Source:
Tags:IGOR Solange Genjuro hiphop hip-hop rap english
BeatmapID:2302084
BeatmapSetID:982042

[Difficulty]
HPDrainRate:6
CircleSize:4
OverallDifficulty:4
ApproachRate:9
SliderMultiplier:1.4
SliderTickRate:1

[Events]
//Background and Video events
0,0,"BG.jpg",0,0
//Break Periods
//Storyboard Layer 0 (Background)
//Storyboard Layer 1 (Fail)
//Storyboard Layer 2 (Pass)
//Storyboard Layer 3 (Foreground)
//Storyboard Layer 4 (Overlay)
//Storyboard Sound Samples

[TimingPoints]
2004,495.458298926507,4,1,0,50,1,0
2004,-100,4,1,0,50,0,0
17610,-100,4,1,0,55,0,0
33589,-100,4,1,0,60,0,0
49567,-100,4,1,0,60,0,1
81277,-100,4,1,0,60,0,0
81525,-100,4,1,0,50,0,0
88956,-100,4,1,0,55,0,0
97008,-100,4,1,0,60,0,0
97131,-100,4,1,0,60,0,1
112986,-100,4,1,0,60,0,0
113482,-100,4,1,0,40,0,0
128593,-100,4,1,0,50,0,0
144448,-100,4,1,0,60,0,0
144695,-100,4,1,0,60,0,1
158568,-100,4,1,0,60,0,0
164514,-100,4,1,0,60,0,1
196037,-100,4,1,0,30,0,1
196196,526.777875329236,4,1,0,30,1,0
196196,-93.4579439252336,4,1,0,30,0,0
197249,487.80487804878,4,1,0,30,1,8
197249,-101.568951279934,4,1,0,30,0,8
198224,497.100248550124,4,1,0,30,1,0
198224,-99.6696944673824,4,1,0,30,0,8
199218,480,4,1,0,30,1,8
199218,-103.220478943022,4,1,0,30,0,8
199698,483.870967741935,4,1,0,30,1,8
199698,-102.394715111478,4,1,0,30,0,8
200181,495.867768595041,4,1,0,30,1,0
201172,483.870967741935,4,1,0,30,1,8
201172,-102.394715111478,4,1,0,30,0,8
201655,491.803278688525,4,1,0,30,1,8
201655,-100.74318744839,4,1,0,30,0,8
202146,491.803278688525,4,1,0,30,1,0
202146,-100.74318744839,4,1,0,30,0,8
204113,506.329113924051,4,1,0,30,1,0
204113,-97.8530140379851,4,1,0,30,0,8
207150,487.80487804878,4,1,0,30,1,8
207150,-101.568951279934,4,1,0,30,0,8
208125,508.474576271186,4,1,0,30,1,0
208125,-97.4401321222131,4,1,0,30,0,8
209141,508.474576271186,4,1,0,30,1,8
209141,-97.4401321222131,4,1,0,30,0,8
209903,526.315789473684,4,1,0,30,1,8
209903,-93.7962811369066,4,1,0,30,0,8
210034,625,4,1,0,30,1,8
210034,-78.9863417370773,4,1,0,30,0,0
210190,409.556313993174,4,1,0,30,1,0
210190,-120.536448960752,4,1,0,30,0,8
210497,600,4,1,0,30,1,8
210497,-82.5763831544178,4,1,0,30,0,8
210647,689.655172413793,4,1,0,30,1,8
210647,-71.8414533443435,4,1,0,30,0,8

[HitObjects]
256,192,2004,5,4,0:0:0:0:
256,192,2499,1,8,0:0:0:0:
256,192,2871,1,0,0:0:0:0:
256,192,2994,1,0,0:0:0:0:
256,192,3242,1,0,0:0:0:0:
256,192,3490,1,8,0:0:0:0:
256,192,3985,1,0,0:0:0:0:
256,192,4481,1,8,0:0:0:0:
256,192,4976,1,0,0:0:0:0:
256,192,5224,1,0,0:0:0:0:
256,192,5472,1,8,0:0:0:0:
256,192,5967,1,0,0:0:0:0:
256,192,6463,1,8,0:0:0:0:
256,192,6834,1,0,0:0:0:0:
256,192,6958,1,0,0:0:0:0:
256,192,7206,1,0,0:0:0:0:
256,192,7454,1,8,0:0:0:0:
256,192,7949,1,0,0:0:0:0:
256,192,8444,1,8,0:0:0:0:
256,192,9188,1,0,0:0:0:0:
256,192,9435,1,8,0:0:0:0:
256,192,9931,1,0,0:0:0:0:
256,192,10426,1,8,0:0:0:0:
256,192,10798,1,0,0:0:0:0:
256,192,10922,1,0,0:0:0:0:
256,192,11169,1,0,0:0:0:0:
256,192,11417,1,8,0:0:0:0:
256,192,11913,1,0,0:0:0:0:
256,192,12408,1,8,0:0:0:0:
256,192,12904,1,0,0:0:0:0:
256,192,13151,1,0,0:0:0:0:
256,192,13399,1,8,0:0:0:0:
256,192,13894,1,0,0:0:0:0:
256,192,14390,1,8,0:0:0:0:
256,192,14762,1,0,0:0:0:0:
256,192,14885,1,0,0:0:0:0:
256,192,15133,1,0,0:0:0:0:
256,192,15381,1,8,0:0:0:0:
256,192,15876,1,0,0:0:0:0:
256,192,16372,1,8,0:0:0:0:
256,192,17115,1,0,0:0:0:0:
256,192,17363,1,8,0:0:0:0:
256,192,17858,1,0,0:0:0:0:
256,192,18354,1,8,0:0:0:0:
256,192,18725,1,8,0:0:0:0:
256,192,19097,1,0,0:0:0:0:
256,192,19345,1,8,0:0:0:0:
256,192,19592,1,8,0:0:0:0:
256,192,19840,1,0,0:0:0:0:
256,192,20335,1,8,0:0:0:0:
256,192,20707,1,0,0:0:0:0:
256,192,21079,1,8,0:0:0:0:
256,192,21326,1,8,0:0:0:0:
256,192,21574,1,8,0:0:0:0:
256,192,21822,1,0,0:0:0:0:
256,192,22317,1,8,0:0:0:0:
256,192,22689,1,8,0:0:0:0:
256,192,23060,1,0,0:0:0:0:
256,192,23308,1,8,0:0:0:0:
256,192,23556,1,8,0:0:0:0:
256,192,23804,1,0,0:0:0:0:
256,192,24299,1,8,0:0:0:0:
256,192,24671,1,0,0:0:0:0:
256,192,25290,1,0,0:0:0:0:
256,192,25538,1,8,0:0:0:0:
256,192,25785,1,0,0:0:0:0:
256,192,26281,1,8,0:0:0:0:
256,192,26653,1,8,0:0:0:0:
256,192,27024,1,0,0:0:0:0:
256,192,27272,1,8,0:0:0:0:
256,192,27520,1,8,0:0:0:0:
256,192,27767,1,0,0:0:0:0:
256,192,28263,1,8,0:0:0:0:
256,192,28634,1,0,0:0:0:0:
256,192,29006,1,8,0:0:0:0:
256,192,29254,1,8,0:0:0:0:
256,192,29501,1,8,0:0:0:0:
256,192,29749,1,0,0:0:0:0:
256,192,30245,1,8,0:0:0:0:
256,192,30616,1,8,0:0:0:0:
256,192,30988,1,0,0:0:0:0:
256,192,31236,1,8,0:0:0:0:
256,192,31483,1,8,0:0:0:0:
256,192,31731,1,0,0:0:0:0:
256,192,32226,1,8,0:0:0:0:
256,192,32598,1,0,0:0:0:0:
256,192,33217,1,0,0:0:0:0:
256,192,33465,1,8,0:0:0:0:
256,192,33713,1,4,0:0:0:0:
256,192,34208,1,8,0:0:0:0:
256,192,34456,1,8,0:0:0:0:
256,192,34704,1,0,0:0:0:0:
256,192,35199,1,8,0:0:0:0:
256,192,35695,1,0,0:0:0:0:
256,192,35942,1,0,0:0:0:0:
256,192,36190,1,8,0:0:0:0:
256,192,36438,1,8,0:0:0:0:
256,192,36686,1,0,0:0:0:0:
256,192,37181,1,8,0:0:0:0:
256,192,37676,1,0,0:0:0:0:
256,192,37924,1,8,0:0:0:0:
256,192,38172,1,0,0:0:0:0:
256,192,38420,1,8,0:0:0:0:
256,192,38667,1,0,0:0:0:0:
256,192,39163,1,8,0:0:0:0:
256,192,39658,1,0,0:0:0:0:
256,192,39906,1,0,0:0:0:0:
256,192,40154,1,8,0:0:0:0:
256,192,40402,1,8,0:0:0:0:
256,192,40649,1,0,0:0:0:0:
256,192,41145,1,0,0:0:0:0:
256,192,41640,1,12,0:0:0:0:
256,192,42012,1,8,0:0:0:0:
256,192,42383,1,0,0:0:0:0:
256,192,42631,1,8,0:0:0:0:
256,192,42879,1,0,0:0:0:0:
256,192,43127,1,0,0:0:0:0:
256,192,45108,1,8,0:0:0:0:
256,192,45604,1,0,0:0:0:0:
256,192,45852,1,0,0:0:0:0:
256,192,46099,1,8,0:0:0:0:
256,192,46347,1,8,0:0:0:0:
256,192,46595,1,0,0:0:0:0:
256,192,47090,1,8,0:0:0:0:
256,192,47338,1,8,0:0:0:0:
256,192,47586,1,0,0:0:0:0:
256,192,47833,1,8,0:0:0:0:
256,192,48081,1,0,0:0:0:0:
256,192,48329,1,0,0:0:0:0:
256,192,48577,1,8,0:0:0:0:
256,192,49567,1,4,0:0:0:0:
256,192,49815,1,0,0:0:0:0:
256,192,50063,1,8,0:0:0:0:
256,192,50435,1,0,0:0:0:0:
256,192,50558,1,0,0:0:0:0:
256,192,50806,1,0,0:0:0:0:
256,192,51054,1,8,0:0:0:0:
256,192,51549,1,0,0:0:0:0:
256,192,52045,1,8,0:0:0:0:
256,192,52293,1,0,0:0:0:0:
256,192,52416,1,0,0:0:0:0:
256,192,52540,1,0,0:0:0:0:
256,192,52788,1,0,0:0:0:0:
256,192,53036,1,8,0:0:0:0:
256,192,53283,1,8,0:0:0:0:
256,192,53531,1,0,0:0:0:0:
256,192,54027,1,8,0:0:0:0:
256,192,54770,1,0,0:0:0:0:
256,192,55018,1,8,0:0:0:0:
256,192,55513,1,0,0:0:0:0:
256,192,55761,1,8,0:0:0:0:
256,192,56008,1,8,0:0:0:0:
256,192,56256,1,8,0:0:0:0:
256,192,56504,1,0,0:0:0:0:
256,192,56752,1,0,0:0:0:0:
256,192,56999,1,8,0:0:0:0:
256,192,57495,1,4,0:0:0:0:
256,192,57743,1,0,0:0:0:0:
256,192,57990,1,8,0:0:0:0:
256,192,58362,1,0,0:0:0:0:
256,192,58486,1,0,0:0:0:0:
256,192,58733,1,0,0:0:0:0:
256,192,58981,1,8,0:0:0:0:
256,192,59477,1,0,0:0:0:0:
256,192,59972,1,8,0:0:0:0:
256,192,60220,1,0,0:0:0:0:
256,192,60344,1,0,0:0:0:0:
256,192,60468,1,0,0:0:0:0:
256,192,60715,1,0,0:0:0:0:
256,192,60963,1,8,0:0:0:0:
256,192,61211,1,8,0:0:0:0:
256,192,61458,1,0,0:0:0:0:
256,192,61954,1,8,0:0:0:0:
256,192,62697,1,0,0:0:0:0:
256,192,62945,1,8,0:0:0:0:
256,192,63440,1,0,0:0:0:0:
256,192,63688,1,8,0:0:0:0:
256,192,63936,1,8,0:0:0:0:
256,192,64184,1,8,0:0:0:0:
256,192,64431,1,0,0:0:0:0:
256,192,64679,1,0,0:0:0:0:
256,192,64927,1,8,0:0:0:0:
256,192,65422,1,4,0:0:0:0:
256,192,65918,1,8,0:0:0:0:
256,192,66165,1,0,0:0:0:0:
256,192,66413,1,8,0:0:0:0:
256,192,66785,1,8,0:0:0:0:
256,192,67404,1,0,0:0:0:0:
256,192,67652,1,0,0:0:0:0:
256,192,67899,1,8,0:0:0:0:
256,192,68147,1,0,0:0:0:0:
256,192,68395,1,8,0:0:0:0:
256,192,68767,1,8,0:0:0:0:
256,192,69386,1,0,0:0:0:0:
256,192,69881,1,8,0:0:0:0:
256,192,70129,1,0,0:0:0:0:
256,192,70377,1,8,0:0:0:0:
256,192,70748,1,8,0:0:0:0:
256,192,71368,1,0,0:0:0:0:
256,192,71615,1,8,0:0:0:0:
256,192,71863,1,8,0:0:0:0:
256,192,72111,1,8,0:0:0:0:
256,192,72606,1,0,0:0:0:0:
256,192,72854,1,8,0:0:0:0:
256,192,73349,1,4,0:0:0:0:
256,192,73845,1,8,0:0:0:0:
256,192,74093,1,0,0:0:0:0:
256,192,74340,1,8,0:0:0:0:
256,192,74712,1,8,0:0:0:0:
256,192,75331,1,0,0:0:0:0:
256,192,75579,1,0,0:0:0:0:
256,192,75827,1,8,0:0:0:0:
256,192,76075,1,0,0:0:0:0:
256,192,76322,1,8,0:0:0:0:
256,192,76694,1,8,0:0:0:0:
256,192,77313,1,0,0:0:0:0:
256,192,77809,1,8,0:0:0:0:
256,192,78056,1,0,0:0:0:0:
256,192,78304,1,8,0:0:0:0:
256,192,78676,1,8,0:0:0:0:
256,192,79295,1,0,0:0:0:0:
256,192,79543,1,8,0:0:0:0:
256,192,79790,1,8,0:0:0:0:
256,192,80038,1,8,0:0:0:0:
256,192,80286,1,0,0:0:0:0:
256,192,81277,1,4,0:0:0:0:
256,192,81772,1,0,0:0:0:0:
256,192,82020,1,0,0:0:0:0:
256,192,82268,1,8,0:0:0:0:
256,192,82763,1,0,0:0:0:0:
256,192,83259,1,8,0:0:0:0:
256,192,83754,1,0,0:0:0:0:
256,192,84002,1,8,0:0:0:0:
256,192,84250,1,8,0:0:0:0:
256,192,84745,1,0,0:0:0:0:
256,192,85240,1,8,0:0:0:0:
256,192,85736,1,0,0:0:0:0:
256,192,85984,1,0,0:0:0:0:
256,192,86231,1,8,0:0:0:0:
256,192,86727,1,0,0:0:0:0:
256,192,86975,1,8,0:0:0:0:
256,192,87222,1,0,0:0:0:0:
256,192,87470,1,0,0:0:0:0:
256,192,87718,1,8,0:0:0:0:
256,192,88461,1,0,0:0:0:0:
256,192,88709,1,8,0:0:0:0:
256,192,89204,1,4,0:0:0:0:
256,192,89700,1,8,0:0:0:0:
256,192,90071,1,8,0:0:0:0:
256,192,90443,1,0,0:0:0:0:
256,192,90691,1,8,0:0:0:0:
256,192,90938,1,8,0:0:0:0:
256,192,91186,1,0,0:0:0:0:
256,192,91681,1,8,0:0:0:0:
256,192,92053,1,0,0:0:0:0:
256,192,92425,1,8,0:0:0:0:
256,192,92672,1,8,0:0:0:0:
256,192,92920,1,8,0:0:0:0:
256,192,93168,1,0,0:0:0:0:
256,192,93663,1,8,0:0:0:0:
256,192,94035,1,8,0:0:0:0:
256,192,94406,1,0,0:0:0:0:
256,192,94654,1,8,0:0:0:0:
256,192,94902,1,8,0:0:0:0:
256,192,95150,1,0,0:0:0:0:
256,192,97131,1,4,0:0:0:0:
256,192,97379,1,0,0:0:0:0:
256,192,97627,1,8,0:0:0:0:
256,192,97999,1,0,0:0:0:0:
256,192,98122,1,0,0:0:0:0:
256,192,98370,1,0,0:0:0:0:
256,192,98618,1,8,0:0:0:0:
256,192,99113,1,0,0:0:0:0:
256,192,99609,1,8,0:0:0:0:
256,192,99857,1,0,0:0:0:0:
256,192,99980,1,0,0:0:0:0:
256,192,100104,1,0,0:0:0:0:
256,192,100352,1,0,0:0:0:0:
256,192,100600,1,8,0:0:0:0:
256,192,100847,1,8,0:0:0:0:
256,192,101095,1,0,0:0:0:0:
256,192,101591,1,8,0:0:0:0:
256,192,102334,1,0,0:0:0:0:
256,192,102582,1,8,0:0:0:0:
256,192,103077,1,0,0:0:0:0:
256,192,103325,1,8,0:0:0:0:
256,192,103572,1,8,0:0:0:0:
256,192,103820,1,8,0:0:0:0:
256,192,104068,1,0,0:0:0:0:
256,192,104316,1,0,0:0:0:0:
256,192,104563,1,8,0:0:0:0:
256,192,105059,1,4,0:0:0:0:
256,192,105307,1,0,0:0:0:0:
256,192,105554,1,8,0:0:0:0:
256,192,105926,1,0,0:0:0:0:
256,192,106050,1,0,0:0:0:0:
256,192,106297,1,0,0:0:0:0:
256,192,106545,1,8,0:0:0:0:
256,192,107041,1,0,0:0:0:0:
256,192,107536,1,8,0:0:0:0:
256,192,107784,1,0,0:0:0:0:
256,192,107908,1,0,0:0:0:0:
256,192,108032,1,0,0:0:0:0:
256,192,108279,1,0,0:0:0:0:
256,192,108527,1,8,0:0:0:0:
256,192,108775,1,8,0:0:0:0:
256,192,109022,1,0,0:0:0:0:
256,192,109518,1,8,0:0:0:0:
256,192,110261,1,0,0:0:0:0:
256,192,110509,1,8,0:0:0:0:
256,192,111004,1,0,0:0:0:0:
256,192,111252,1,8,0:0:0:0:
256,192,111500,1,8,0:0:0:0:
256,192,111748,1,8,0:0:0:0:
256,192,111995,1,0,0:0:0:0:
256,192,112243,1,0,0:0:0:0:
256,192,112491,1,8,0:0:0:0:
256,192,112986,1,0,0:0:0:0:
256,192,113729,1,8,0:0:0:0:
256,192,113977,1,8,0:0:0:0:
256,192,114225,1,0,0:0:0:0:
256,192,115711,1,0,0:0:0:0:
256,192,115959,1,8,0:0:0:0:
256,192,116454,1,8,0:0:0:0:
256,192,116950,1,0,0:0:0:0:
256,192,117693,1,8,0:0:0:0:
256,192,117941,1,8,0:0:0:0:
256,192,118188,1,0,0:0:0:0:
256,192,118560,1,0,0:0:0:0:
256,192,119757,1,0,0:0:0:0:
256,192,119923,1,8,0:0:0:0:
256,192,120418,1,8,0:0:0:0:
256,192,120913,1,0,0:0:0:0:
256,192,121657,1,8,0:0:0:0:
256,192,121904,1,8,0:0:0:0:
256,192,122895,1,0,0:0:0:0:
256,192,123639,1,8,0:0:0:0:
256,192,123886,1,8,0:0:0:0:
256,192,124877,1,0,0:0:0:0:
256,192,125620,1,8,0:0:0:0:
256,192,125868,1,8,0:0:0:0:
256,192,126859,1,8,0:0:0:0:
256,192,128841,1,4,0:0:0:0:
256,192,129336,1,8,0:0:0:0:
256,192,129832,1,0,0:0:0:0:
256,192,130079,1,0,0:0:0:0:
256,192,130327,1,8,0:0:0:0:
256,192,130823,1,0,0:0:0:0:
256,192,131318,1,8,0:0:0:0:
256,192,132309,1,8,0:0:0:0:
256,192,132804,1,0,0:0:0:0:
256,192,133052,1,8,0:0:0:0:
256,192,133300,1,0,0:0:0:0:
256,192,133548,1,0,0:0:0:0:
256,192,133795,1,8,0:0:0:0:
256,192,134291,1,0,0:0:0:0:
256,192,134539,1,8,0:0:0:0:
256,192,134786,1,0,0:0:0:0:
256,192,135282,1,8,0:0:0:0:
256,192,135777,1,0,0:0:0:0:
256,192,136025,1,0,0:0:0:0:
256,192,136273,1,8,0:0:0:0:
256,192,136520,1,8,0:0:0:0:
256,192,136768,1,0,0:0:0:0:
256,192,137511,1,0,0:0:0:0:
256,192,137759,1,8,0:0:0:0:
256,192,138255,1,0,0:0:0:0:
256,192,138502,1,8,0:0:0:0:
256,192,138750,1,8,0:0:0:0:
256,192,139245,1,0,0:0:0:0:
256,192,139493,1,0,0:0:0:0:
256,192,139741,1,8,0:0:0:0:
256,192,139989,1,8,0:0:0:0:
256,192,140236,1,0,0:0:0:0:
256,192,140732,1,0,0:0:0:0:
256,192,140980,1,8,0:0:0:0:
256,192,141227,1,0,0:0:0:0:
256,192,141475,1,0,0:0:0:0:
256,192,141723,1,8,0:0:0:0:
256,192,141970,1,0,0:0:0:0:
256,192,142218,1,8,0:0:0:0:
256,192,142466,1,8,0:0:0:0:
256,192,142714,1,0,0:0:0:0:
256,192,143209,1,8,0:0:0:0:
256,192,143457,1,0,0:0:0:0:
256,192,143581,1,0,0:0:0:0:
256,192,143705,1,0,0:0:0:0:
256,192,143952,1,0,0:0:0:0:
256,192,144200,1,8,0:0:0:0:
256,192,144695,1,4,0:0:0:0:
256,192,145439,1,0,0:0:0:0:
256,192,145686,1,8,0:0:0:0:
256,192,146182,1,0,0:0:0:0:
256,192,146430,1,8,0:0:0:0:
256,192,146677,1,0,0:0:0:0:
256,192,147173,1,0,0:0:0:0:
256,192,147544,1,8,0:0:0:0:
256,192,147792,1,0,0:0:0:0:
256,192,148040,1,8,0:0:0:0:
256,192,148288,1,0,0:0:0:0:
256,192,148659,1,8,0:0:0:0:
256,192,149402,1,0,0:0:0:0:
256,192,149650,1,8,0:0:0:0:
256,192,150146,1,0,0:0:0:0:
256,192,150641,1,8,0:0:0:0:
256,192,151136,1,0,0:0:0:0:
256,192,151880,1,8,0:0:0:0:
256,192,152251,1,8,0:0:0:0:
256,192,152623,1,0,0:0:0:0:
256,192,153366,1,0,0:0:0:0:
256,192,153614,1,8,0:0:0:0:
256,192,154109,1,0,0:0:0:0:
256,192,154357,1,8,0:0:0:0:
256,192,154605,1,0,0:0:0:0:
256,192,155100,1,0,0:0:0:0:
256,192,155596,1,8,0:0:0:0:
256,192,156339,1,0,0:0:0:0:
256,192,156586,1,8,0:0:0:0:
256,192,157082,1,0,0:0:0:0:
256,192,157577,1,0,0:0:0:0:
256,192,157825,1,8,0:0:0:0:
256,192,158073,1,0,0:0:0:0:
256,192,158568,1,8,0:0:0:0:
256,192,159312,1,8,0:0:0:0:
256,192,160055,1,8,0:0:0:0:
256,192,160550,1,0,0:0:0:0:
256,192,164514,1,4,0:0:0:0:
256,192,164762,1,0,0:0:0:0:
256,192,165009,1,8,0:0:0:0:
256,192,165381,1,0,0:0:0:0:
256,192,165505,1,0,0:0:0:0:
256,192,165752,1,0,0:0:0:0:
256,192,166000,1,8,0:0:0:0:
256,192,166496,1,0,0:0:0:0:
256,192,166991,1,8,0:0:0:0:
256,192,167239,1,0,0:0:0:0:
256,192,167363,1,0,0:0:0:0:
256,192,167487,1,0,0:0:0:0:
256,192,167734,1,0,0:0:0:0:
256,192,167982,1,8,0:0:0:0:
256,192,168230,1,8,0:0:0:0:
256,192,168477,1,0,0:0:0:0:
256,192,168973,1,8,0:0:0:0:
256,192,169716,1,0,0:0:0:0:
256,192,169964,1,8,0:0:0:0:
256,192,170459,1,0,0:0:0:0:
256,192,170707,1,8,0:0:0:0:
256,192,170955,1,8,0:0:0:0:
256,192,171203,1,8,0:0:0:0:
256,192,171450,1,0,0:0:0:0:
256,192,171698,1,0,0:0:0:0:
256,192,171946,1,8,0:0:0:0:
256,192,172441,1,4,0:0:0:0:
256,192,172689,1,0,0:0:0:0:
256,192,172937,1,8,0:0:0:0:
256,192,173308,1,0,0:0:0:0:
256,192,173432,1,0,0:0:0:0:
256,192,173680,1,0,0:0:0:0:
256,192,173928,1,8,0:0:0:0:
256,192,174423,1,0,0:0:0:0:
256,192,174918,1,8,0:0:0:0:
256,192,175166,1,0,0:0:0:0:
256,192,175290,1,0,0:0:0:0:
256,192,175414,1,0,0:0:0:0:
256,192,175662,1,0,0:0:0:0:
256,192,175909,1,8,0:0:0:0:
256,192,176157,1,8,0:0:0:0:
256,192,176405,1,0,0:0:0:0:
256,192,176900,1,8,0:0:0:0:
256,192,177643,1,0,0:0:0:0:
256,192,177891,1,8,0:0:0:0:
256,192,178387,1,0,0:0:0:0:
256,192,178634,1,8,0:0:0:0:
256,192,178882,1,8,0:0:0:0:
256,192,179130,1,8,0:0:0:0:
256,192,179378,1,0,0:0:0:0:
256,192,179625,1,0,0:0:0:0:
256,192,179873,1,8,0:0:0:0:
256,192,180368,1,4,0:0:0:0:
256,192,180864,1,8,0:0:0:0:
256,192,181236,1,0,0:0:0:0:
256,192,181359,1,0,0:0:0:0:
256,192,181607,1,0,0:0:0:0:
256,192,181855,1,8,0:0:0:0:
256,192,182350,1,0,0:0:0:0:
256,192,182846,1,8,0:0:0:0:
256,192,183217,1,0,0:0:0:0:
256,192,183341,1,0,0:0:0:0:
256,192,183589,1,0,0:0:0:0:
256,192,183837,1,8,0:0:0:0:
256,192,184332,1,0,0:0:0:0:
256,192,184828,1,8,0:0:0:0:
256,192,185075,1,0,0:0:0:0:
256,192,185323,1,8,0:0:0:0:
256,192,185819,1,0,0:0:0:0:
256,192,186066,1,8,0:0:0:0:
256,192,186314,1,0,0:0:0:0:
256,192,186562,1,0,0:0:0:0:
256,192,186809,1,8,0:0:0:0:
256,192,187181,1,0,0:0:0:0:
256,192,187305,1,0,0:0:0:0:
256,192,187553,1,0,0:0:0:0:
256,192,187800,1,8,0:0:0:0:
256,192,188296,1,0,0:0:0:0:
256,192,188791,1,8,0:0:0:0:
256,192,189534,1,0,0:0:0:0:
256,192,189782,1,8,0:0:0:0:
256,192,190030,1,0,0:0:0:0:
256,192,190278,1,0,0:0:0:0:
256,192,190773,1,8,0:0:0:0:
256,192,191145,1,0,0:0:0:0:
256,192,191269,1,0,0:0:0:0:
256,192,191516,1,0,0:0:0:0:
256,192,191764,1,8,0:0:0:0:
256,192,192259,1,0,0:0:0:0:
256,192,192755,1,8,0:0:0:0:
256,192,193127,1,0,0:0:0:0:
256,192,193250,1,0,0:0:0:0:
256,192,193498,1,0,0:0:0:0:
256,192,193746,1,8,0:0:0:0:
256,192,193994,1,8,0:0:0:0:
256,192,194241,1,0,0:0:0:0:
256,192,194737,1,8,0:0:0:0:
256,192,195108,1,0,0:0:0:0:
256,192,195232,1,0,0:0:0:0:
256,192,195480,1,0,0:0:0:0:
256,192,195728,1,8,0:0:0:0:
256,192,196196,1,8,0:0:0:0:
256,192,197249,1,0,0:0:0:0:
256,192,197980,1,8,0:0:0:0:
256,192,198102,1,8,0:0:0:0:
256,192,198224,1,8,0:0:0:0:
256,192,198969,1,0,0:0:0:0:
256,192,199218,1,8,0:0:0:0:
256,192,199698,1,8,0:0:0:0:
256,192,200181,1,0,0:0:0:0:
256,192,200676,1,0,0:0:0:0:
256,192,201172,1,0,0:0:0:0:
256,192,201413,1,8,0:0:0:0:
256,192,201655,1,0,0:0:0:0:
256,192,201900,1,0,0:0:0:0:
256,192,202146,1,8,0:0:0:0:
256,192,202637,1,8,0:0:0:0:
256,192,203129,1,8,0:0:0:0:
256,192,203621,1,0,0:0:0:0:
256,192,204113,1,8,0:0:0:0:
256,192,206138,1,8,0:0:0:0:
256,192,206897,1,0,0:0:0:0:
256,192,207150,1,8,0:0:0:0:
256,192,207393,1,8,0:0:0:0:
256,192,207881,1,0,0:0:0:0:
256,192,208125,1,8,0:0:0:0:
256,192,208887,1,8,0:0:0:0:
256,192,209141,1,0,0:0:0:0:
256,192,211336,1,8,0:0:0:0:
