osu file format v14

[General]
AudioFilename: audio.mp3
AudioLeadIn: 0
PreviewTime: 164452
Countdown: 0
SampleSet: Normal
StackLeniency: 0.7
Mode: 1
LetterboxInBreaks: 0
WidescreenStoryboard: 0

[Editor]
DistanceSpacing: 0.4
BeatDivisor: 4
GridSize: 32
TimelineZoom: 2.3

[Metadata]
Title:I THINK
TitleUnicode:I THINK
Artist:Tyler, The Creator
ArtistUnicode:Tyler, The Creator
Creator:Skull Kid
Version:Inner Oni
Source:
Tags:IGOR Solange Genjuro hiphop hip-hop rap english
BeatmapID:2055306
BeatmapSetID:982042

[Difficulty]
HPDrainRate:6
CircleSize:4
OverallDifficulty:6
ApproachRate:9
SliderMultiplier:1.4
SliderTickRate:1

[Events]
//Background and Video events
0,0,"BG.jpg",0,0
//Break Periods
//Storyboard Layer 0 (Background)
//Storyboard Layer 1 (Fail)
//Storyboard Layer 2 (Pass)
//Storyboard Layer 3 (Foreground)
//Storyboard Layer 4 (Overlay)
//Storyboard Sound Samples

[TimingPoints]
2004,495.458298926507,4,1,0,50,1,0
2004,-90.9090909090909,4,1,0,50,0,0
16867,-90.0900900900901,4,1,0,50,0,0
17115,-89.2857142857143,4,1,0,50,0,0
17363,-88.4955752212389,4,1,0,50,0,0
17487,-87.719298245614,4,1,0,50,0,0
17734,-86.9565217391304,4,1,0,55,0,0
32846,-86.2068965517241,4,1,0,55,0,0
32970,-85.4700854700855,4,1,0,55,0,0
33217,-84.7457627118644,4,1,0,55,0,0
33465,-84.0336134453781,4,1,0,55,0,0
33589,-83.3333333333333,4,1,0,60,0,0
49567,-83.3333333333333,4,1,0,60,0,1
63688,-82.9875518672199,4,1,0,60,0,1
63936,-82.6446280991736,4,1,0,60,0,1
64184,-81.9672131147541,4,1,0,60,0,1
64307,-81.3008130081301,4,1,0,60,0,1
64431,-80.6451612903226,4,1,0,60,0,1
64679,-80,4,1,0,60,0,1
64803,-79.3650793650794,4,1,0,60,0,1
64927,-78.7401574803149,4,1,0,60,0,1
65051,-78.125,4,1,0,60,0,1
65174,-77.5193798449612,4,1,0,60,0,1
65422,-76.9230769230769,4,1,0,60,0,1
79667,-77.5193798449612,4,1,0,60,0,1
79790,-78.125,4,1,0,60,0,1
79914,-78.7401574803149,4,1,0,60,0,1
80038,-79.3650793650794,4,1,0,60,0,1
80286,-80,4,1,0,60,0,1
80534,-80.6451612903226,4,1,0,60,0,1
80658,-81.3008130081301,4,1,0,60,0,1
80781,-81.9672131147541,4,1,0,60,0,1
81029,-82.6446280991736,4,1,0,60,0,1
81277,-83.3333333333333,4,1,0,60,0,0
81525,-83.3333333333333,4,1,0,50,0,0
89080,-83.3333333333333,4,1,0,55,0,0
97008,-83.3333333333333,4,1,0,60,0,0
97131,-76.9230769230769,4,1,0,60,0,1
112986,-76.9230769230769,4,1,0,60,0,0
113482,-90.9090909090909,4,1,0,40,0,0
128593,-83.3333333333333,4,1,0,50,0,0
135777,-82.6446280991736,4,1,0,50,0,0
137016,-81.9672131147541,4,1,0,50,0,0
137264,-81.3008130081301,4,1,0,50,0,0
137511,-80.6451612903226,4,1,0,50,0,0
137759,-80,4,1,0,50,0,0
138131,-79.3650793650794,4,1,0,50,0,0
138626,-78.7401574803149,4,1,0,50,0,0
138998,-78.125,4,1,0,50,0,0
140484,-77.5193798449612,4,1,0,50,0,0
140732,-76.9230769230769,4,1,0,50,0,0
144634,-76.9230769230769,4,1,0,60,0,0
144695,-76.9230769230769,4,1,0,60,0,1
144943,-78.125,4,1,0,60,0,1
145191,-79.3650793650794,4,1,0,60,0,1
145439,-80.6451612903226,4,1,0,60,0,1
145563,-81.3008130081301,4,1,0,60,0,1
145686,-81.9672131147541,4,1,0,60,0,1
145934,-82.6446280991736,4,1,0,60,0,1
146182,-83.3333333333333,4,1,0,60,0,1
158568,-83.3333333333333,4,1,0,60,0,0
160220,-86.9565217391304,4,1,0,60,0,0
160385,-90.9090909090909,4,1,0,60,0,0
160550,-95.2380952380952,4,1,0,60,0,0
164514,-76.9230769230769,4,1,0,60,0,1
180616,-78.125,4,1,0,60,0,1
180864,-79.3650793650794,4,1,0,60,0,1
181236,-80.6451612903226,4,1,0,60,0,1
181359,-81.3008130081301,4,1,0,60,0,1
181607,-81.9672131147541,4,1,0,60,0,1
181855,-82.6446280991736,4,1,0,60,0,1
181979,-82.9875518672199,4,1,0,60,0,1
182103,-83.3333333333333,4,1,0,60,0,1
196037,-83.3333333333333,4,1,0,30,0,1
196196,526.777875329236,4,1,0,30,1,0
196196,-93.4579439252336,4,1,0,30,0,0
197249,487.80487804878,4,1,0,30,1,8
197249,-101.568951279934,4,1,0,30,0,8
198224,497.100248550124,4,1,0,30,1,0
198224,-99.6696944673824,4,1,0,30,0,8
199218,480,4,1,0,30,1,8
199218,-103.220478943022,4,1,0,30,0,8
199698,483.870967741935,4,1,0,30,1,8
199698,-102.394715111478,4,1,0,30,0,8
200181,495.867768595041,4,1,0,30,1,0
201172,483.870967741935,4,1,0,30,1,8
201172,-102.394715111478,4,1,0,30,0,8
201655,491.803278688525,4,1,0,30,1,8
201655,-100.74318744839,4,1,0,30,0,8
202146,491.803278688525,4,1,0,30,1,0
202146,-100.74318744839,4,1,0,30,0,8
204113,506.329113924051,4,1,0,30,1,0
204113,-97.8530140379851,4,1,0,30,0,8
207150,487.80487804878,4,1,0,30,1,8
207150,-101.568951279934,4,1,0,30,0,8
208125,508.474576271186,4,1,0,30,1,0
208125,-97.4401321222131,4,1,0,30,0,8
209141,508.474576271186,4,1,0,30,1,8
209141,-97.4401321222131,4,1,0,30,0,8
209903,526.315789473684,4,1,0,30,1,8
209903,-93.7962811369066,4,1,0,30,0,8
210034,625,4,1,0,30,1,8
210034,-78.9863417370773,4,1,0,30,0,0
210190,409.556313993174,4,1,0,30,1,0
210190,-120.536448960752,4,1,0,30,0,8
210497,600,4,1,0,30,1,8
210497,-82.5763831544178,4,1,0,30,0,8
210647,689.655172413793,4,1,0,30,1,8
210647,-71.8414533443435,4,1,0,30,0,8

[HitObjects]
256,192,2004,5,4,0:0:0:0:
256,192,2251,1,0,0:0:0:0:
256,192,2499,1,8,0:0:0:0:
256,192,2871,1,0,0:0:0:0:
256,192,2994,1,0,0:0:0:0:
256,192,3242,1,0,0:0:0:0:
256,192,3490,1,8,0:0:0:0:
256,192,3614,1,0,0:0:0:0:
256,192,3985,1,0,0:0:0:0:
256,192,4233,1,0,0:0:0:0:
256,192,4481,1,8,0:0:0:0:
256,192,4852,1,0,0:0:0:0:
256,192,4976,1,0,0:0:0:0:
256,192,5224,1,0,0:0:0:0:
256,192,5472,1,8,0:0:0:0:
256,192,5596,1,0,0:0:0:0:
256,192,5967,1,0,0:0:0:0:
256,192,6215,1,0,0:0:0:0:
256,192,6463,1,8,0:0:0:0:
256,192,6834,1,0,0:0:0:0:
256,192,6958,1,0,0:0:0:0:
256,192,7206,1,0,0:0:0:0:
256,192,7454,1,8,0:0:0:0:
256,192,7577,1,0,0:0:0:0:
256,192,7949,1,0,0:0:0:0:
256,192,8197,1,0,0:0:0:0:
256,192,8444,1,8,0:0:0:0:
256,192,8816,1,0,0:0:0:0:
256,192,8940,1,0,0:0:0:0:
256,192,9188,1,0,0:0:0:0:
256,192,9435,1,8,0:0:0:0:
256,192,9559,1,0,0:0:0:0:
256,192,9931,1,0,0:0:0:0:
256,192,10179,1,0,0:0:0:0:
256,192,10426,1,8,0:0:0:0:
256,192,10798,1,0,0:0:0:0:
256,192,10922,1,0,0:0:0:0:
256,192,11169,1,0,0:0:0:0:
256,192,11417,1,8,0:0:0:0:
256,192,11541,1,0,0:0:0:0:
256,192,11913,1,0,0:0:0:0:
256,192,12160,1,0,0:0:0:0:
256,192,12408,1,8,0:0:0:0:
256,192,12780,1,0,0:0:0:0:
256,192,12904,1,0,0:0:0:0:
256,192,13151,1,0,0:0:0:0:
256,192,13399,1,8,0:0:0:0:
256,192,13523,1,0,0:0:0:0:
256,192,13894,1,0,0:0:0:0:
256,192,14142,1,0,0:0:0:0:
256,192,14390,1,8,0:0:0:0:
256,192,14762,1,0,0:0:0:0:
256,192,14885,1,0,0:0:0:0:
256,192,15133,1,0,0:0:0:0:
256,192,15381,1,8,0:0:0:0:
256,192,15505,1,0,0:0:0:0:
256,192,15876,1,0,0:0:0:0:
256,192,16124,1,0,0:0:0:0:
256,192,16372,1,8,0:0:0:0:
256,192,16743,1,0,0:0:0:0:
256,192,16867,1,0,0:0:0:0:
256,192,17115,1,0,0:0:0:0:
256,192,17363,1,8,0:0:0:0:
256,192,17487,1,0,0:0:0:0:
256,192,17858,1,0,0:0:0:0:
256,192,18354,1,8,0:0:0:0:
256,192,18477,1,0,0:0:0:0:
256,192,18725,1,8,0:0:0:0:
256,192,18973,1,0,0:0:0:0:
256,192,19097,1,0,0:0:0:0:
256,192,19345,1,8,0:0:0:0:
256,192,19592,1,8,0:0:0:0:
256,192,19840,1,0,0:0:0:0:
256,192,20335,1,8,0:0:0:0:
256,192,20459,1,8,0:0:0:0:
256,192,20707,1,0,0:0:0:0:
256,192,20955,1,8,0:0:0:0:
256,192,21079,1,0,0:0:0:0:
256,192,21326,1,8,0:0:0:0:
256,192,21574,1,8,0:0:0:0:
256,192,21822,1,0,0:0:0:0:
256,192,22317,1,8,0:0:0:0:
256,192,22441,1,0,0:0:0:0:
256,192,22689,1,8,0:0:0:0:
256,192,22937,1,0,0:0:0:0:
256,192,23060,1,0,0:0:0:0:
256,192,23308,1,8,0:0:0:0:
256,192,23556,1,8,0:0:0:0:
256,192,23804,1,0,0:0:0:0:
256,192,24299,1,0,0:0:0:0:
256,192,24423,1,8,0:0:0:0:
256,192,24671,1,0,0:0:0:0:
256,192,24918,1,8,0:0:0:0:
256,192,25042,1,8,0:0:0:0:
256,192,25290,1,0,0:0:0:0:
256,192,25538,1,8,0:0:0:0:
256,192,25785,1,0,0:0:0:0:
256,192,26281,1,8,0:0:0:0:
256,192,26405,1,0,0:0:0:0:
256,192,26653,1,8,0:0:0:0:
256,192,26900,1,0,0:0:0:0:
256,192,27024,1,0,0:0:0:0:
256,192,27272,1,8,0:0:0:0:
256,192,27520,1,8,0:0:0:0:
256,192,27767,1,0,0:0:0:0:
256,192,28263,1,8,0:0:0:0:
256,192,28387,1,8,0:0:0:0:
256,192,28634,1,0,0:0:0:0:
256,192,28882,1,8,0:0:0:0:
256,192,29006,1,0,0:0:0:0:
256,192,29254,1,8,0:0:0:0:
256,192,29501,1,8,0:0:0:0:
256,192,29749,1,0,0:0:0:0:
256,192,30245,1,8,0:0:0:0:
256,192,30368,1,0,0:0:0:0:
256,192,30616,1,8,0:0:0:0:
256,192,30864,1,0,0:0:0:0:
256,192,30988,1,0,0:0:0:0:
256,192,31236,1,8,0:0:0:0:
256,192,31483,1,8,0:0:0:0:
256,192,31731,1,0,0:0:0:0:
256,192,32226,1,0,0:0:0:0:
256,192,32350,1,8,0:0:0:0:
256,192,32598,1,0,0:0:0:0:
256,192,32846,1,8,0:0:0:0:
256,192,32970,1,8,0:0:0:0:
256,192,33217,1,0,0:0:0:0:
256,192,33465,1,8,0:0:0:0:
256,192,33713,1,4,0:0:0:0:
256,192,34084,1,0,0:0:0:0:
256,192,34208,1,8,0:0:0:0:
256,192,34456,1,0,0:0:0:0:
256,192,34580,1,0,0:0:0:0:
256,192,34704,1,8,0:0:0:0:
256,192,34828,1,8,0:0:0:0:
256,192,34951,1,0,0:0:0:0:
256,192,35199,1,8,0:0:0:0:
256,192,35447,1,0,0:0:0:0:
256,192,35695,1,8,0:0:0:0:
256,192,35860,1,8,0:0:0:0:
256,192,36025,1,0,0:0:0:0:
256,192,36190,1,8,0:0:0:0:
256,192,36355,1,0,0:0:0:0:
256,192,36520,1,0,0:0:0:0:
256,192,36686,1,8,0:0:0:0:
256,192,36933,1,0,0:0:0:0:
256,192,37057,1,0,0:0:0:0:
256,192,37181,1,8,0:0:0:0:
256,192,37429,1,0,0:0:0:0:
256,192,37676,1,8,0:0:0:0:
256,192,37842,1,0,0:0:0:0:
256,192,38007,1,0,0:0:0:0:
256,192,38172,1,8,0:0:0:0:
256,192,38337,1,8,0:0:0:0:
256,192,38502,1,0,0:0:0:0:
256,192,38667,1,8,0:0:0:0:
256,192,38915,1,0,0:0:0:0:
256,192,39039,1,0,0:0:0:0:
256,192,39163,1,8,0:0:0:0:
256,192,39411,1,0,0:0:0:0:
256,192,39658,1,8,0:0:0:0:
256,192,39823,1,8,0:0:0:0:
256,192,39989,1,0,0:0:0:0:
256,192,40154,1,8,0:0:0:0:
256,192,40319,1,0,0:0:0:0:
256,192,40484,1,0,0:0:0:0:
256,192,40649,1,8,0:0:0:0:
256,192,40897,1,0,0:0:0:0:
256,192,41021,1,0,0:0:0:0:
256,192,41145,1,8,0:0:0:0:
256,192,41392,1,0,0:0:0:0:
256,192,41640,1,12,0:0:0:0:
256,192,41888,1,0,0:0:0:0:
256,192,42012,1,8,0:0:0:0:
256,192,42259,1,0,0:0:0:0:
256,192,42383,1,0,0:0:0:0:
256,192,42631,1,8,0:0:0:0:
256,192,42879,1,0,0:0:0:0:
256,192,43003,1,8,0:0:0:0:
256,192,43127,1,0,0:0:0:0:
256,192,43374,1,8,0:0:0:0:
256,192,44861,1,0,0:0:0:0:
256,192,45108,1,8,0:0:0:0:
256,192,45232,1,0,0:0:0:0:
256,192,45356,1,8,0:0:0:0:
256,192,45604,1,0,0:0:0:0:
256,192,45769,1,8,0:0:0:0:
256,192,45934,1,8,0:0:0:0:
256,192,46099,1,0,0:0:0:0:
256,192,46264,1,8,0:0:0:0:
256,192,46430,1,0,0:0:0:0:
256,192,46595,1,0,0:0:0:0:
256,192,46842,1,8,0:0:0:0:
256,192,47090,1,0,0:0:0:0:
256,192,47255,1,8,0:0:0:0:
256,192,47421,1,0,0:0:0:0:
256,192,47586,1,8,0:0:0:0:
256,192,47751,1,8,0:0:0:0:
256,192,47916,1,0,0:0:0:0:
256,192,48081,1,8,0:0:0:0:
256,192,48246,1,0,0:0:0:0:
256,192,48411,1,0,0:0:0:0:
256,192,48577,1,8,0:0:0:0:
256,192,48824,1,0,0:0:0:0:
256,192,48948,1,0,0:0:0:0:
256,192,49072,1,8,0:0:0:0:
256,192,49320,1,8,0:0:0:0:
256,192,49567,1,4,0:0:0:0:
256,192,49815,1,0,0:0:0:0:
256,192,50063,1,8,0:0:0:0:
256,192,50435,1,0,0:0:0:0:
256,192,50558,1,0,0:0:0:0:
256,192,50806,1,0,0:0:0:0:
256,192,51054,1,8,0:0:0:0:
256,192,51302,1,8,0:0:0:0:
256,192,51425,1,8,0:0:0:0:
256,192,51549,1,0,0:0:0:0:
256,192,51797,1,0,0:0:0:0:
256,192,52045,1,8,0:0:0:0:
256,192,52293,1,0,0:0:0:0:
256,192,52416,1,8,0:0:0:0:
256,192,52540,1,0,0:0:0:0:
256,192,52664,1,0,0:0:0:0:
256,192,52788,1,8,0:0:0:0:
256,192,53036,1,0,0:0:0:0:
256,192,53283,1,8,0:0:0:0:
256,192,53407,1,8,0:0:0:0:
256,192,53531,1,0,0:0:0:0:
256,192,53779,1,0,0:0:0:0:
256,192,54027,1,8,0:0:0:0:
256,192,54398,1,0,0:0:0:0:
256,192,54522,1,0,0:0:0:0:
256,192,54770,1,0,0:0:0:0:
256,192,55018,1,8,0:0:0:0:
256,192,55265,1,8,0:0:0:0:
256,192,55389,1,8,0:0:0:0:
256,192,55513,1,0,0:0:0:0:
256,192,55761,1,0,0:0:0:0:
256,192,56008,1,8,0:0:0:0:
256,192,56256,1,0,0:0:0:0:
256,192,56380,1,0,0:0:0:0:
256,192,56504,1,8,0:0:0:0:
256,192,56628,1,0,0:0:0:0:
256,192,56752,1,8,0:0:0:0:
256,192,56876,1,8,0:0:0:0:
256,192,56999,1,0,0:0:0:0:
256,192,57247,1,8,0:0:0:0:
256,192,57495,1,4,0:0:0:0:
256,192,57743,1,0,0:0:0:0:
256,192,57990,1,8,0:0:0:0:
256,192,58362,1,0,0:0:0:0:
256,192,58486,1,0,0:0:0:0:
256,192,58733,1,0,0:0:0:0:
256,192,58981,1,8,0:0:0:0:
256,192,59229,1,8,0:0:0:0:
256,192,59353,1,8,0:0:0:0:
256,192,59477,1,0,0:0:0:0:
256,192,59724,1,0,0:0:0:0:
256,192,59972,1,8,0:0:0:0:
256,192,60220,1,0,0:0:0:0:
256,192,60344,1,8,0:0:0:0:
256,192,60468,1,0,0:0:0:0:
256,192,60591,1,0,0:0:0:0:
256,192,60715,1,8,0:0:0:0:
256,192,60963,1,0,0:0:0:0:
256,192,61211,1,8,0:0:0:0:
256,192,61335,1,8,0:0:0:0:
256,192,61458,1,0,0:0:0:0:
256,192,61706,1,0,0:0:0:0:
256,192,61954,1,8,0:0:0:0:
256,192,62326,1,0,0:0:0:0:
256,192,62449,1,0,0:0:0:0:
256,192,62697,1,0,0:0:0:0:
256,192,62945,1,8,0:0:0:0:
256,192,63193,1,8,0:0:0:0:
256,192,63316,1,8,0:0:0:0:
256,192,63440,1,0,0:0:0:0:
256,192,63688,1,0,0:0:0:0:
256,192,63936,1,8,0:0:0:0:
256,192,64184,1,0,0:0:0:0:
256,192,64307,1,0,0:0:0:0:
256,192,64431,1,8,0:0:0:0:
256,192,64555,1,0,0:0:0:0:
256,192,64679,1,8,0:0:0:0:
256,192,64803,1,8,0:0:0:0:
256,192,64927,1,0,0:0:0:0:
256,192,65174,1,8,0:0:0:0:
256,192,65422,1,4,0:0:0:0:
256,192,65670,1,8,0:0:0:0:
256,192,65794,1,8,0:0:0:0:
256,192,65918,1,0,0:0:0:0:
256,192,66165,1,8,0:0:0:0:
256,192,66413,1,0,0:0:0:0:
256,192,66661,1,8,0:0:0:0:
256,192,66785,1,0,0:0:0:0:
256,192,67032,1,0,0:0:0:0:
256,192,67156,1,8,0:0:0:0:
256,192,67404,1,0,0:0:0:0:
256,192,67652,1,8,0:0:0:0:
256,192,67776,1,8,0:0:0:0:
256,192,67899,1,0,0:0:0:0:
256,192,68147,1,8,0:0:0:0:
256,192,68271,1,0,0:0:0:0:
256,192,68395,1,8,0:0:0:0:
256,192,68519,1,8,0:0:0:0:
256,192,68643,1,0,0:0:0:0:
256,192,68767,1,8,0:0:0:0:
256,192,69014,1,0,0:0:0:0:
256,192,69138,1,8,0:0:0:0:
256,192,69386,1,0,0:0:0:0:
256,192,69634,1,8,0:0:0:0:
256,192,69757,1,8,0:0:0:0:
256,192,69881,1,0,0:0:0:0:
256,192,70129,1,8,0:0:0:0:
256,192,70377,1,0,0:0:0:0:
256,192,70624,1,8,0:0:0:0:
256,192,70748,1,0,0:0:0:0:
256,192,70996,1,0,0:0:0:0:
256,192,71120,1,8,0:0:0:0:
256,192,71368,1,0,0:0:0:0:
256,192,71615,1,8,0:0:0:0:
256,192,71739,1,8,0:0:0:0:
256,192,71863,1,0,0:0:0:0:
256,192,71987,1,0,0:0:0:0:
256,192,72111,1,8,0:0:0:0:
256,192,72359,1,0,0:0:0:0:
256,192,72606,1,0,0:0:0:0:
256,192,72730,1,0,0:0:0:0:
256,192,72854,1,8,0:0:0:0:
256,192,73102,1,8,0:0:0:0:
256,192,73349,1,4,0:0:0:0:
256,192,73597,1,8,0:0:0:0:
256,192,73721,1,8,0:0:0:0:
256,192,73845,1,0,0:0:0:0:
256,192,74093,1,8,0:0:0:0:
256,192,74340,1,0,0:0:0:0:
256,192,74588,1,8,0:0:0:0:
256,192,74712,1,0,0:0:0:0:
256,192,74960,1,0,0:0:0:0:
256,192,75084,1,8,0:0:0:0:
256,192,75331,1,0,0:0:0:0:
256,192,75579,1,8,0:0:0:0:
256,192,75703,1,8,0:0:0:0:
256,192,75827,1,0,0:0:0:0:
256,192,76075,1,8,0:0:0:0:
256,192,76198,1,0,0:0:0:0:
256,192,76322,1,8,0:0:0:0:
256,192,76446,1,8,0:0:0:0:
256,192,76570,1,0,0:0:0:0:
256,192,76694,1,8,0:0:0:0:
256,192,76942,1,0,0:0:0:0:
256,192,77065,1,8,0:0:0:0:
256,192,77313,1,0,0:0:0:0:
256,192,77561,1,8,0:0:0:0:
256,192,77685,1,8,0:0:0:0:
256,192,77809,1,0,0:0:0:0:
256,192,78056,1,8,0:0:0:0:
256,192,78304,1,0,0:0:0:0:
256,192,78552,1,8,0:0:0:0:
256,192,78676,1,0,0:0:0:0:
256,192,78923,1,0,0:0:0:0:
256,192,79047,1,8,0:0:0:0:
256,192,79295,1,0,0:0:0:0:
256,192,79543,1,8,0:0:0:0:
256,192,79667,1,8,0:0:0:0:
256,192,79790,1,0,0:0:0:0:
256,192,79914,1,0,0:0:0:0:
256,192,80038,1,8,0:0:0:0:
256,192,80286,1,0,0:0:0:0:
256,192,80534,1,0,0:0:0:0:
256,192,80658,1,0,0:0:0:0:
256,192,80781,1,8,0:0:0:0:
256,192,81029,1,8,0:0:0:0:
256,192,81277,1,4,0:0:0:0:
256,192,81648,1,8,0:0:0:0:
256,192,81772,1,0,0:0:0:0:
256,192,82020,1,0,0:0:0:0:
256,192,82268,1,8,0:0:0:0:
256,192,82515,1,0,0:0:0:0:
256,192,82639,1,0,0:0:0:0:
256,192,82763,1,8,0:0:0:0:
256,192,83011,1,8,0:0:0:0:
256,192,83259,1,0,0:0:0:0:
256,192,83630,1,8,0:0:0:0:
256,192,83754,1,0,0:0:0:0:
256,192,84002,1,0,0:0:0:0:
256,192,84250,1,8,0:0:0:0:
256,192,84497,1,0,0:0:0:0:
256,192,84621,1,8,0:0:0:0:
256,192,84745,1,0,0:0:0:0:
256,192,84869,1,0,0:0:0:0:
256,192,84993,1,8,0:0:0:0:
256,192,85240,1,0,0:0:0:0:
256,192,85612,1,8,0:0:0:0:
256,192,85736,1,0,0:0:0:0:
256,192,85984,1,0,0:0:0:0:
256,192,86231,1,8,0:0:0:0:
256,192,86479,1,0,0:0:0:0:
256,192,86603,1,0,0:0:0:0:
256,192,86727,1,8,0:0:0:0:
256,192,86975,1,8,0:0:0:0:
256,192,87222,1,0,0:0:0:0:
256,192,87470,1,0,0:0:0:0:
256,192,87718,1,8,0:0:0:0:
256,192,88089,1,0,0:0:0:0:
256,192,88213,1,0,0:0:0:0:
256,192,88461,1,0,0:0:0:0:
256,192,88709,1,8,0:0:0:0:
256,192,88833,1,0,0:0:0:0:
256,192,89204,1,4,0:0:0:0:
256,192,89452,1,0,0:0:0:0:
256,192,89700,1,8,0:0:0:0:
256,192,89947,1,0,0:0:0:0:
256,192,90071,1,8,0:0:0:0:
256,192,90319,1,8,0:0:0:0:
256,192,90443,1,0,0:0:0:0:
256,192,90691,1,8,0:0:0:0:
256,192,90856,1,8,0:0:0:0:
256,192,91021,1,8,0:0:0:0:
256,192,91186,1,0,0:0:0:0:
256,192,91434,1,0,0:0:0:0:
256,192,91681,1,8,0:0:0:0:
256,192,91805,1,0,0:0:0:0:
256,192,91929,1,0,0:0:0:0:
256,192,92053,1,8,0:0:0:0:
256,192,92301,1,0,0:0:0:0:
256,192,92425,1,8,0:0:0:0:
256,192,92672,1,0,0:0:0:0:
256,192,92838,1,8,0:0:0:0:
256,192,93003,1,8,0:0:0:0:
256,192,93168,1,0,0:0:0:0:
256,192,93416,1,0,0:0:0:0:
256,192,93663,1,8,0:0:0:0:
256,192,93911,1,0,0:0:0:0:
256,192,94035,1,8,0:0:0:0:
256,192,94283,1,8,0:0:0:0:
256,192,94406,1,0,0:0:0:0:
256,192,94654,1,8,0:0:0:0:
256,192,94819,1,8,0:0:0:0:
256,192,94985,1,8,0:0:0:0:
256,192,95150,1,0,0:0:0:0:
256,192,97131,1,4,0:0:0:0:
256,192,97379,1,0,0:0:0:0:
256,192,97627,1,8,0:0:0:0:
256,192,97999,1,0,0:0:0:0:
256,192,98122,1,0,0:0:0:0:
256,192,98370,1,0,0:0:0:0:
256,192,98618,1,8,0:0:0:0:
256,192,98866,1,8,0:0:0:0:
256,192,98989,1,8,0:0:0:0:
256,192,99113,1,0,0:0:0:0:
256,192,99361,1,0,0:0:0:0:
256,192,99609,1,8,0:0:0:0:
256,192,99857,1,0,0:0:0:0:
256,192,99980,1,8,0:0:0:0:
256,192,100104,1,0,0:0:0:0:
256,192,100228,1,0,0:0:0:0:
256,192,100352,1,8,0:0:0:0:
256,192,100600,1,0,0:0:0:0:
256,192,100847,1,8,0:0:0:0:
256,192,100971,1,8,0:0:0:0:
256,192,101095,1,0,0:0:0:0:
256,192,101343,1,0,0:0:0:0:
256,192,101591,1,8,0:0:0:0:
256,192,101962,1,0,0:0:0:0:
256,192,102086,1,0,0:0:0:0:
256,192,102334,1,0,0:0:0:0:
256,192,102582,1,8,0:0:0:0:
256,192,102829,1,8,0:0:0:0:
256,192,102953,1,8,0:0:0:0:
256,192,103077,1,0,0:0:0:0:
256,192,103325,1,0,0:0:0:0:
256,192,103572,1,8,0:0:0:0:
256,192,103820,1,0,0:0:0:0:
256,192,103944,1,0,0:0:0:0:
256,192,104068,1,8,0:0:0:0:
256,192,104192,1,0,0:0:0:0:
256,192,104316,1,8,0:0:0:0:
256,192,104440,1,8,0:0:0:0:
256,192,104563,1,0,0:0:0:0:
256,192,104811,1,8,0:0:0:0:
256,192,105059,1,4,0:0:0:0:
256,192,105307,1,0,0:0:0:0:
256,192,105554,1,8,0:0:0:0:
256,192,105926,1,0,0:0:0:0:
256,192,106050,1,0,0:0:0:0:
256,192,106297,1,0,0:0:0:0:
256,192,106545,1,8,0:0:0:0:
256,192,106793,1,8,0:0:0:0:
256,192,106917,1,8,0:0:0:0:
256,192,107041,1,0,0:0:0:0:
256,192,107288,1,0,0:0:0:0:
256,192,107536,1,8,0:0:0:0:
256,192,107784,1,0,0:0:0:0:
256,192,107908,1,8,0:0:0:0:
256,192,108032,1,0,0:0:0:0:
256,192,108155,1,0,0:0:0:0:
256,192,108279,1,8,0:0:0:0:
256,192,108527,1,0,0:0:0:0:
256,192,108775,1,8,0:0:0:0:
256,192,108899,1,8,0:0:0:0:
256,192,109022,1,0,0:0:0:0:
256,192,109270,1,0,0:0:0:0:
256,192,109518,1,8,0:0:0:0:
256,192,109890,1,0,0:0:0:0:
256,192,110013,1,0,0:0:0:0:
256,192,110261,1,0,0:0:0:0:
256,192,110509,1,8,0:0:0:0:
256,192,110757,1,8,0:0:0:0:
256,192,110880,1,8,0:0:0:0:
256,192,111004,1,0,0:0:0:0:
256,192,111252,1,0,0:0:0:0:
256,192,111500,1,8,0:0:0:0:
256,192,111748,1,0,0:0:0:0:
256,192,111871,1,0,0:0:0:0:
256,192,111995,1,8,0:0:0:0:
256,192,112119,1,0,0:0:0:0:
256,192,112243,1,8,0:0:0:0:
256,192,112367,1,8,0:0:0:0:
256,192,112491,1,0,0:0:0:0:
256,192,112738,1,8,0:0:0:0:
256,192,112986,1,0,0:0:0:0:
256,192,113729,1,8,0:0:0:0:
256,192,113977,1,8,0:0:0:0:
256,192,114225,1,0,0:0:0:0:
256,192,115711,1,0,0:0:0:0:
256,192,115959,1,8,0:0:0:0:
256,192,116454,1,8,0:0:0:0:
256,192,116950,1,0,0:0:0:0:
256,192,117693,1,8,0:0:0:0:
256,192,117941,1,8,0:0:0:0:
256,192,118188,1,0,0:0:0:0:
256,192,118560,1,0,0:0:0:0:
256,192,119757,1,0,0:0:0:0:
256,192,119923,1,8,0:0:0:0:
256,192,120418,1,8,0:0:0:0:
256,192,120913,1,0,0:0:0:0:
256,192,121657,1,8,0:0:0:0:
256,192,121904,1,8,0:0:0:0:
256,192,122895,1,0,0:0:0:0:
256,192,123639,1,8,0:0:0:0:
256,192,123886,1,8,0:0:0:0:
256,192,124877,1,0,0:0:0:0:
256,192,125620,1,8,0:0:0:0:
256,192,125868,1,8,0:0:0:0:
256,192,126859,1,8,0:0:0:0:
256,192,128841,1,4,0:0:0:0:
256,192,129089,1,0,0:0:0:0:
256,192,129336,1,8,0:0:0:0:
256,192,129708,1,0,0:0:0:0:
256,192,129832,1,8,0:0:0:0:
256,192,129956,1,0,0:0:0:0:
256,192,130079,1,8,0:0:0:0:
256,192,130203,1,8,0:0:0:0:
256,192,130327,1,0,0:0:0:0:
256,192,130575,1,8,0:0:0:0:
256,192,130823,1,0,0:0:0:0:
256,192,131070,1,0,0:0:0:0:
256,192,131318,1,8,0:0:0:0:
256,192,131690,1,0,0:0:0:0:
256,192,131814,1,0,0:0:0:0:
256,192,132061,1,8,0:0:0:0:
256,192,132185,1,8,0:0:0:0:
256,192,132309,1,0,0:0:0:0:
256,192,132433,1,8,0:0:0:0:
256,192,132804,1,0,0:0:0:0:
256,192,133052,1,0,0:0:0:0:
256,192,133300,1,8,0:0:0:0:
256,192,133548,1,8,0:0:0:0:
256,192,133795,1,0,0:0:0:0:
256,192,134167,1,0,0:0:0:0:
256,192,134291,1,8,0:0:0:0:
256,192,134415,1,8,0:0:0:0:
256,192,134539,1,0,0:0:0:0:
256,192,134662,1,8,0:0:0:0:
256,192,134786,1,0,0:0:0:0:
256,192,135034,1,0,0:0:0:0:
256,192,135282,1,8,0:0:0:0:
256,192,135530,1,8,0:0:0:0:
256,192,135777,1,0,0:0:0:0:
256,192,135901,1,8,0:0:0:0:
256,192,136025,1,0,0:0:0:0:
256,192,136149,1,0,0:0:0:0:
256,192,136273,1,8,0:0:0:0:
256,192,136397,1,8,0:0:0:0:
256,192,136520,1,8,0:0:0:0:
256,192,136644,1,8,0:0:0:0:
256,192,136768,1,0,0:0:0:0:
256,192,137016,1,8,0:0:0:0:
256,192,137264,1,0,0:0:0:0:
256,192,137511,1,0,0:0:0:0:
256,192,137759,1,8,0:0:0:0:
256,192,138131,1,0,0:0:0:0:
256,192,138255,1,8,0:0:0:0:
256,192,138378,1,8,0:0:0:0:
256,192,138626,1,0,0:0:0:0:
256,192,138750,1,8,0:0:0:0:
256,192,138998,1,0,0:0:0:0:
256,192,139122,1,0,0:0:0:0:
256,192,139245,1,8,0:0:0:0:
256,192,139369,1,8,0:0:0:0:
256,192,139493,1,0,0:0:0:0:
256,192,139617,1,8,0:0:0:0:
256,192,139741,1,0,0:0:0:0:
256,192,139865,1,0,0:0:0:0:
256,192,139989,1,8,0:0:0:0:
256,192,140113,1,8,0:0:0:0:
256,192,140236,1,0,0:0:0:0:
256,192,140484,1,8,0:0:0:0:
256,192,140732,1,0,0:0:0:0:
256,192,140856,1,8,0:0:0:0:
256,192,140980,1,0,0:0:0:0:
256,192,141103,1,0,0:0:0:0:
256,192,141227,1,8,0:0:0:0:
256,192,141351,1,8,0:0:0:0:
256,192,141475,1,0,0:0:0:0:
256,192,141599,1,8,0:0:0:0:
256,192,141723,1,0,0:0:0:0:
256,192,141805,1,8,0:0:0:0:
256,192,141888,1,8,0:0:0:0:
256,192,141970,1,0,0:0:0:0:
256,192,142094,1,0,0:0:0:0:
256,192,142218,1,8,0:0:0:0:
256,192,142342,1,0,0:0:0:0:
256,192,142466,1,8,0:0:0:0:
256,192,142590,1,8,0:0:0:0:
256,192,142714,1,0,0:0:0:0:
256,192,142879,1,8,0:0:0:0:
256,192,143044,1,8,0:0:0:0:
256,192,143209,1,0,0:0:0:0:
256,192,143333,1,8,0:0:0:0:
256,192,143457,1,0,0:0:0:0:
256,192,143539,1,0,0:0:0:0:
256,192,143622,1,0,0:0:0:0:
256,192,143705,1,8,0:0:0:0:
256,192,143828,1,8,0:0:0:0:
256,192,143952,1,0,0:0:0:0:
256,192,144076,1,8,0:0:0:0:
256,192,144200,1,0,0:0:0:0:
256,192,144324,1,0,0:0:0:0:
256,192,144448,1,8,0:0:0:0:
256,192,144572,1,8,0:0:0:0:
256,192,144695,1,4,0:0:0:0:
256,192,144943,1,0,0:0:0:0:
256,192,145191,1,8,0:0:0:0:
256,192,145439,1,0,0:0:0:0:
256,192,145563,1,8,0:0:0:0:
256,192,145686,1,0,0:0:0:0:
256,192,145934,1,8,0:0:0:0:
256,192,146182,1,0,0:0:0:0:
256,192,146306,1,0,0:0:0:0:
256,192,146430,1,8,0:0:0:0:
256,192,146677,1,0,0:0:0:0:
256,192,146925,1,0,0:0:0:0:
256,192,147173,1,8,0:0:0:0:
256,192,147421,1,0,0:0:0:0:
256,192,147544,1,8,0:0:0:0:
256,192,147792,1,0,0:0:0:0:
256,192,148040,1,8,0:0:0:0:
256,192,148288,1,0,0:0:0:0:
256,192,148535,1,8,0:0:0:0:
256,192,148659,1,0,0:0:0:0:
256,192,148907,1,0,0:0:0:0:
256,192,149155,1,8,0:0:0:0:
256,192,149402,1,0,0:0:0:0:
256,192,149526,1,8,0:0:0:0:
256,192,149650,1,0,0:0:0:0:
256,192,149898,1,8,0:0:0:0:
256,192,150146,1,0,0:0:0:0:
256,192,150269,1,0,0:0:0:0:
256,192,150393,1,8,0:0:0:0:
256,192,150641,1,0,0:0:0:0:
256,192,150889,1,0,0:0:0:0:
256,192,151136,1,8,0:0:0:0:
256,192,151384,1,0,0:0:0:0:
256,192,151508,1,8,0:0:0:0:
256,192,151632,1,0,0:0:0:0:
256,192,151880,1,8,0:0:0:0:
256,192,152003,1,8,0:0:0:0:
256,192,152127,1,0,0:0:0:0:
256,192,152251,1,8,0:0:0:0:
256,192,152499,1,8,0:0:0:0:
256,192,152623,1,0,0:0:0:0:
256,192,152871,1,0,0:0:0:0:
256,192,153118,1,8,0:0:0:0:
256,192,153366,1,0,0:0:0:0:
256,192,153490,1,8,0:0:0:0:
256,192,153614,1,0,0:0:0:0:
256,192,153861,1,8,0:0:0:0:
256,192,154109,1,0,0:0:0:0:
256,192,154233,1,0,0:0:0:0:
256,192,154357,1,8,0:0:0:0:
256,192,154605,1,0,0:0:0:0:
256,192,154852,1,0,0:0:0:0:
256,192,155100,1,8,0:0:0:0:
256,192,155348,1,0,0:0:0:0:
256,192,155472,1,8,0:0:0:0:
256,192,155596,1,0,0:0:0:0:
256,192,155843,1,8,0:0:0:0:
256,192,155967,1,8,0:0:0:0:
256,192,156091,1,0,0:0:0:0:
256,192,156215,1,0,0:0:0:0:
256,192,156339,1,8,0:0:0:0:
256,192,156586,1,0,0:0:0:0:
256,192,156834,1,0,0:0:0:0:
256,192,157082,1,8,0:0:0:0:
256,192,157330,1,0,0:0:0:0:
256,192,157454,1,8,0:0:0:0:
256,192,157577,1,0,0:0:0:0:
256,192,157825,1,8,0:0:0:0:
256,192,158073,1,0,0:0:0:0:
256,192,158197,1,0,0:0:0:0:
256,192,158321,1,8,0:0:0:0:
256,192,158568,1,0,0:0:0:0:
256,192,158816,1,8,0:0:0:0:
256,192,158940,1,8,0:0:0:0:
256,192,159312,1,8,0:0:0:0:
256,192,160055,1,8,0:0:0:0:
256,192,160220,1,8,0:0:0:0:
256,192,160385,1,8,0:0:0:0:
256,192,160550,1,0,0:0:0:0:
256,192,164514,1,4,0:0:0:0:
256,192,164762,1,0,0:0:0:0:
256,192,165009,1,8,0:0:0:0:
256,192,165381,1,0,0:0:0:0:
256,192,165505,1,0,0:0:0:0:
256,192,165752,1,0,0:0:0:0:
256,192,166000,1,8,0:0:0:0:
256,192,166248,1,8,0:0:0:0:
256,192,166372,1,8,0:0:0:0:
256,192,166496,1,0,0:0:0:0:
256,192,166743,1,0,0:0:0:0:
256,192,166991,1,8,0:0:0:0:
256,192,167239,1,0,0:0:0:0:
256,192,167363,1,8,0:0:0:0:
256,192,167487,1,0,0:0:0:0:
256,192,167610,1,0,0:0:0:0:
256,192,167734,1,8,0:0:0:0:
256,192,167982,1,0,0:0:0:0:
256,192,168230,1,8,0:0:0:0:
256,192,168354,1,8,0:0:0:0:
256,192,168477,1,0,0:0:0:0:
256,192,168725,1,0,0:0:0:0:
256,192,168973,1,8,0:0:0:0:
256,192,169345,1,0,0:0:0:0:
256,192,169468,1,0,0:0:0:0:
256,192,169716,1,0,0:0:0:0:
256,192,169964,1,8,0:0:0:0:
256,192,170212,1,8,0:0:0:0:
256,192,170335,1,8,0:0:0:0:
256,192,170459,1,0,0:0:0:0:
256,192,170707,1,0,0:0:0:0:
256,192,170955,1,8,0:0:0:0:
256,192,171203,1,0,0:0:0:0:
256,192,171326,1,0,0:0:0:0:
256,192,171450,1,8,0:0:0:0:
256,192,171574,1,0,0:0:0:0:
256,192,171698,1,8,0:0:0:0:
256,192,171822,1,8,0:0:0:0:
256,192,171946,1,0,0:0:0:0:
256,192,172193,1,8,0:0:0:0:
256,192,172441,1,4,0:0:0:0:
256,192,172689,1,0,0:0:0:0:
256,192,172937,1,8,0:0:0:0:
256,192,173308,1,0,0:0:0:0:
256,192,173432,1,0,0:0:0:0:
256,192,173680,1,0,0:0:0:0:
256,192,173928,1,8,0:0:0:0:
256,192,174175,1,8,0:0:0:0:
256,192,174299,1,8,0:0:0:0:
256,192,174423,1,0,0:0:0:0:
256,192,174671,1,0,0:0:0:0:
256,192,174918,1,8,0:0:0:0:
256,192,175166,1,0,0:0:0:0:
256,192,175290,1,8,0:0:0:0:
256,192,175414,1,0,0:0:0:0:
256,192,175538,1,0,0:0:0:0:
256,192,175662,1,8,0:0:0:0:
256,192,175909,1,0,0:0:0:0:
256,192,176157,1,8,0:0:0:0:
256,192,176281,1,8,0:0:0:0:
256,192,176405,1,0,0:0:0:0:
256,192,176653,1,0,0:0:0:0:
256,192,176900,1,8,0:0:0:0:
256,192,177272,1,0,0:0:0:0:
256,192,177396,1,0,0:0:0:0:
256,192,177643,1,0,0:0:0:0:
256,192,177891,1,8,0:0:0:0:
256,192,178139,1,8,0:0:0:0:
256,192,178263,1,8,0:0:0:0:
256,192,178387,1,0,0:0:0:0:
256,192,178634,1,0,0:0:0:0:
256,192,178882,1,8,0:0:0:0:
256,192,179130,1,0,0:0:0:0:
256,192,179254,1,0,0:0:0:0:
256,192,179378,1,8,0:0:0:0:
256,192,179501,1,0,0:0:0:0:
256,192,179625,1,8,0:0:0:0:
256,192,179749,1,8,0:0:0:0:
256,192,179873,1,0,0:0:0:0:
256,192,180121,1,8,0:0:0:0:
256,192,180368,1,4,0:0:0:0:
256,192,180616,1,0,0:0:0:0:
256,192,180864,1,8,0:0:0:0:
256,192,181236,1,0,0:0:0:0:
256,192,181359,1,0,0:0:0:0:
256,192,181607,1,0,0:0:0:0:
256,192,181855,1,8,0:0:0:0:
256,192,181979,1,8,0:0:0:0:
256,192,182103,1,0,0:0:0:0:
256,192,182350,1,8,0:0:0:0:
256,192,182598,1,0,0:0:0:0:
256,192,182846,1,8,0:0:0:0:
256,192,183217,1,0,0:0:0:0:
256,192,183341,1,0,0:0:0:0:
256,192,183589,1,0,0:0:0:0:
256,192,183837,1,8,0:0:0:0:
256,192,183961,1,8,0:0:0:0:
256,192,184084,1,8,0:0:0:0:
256,192,184332,1,0,0:0:0:0:
256,192,184580,1,8,0:0:0:0:
256,192,184828,1,0,0:0:0:0:
256,192,185075,1,8,0:0:0:0:
256,192,185158,1,8,0:0:0:0:
256,192,185240,1,0,0:0:0:0:
256,192,185323,1,0,0:0:0:0:
256,192,185571,1,0,0:0:0:0:
256,192,185819,1,8,0:0:0:0:
256,192,186066,1,0,0:0:0:0:
256,192,186149,1,8,0:0:0:0:
256,192,186231,1,8,0:0:0:0:
256,192,186314,1,0,0:0:0:0:
256,192,186562,1,0,0:0:0:0:
256,192,186809,1,8,0:0:0:0:
256,192,187057,1,0,0:0:0:0:
256,192,187181,1,8,0:0:0:0:
256,192,187305,1,0,0:0:0:0:
256,192,187553,1,0,0:0:0:0:
256,192,187800,1,8,0:0:0:0:
256,192,187924,1,0,0:0:0:0:
256,192,188296,1,0,0:0:0:0:
256,192,188544,1,0,0:0:0:0:
256,192,188791,1,8,0:0:0:0:
256,192,189163,1,0,0:0:0:0:
256,192,189287,1,0,0:0:0:0:
256,192,189534,1,0,0:0:0:0:
256,192,189782,1,8,0:0:0:0:
256,192,189865,1,0,0:0:0:0:
256,192,189947,1,0,0:0:0:0:
256,192,190030,1,8,0:0:0:0:
256,192,190154,1,8,0:0:0:0:
256,192,190278,1,0,0:0:0:0:
256,192,190525,1,0,0:0:0:0:
256,192,190773,1,8,0:0:0:0:
256,192,191145,1,0,0:0:0:0:
256,192,191269,1,0,0:0:0:0:
256,192,191516,1,8,0:0:0:0:
256,192,191599,1,0,0:0:0:0:
256,192,191681,1,0,0:0:0:0:
256,192,191764,1,8,0:0:0:0:
256,192,192012,1,8,0:0:0:0:
256,192,192259,1,0,0:0:0:0:
256,192,192507,1,0,0:0:0:0:
256,192,192755,1,8,0:0:0:0:
256,192,193127,1,0,0:0:0:0:
256,192,193250,1,8,0:0:0:0:
256,192,193498,1,8,0:0:0:0:
256,192,193746,1,0,0:0:0:0:
256,192,193994,1,8,0:0:0:0:
256,192,194117,1,8,0:0:0:0:
256,192,194241,1,0,0:0:0:0:
256,192,194489,1,0,0:0:0:0:
256,192,194737,1,8,0:0:0:0:
256,192,194985,1,0,0:0:0:0:
256,192,195108,1,8,0:0:0:0:
256,192,195232,1,0,0:0:0:0:
256,192,195356,1,0,0:0:0:0:
256,192,195480,1,8,0:0:0:0:
256,192,195728,1,0,0:0:0:0:
256,192,195852,1,0,0:0:0:0:
256,192,196196,1,8,0:0:0:0:
256,192,197249,1,0,0:0:0:0:
256,192,197980,1,8,0:0:0:0:
256,192,198102,1,8,0:0:0:0:
256,192,198224,1,8,0:0:0:0:
256,192,198969,1,0,0:0:0:0:
256,192,199218,1,8,0:0:0:0:
256,192,199698,1,8,0:0:0:0:
256,192,200181,1,0,0:0:0:0:
256,192,200676,1,0,0:0:0:0:
256,192,201172,1,0,0:0:0:0:
256,192,201413,1,8,0:0:0:0:
256,192,201655,1,0,0:0:0:0:
256,192,201900,1,0,0:0:0:0:
256,192,202146,1,8,0:0:0:0:
256,192,202637,1,8,0:0:0:0:
256,192,203129,1,8,0:0:0:0:
256,192,203621,1,0,0:0:0:0:
256,192,204113,1,8,0:0:0:0:
256,192,206138,1,8,0:0:0:0:
256,192,206897,1,0,0:0:0:0:
256,192,207150,1,8,0:0:0:0:
256,192,207393,1,8,0:0:0:0:
256,192,207881,1,0,0:0:0:0:
256,192,208125,1,8,0:0:0:0:
256,192,208887,1,8,0:0:0:0:
256,192,208972,1,8,0:0:0:0:
256,192,209057,1,0,0:0:0:0:
256,192,209141,1,0,0:0:0:0:
256,192,209903,1,8,0:0:0:0:
256,192,209968,1,8,0:0:0:0:
256,192,210034,1,0,0:0:0:0:
256,192,210112,1,0,0:0:0:0:
256,192,210190,1,8,0:0:0:0:
256,192,210292,1,0,0:0:0:0:
256,192,210394,1,8,0:0:0:0:
256,192,210497,1,8,0:0:0:0:
256,192,210647,1,0,0:0:0:0:
256,192,211336,1,8,0:0:0:0:
