osu file format v14

[General]
AudioFilename: audio.mp3
AudioLeadIn: 0
PreviewTime: 2
Countdown: 0
SampleSet: Soft
StackLeniency: 0.2
Mode: 0
LetterboxInBreaks: 0
WidescreenStoryboard: 1

[Editor]
Bookmarks: 22797,40412,58035,75660,93256,110870,119679,137280,146087,154626,163687,181301,194512
DistanceSpacing: 3.5
BeatDivisor: 4
GridSize: 16
TimelineZoom: 1

[Metadata]
Title:I Ain't Got Time!
TitleUnicode:I Ain't Got Time!
Artist:Tyler, The Creator
ArtistUnicode:Tyler, The Creator
Creator:chaser01
Version:Hard
Source:
Tags:resahc bluirre fsjallink flower boy rap ain aint hip hop hip-hop english
BeatmapID:3839743
BeatmapSetID:1844850

[Difficulty]
HPDrainRate:4
CircleSize:3.6
OverallDifficulty:7
ApproachRate:7.8
SliderMultiplier:2.2
SliderTickRate:1

[Events]
//Background and Video events
0,0,"baby.jpg",0,0
//Break Periods
2,181501,184926
2,185905,187907
//Storyboard Layer 0 (Background)
//Storyboard Layer 1 (Fail)
//Storyboard Layer 2 (Pass)
//Storyboard Layer 3 (Foreground)
//Storyboard Layer 4 (Overlay)
//Storyboard Sound Samples

[TimingPoints]
779,550.45871559633,4,2,1,70,1,0
22797,-86.9565217391304,4,2,1,77,0,0
42063,-86.9565217391304,4,2,1,50,0,0
42338,-117.647058823529,4,2,1,50,0,0
44830,550.45871559633,4,2,1,70,1,0
44830,-117.647058823529,4,2,1,70,0,0
51160,-117.647058823529,4,2,1,50,0,0
51430,550.45871559633,4,2,1,70,1,0
51430,-90.9090909090909,4,2,1,70,0,0
58035,-86.9565217391304,4,2,1,77,0,0
71257,550.45871559633,4,2,1,77,1,0
74559,-125,4,2,1,50,0,0
77449,-125,4,2,1,20,0,0
78137,-125,4,2,1,50,0,0
84468,-125,4,2,1,40,0,0
93256,550.45871559633,4,2,1,70,1,0
106466,-100,4,2,1,30,0,0
106879,-100,4,2,1,70,0,0
110870,-100,4,2,1,50,0,0
118871,550.45871559633,4,2,1,65,1,0
119146,-100,4,2,1,70,0,0
119421,-100,4,2,1,80,0,0
119696,550.45871559633,4,2,1,70,1,0
121347,-100,4,2,1,60,0,0
126301,-100,4,2,1,30,0,0
128473,550.45871559633,4,2,1,70,1,0
132876,-100,4,2,1,50,0,0
137280,-100,4,2,1,70,0,0
141683,-100,4,2,1,30,0,0
142096,-100,4,2,1,70,0,0
146087,-100,4,2,1,50,0,0
146490,550.45871559633,4,2,1,50,1,0
147178,550.45871559633,4,2,1,50,1,0
148278,550.45871559633,4,2,1,50,1,0
154608,-100,4,2,1,20,0,0
155170,550.45871559633,4,2,1,70,1,0
157096,550.45871559633,4,2,1,70,1,0
161500,-100,4,2,1,30,0,0
163687,550.45871559633,4,2,1,60,1,0
163962,-111.111111111111,4,2,1,60,0,0
164787,-111.111111111111,4,2,1,77,0,0
164856,-111.111111111111,4,2,1,60,0,0
166989,-111.111111111111,4,2,1,77,0,0
167058,-111.111111111111,4,2,1,60,0,0
169191,-111.111111111111,4,2,1,77,0,0
169260,-111.111111111111,4,2,1,60,0,0
171393,-111.111111111111,4,2,1,77,0,0
171462,-111.111111111111,4,2,1,60,0,0
172494,-111.111111111111,4,2,1,40,0,0
173595,-111.111111111111,4,2,1,77,0,0
173664,-111.111111111111,4,2,1,60,0,0
175246,-111.111111111111,4,2,1,40,0,0
175804,-111.111111111111,4,2,1,77,0,0
175873,-111.111111111111,4,2,1,60,0,0
177998,-111.111111111111,4,2,1,77,0,0
178067,-111.111111111111,4,2,1,60,0,0
180200,-111.111111111111,4,2,1,77,0,0
180269,-111.111111111111,4,2,1,60,0,0
185705,-111.111111111111,4,2,1,30,0,0
190109,-100,4,2,1,70,0,0

[Colours]
Combo1 : 253,255,202
Combo2 : 255,155,45

[HitObjects]
256,192,20595,12,0,22522,2:0:0:0:
0,41,22797,6,0,P|56:65|150:75,1,126.5,4|0,3:2|2:0,2:0:0:0:
193,36,23210,2,0,P|262:52|332:84,1,126.5,0|0,3:0|2:0,2:0:0:0:
394,29,23623,2,0,P|395:75|389:106,1,63.25,8|0,2:0|2:0,2:0:0:0:
457,155,23898,2,0,P|468:195|523:288,2,126.5,0|0|8,2:0|3:0|2:0,2:0:0:0:
374,166,24586,1,0,2:0:0:0:
344,249,24723,2,0,P|393:269|424:272,1,63.25,2|2,3:2|3:2,2:0:0:0:
297,328,24999,5,2,3:2:0:0:
297,328,25136,2,0,P|204:352|159:358,1,126.5,2|0,2:0|3:0,2:0:0:0:
82,366,25549,1,2,3:2:0:0:
0,381,25687,1,2,2:0:0:0:
88,352,25824,2,0,P|92:311|91:274,1,63.25,10|2,2:0|2:0,2:0:0:0:
14,261,26100,2,0,P|80:250|130:191,1,126.5,2|2,2:0|3:2,2:0:0:0:
192,140,26512,1,2,2:0:0:0:
192,140,26650,2,0,P|126:129|76:70,1,126.5,10|2,2:0|3:2,2:0:0:0:
226,64,27063,1,2,2:0:0:0:
279,134,27201,6,0,P|286:174|284:212,1,63.25,2|0,3:2|2:0,2:0:0:0:
372,219,27476,2,0,P|365:259|367:297,1,63.25,2|2,2:0|3:2,2:0:0:0:
290,325,27751,2,0,P|336:374|419:378,1,126.5,2|10,2:0|2:0,2:0:0:0:
392,384,28439,1,2,2:0:0:0:
392,384,28577,2,0,P|344:376|311:378,1,63.25,2|2,3:2|2:0,2:0:0:0:
285,311,28852,2,0,P|243:284|212:273,1,63.25,10|0,2:0|2:0,2:0:0:0:
221,200,29127,2,0,P|195:158|172:134,1,63.25,2|2,3:2|3:2,2:0:0:0:
265,76,29402,5,2,3:2:0:0:
332,133,29540,1,2,2:0:0:0:
415,111,29678,2,0,P|450:102|487:90,1,63.25,2|0,2:0|3:0,2:0:0:0:
386,35,29953,2,0,P|347:22|321:14,1,63.25,2|0,3:2|2:0,2:0:0:0:
254,79,30228,2,0,P|189:56|128:45,2,126.5,10|8|8,2:0|1:0|1:0,2:0:0:0:
368,228,31054,1,10,1:2:0:0:
251,378,31329,1,2,2:0:0:0:
58,301,31604,6,0,P|56:264|67:189,1,94.875,4|0,3:2|2:0,2:0:0:0:
62,206,31879,2,0,P|58:158|50:135,1,63.25,8|0,1:0|3:0,2:0:0:0:
140,143,32155,2,0,P|135:94|127:71,1,63.25,8|0,1:0|2:0,2:0:0:0:
223,90,32430,2,0,P|224:43|217:12,1,63.25,8|0,1:0|2:0,2:0:0:0:
312,43,32705,1,8,1:0:0:0:
489,156,32980,1,8,3:1:0:0:
289,218,33256,1,8,1:0:0:0:
453,307,33531,2,0,P|491:323|520:331,1,63.25,2|2,3:2|3:2,2:0:0:0:
389,359,33806,5,2,3:2:0:0:
389,359,33944,2,0,P|323:380|250:384,1,126.5,2|0,2:0|3:0,2:0:0:0:
185,326,34356,2,0,P|251:305|324:301,2,126.5,2|10|2,3:2|1:0|2:0,2:0:0:0:
0,179,35182,1,2,3:2:0:0:
70,212,35320,1,2,3:2:0:0:
137,169,35457,2,0,P|146:138|145:106,1,63.25,10|0,2:0|2:0,2:0:0:0:
225,34,35733,5,2,3:2:0:0:
295,1,35870,1,2,3:2:0:0:
362,44,36008,2,0,P|371:75|370:107,1,63.25,2|0,3:2|2:0,2:0:0:0:
494,105,36283,2,0,P|459:79|444:43,1,63.25,2|2,2:0|3:2,2:0:0:0:
381,185,36558,2,0,P|431:170|456:170,1,63.25,2|0,2:0|2:0,2:0:0:0:
512,234,36834,6,0,P|463:253|321:261,1,189.75,10|0,2:0|3:1,2:0:0:0:
245,276,37384,2,0,P|245:320|257:357,1,63.25,2|2,3:2|2:0,2:0:0:0:
163,384,37659,2,0,P|157:353|158:321,1,63.25,8|0,2:0|3:0,2:0:0:0:
83,283,37934,2,0,P|98:249|119:221,1,63.25,2|2,2:0|2:0,2:0:0:0:
188,139,38210,5,10,3:1:0:0:
269,164,38347,1,0,2:0:0:0:
345,118,38485,2,0,P|383:102|417:88,1,63.25,10|2,1:0|3:2,2:0:0:0:
492,65,38760,2,0,P|457:91|446:182,1,126.5,10|10,1:0|1:0,2:0:0:0:
512,351,39311,6,0,L|403:366,1,84.3333333333334,8|8,3:0|3:0,2:0:0:0:
321,307,39678,1,8,3:0:0:0:
196,367,39861,6,0,L|87:382,1,84.3333333333334,8|8,3:0|3:0,2:0:0:0:
5,323,40228,1,8,3:0:0:0:
86,232,40412,5,4,3:2:0:0:
86,232,42063,1,10,2:0:0:0:
227,148,42338,2,0,P|223:186|224:212,1,46.7500000000002,2|2,2:0|2:0,2:0:0:0:
296,225,42613,2,0,P|307:185|302:113,2,93.5000000000003,2|2|2,2:0|2:0|2:0,2:0:0:0:
301,373,43439,2,0,P|341:380|386:382,1,70.1250000000003,2|0,2:0|3:0,2:0:0:0:
370,381,43714,2,0,L|475:355,1,93.5000000000003,2|2,3:2|3:2,2:0:0:0:
486,184,44265,2,0,L|389:211,1,93.5000000000003,2|2,3:2|2:0,2:0:0:0:
226,168,44830,6,0,P|306:136|340:34,1,187.000000000001,4|2,3:2|2:0,2:0:0:0:
190,17,45655,2,0,L|129:27,1,46.7500000000002,2|2,2:0|2:0,2:0:0:0:
79,89,45930,2,0,L|192:112,2,93.5000000000003,2|2|10,2:0|2:0|2:0,2:0:0:0:
0,227,46756,1,2,2:0:0:0:
82,362,47031,2,0,L|194:339,2,93.5000000000003,2|2|2,2:0|2:0|2:0,2:0:0:0:
4,234,47857,2,0,P|8:205|11:169,1,46.7500000000002,2|2,2:0|2:0,2:0:0:0:
75,138,48132,6,0,P|85:173|94:220,2,62.3333333333335,8|8|8,3:0|3:0|3:0,2:0:0:0:
188,77,48683,6,0,P|200:113|207:159,2,62.3333333333335,8|8|8,3:0|3:0|3:0,2:0:0:0:
295,19,49233,5,4,3:2:0:0:
295,19,51160,6,0,P|346:24|353:24,1,46.7500000000002,0|0,3:0|3:0,2:0:0:0:
427,26,51430,2,0,P|389:49|354:142,1,121,4|2,3:2|2:0,2:0:0:0:
432,148,51842,1,2,3:2:0:0:
432,148,51980,2,0,L|501:141,1,60.5,2|0,3:2|2:0,2:0:0:0:
461,229,52255,2,0,L|384:220,1,60.5,10|0,1:0|2:0,2:0:0:0:
316,288,52530,6,0,L|335:362,1,60.5,2|0,2:0|2:0,2:0:0:0:
210,384,52806,2,0,L|234:246,1,121,2|10,3:2|2:0,2:0:0:0:
315,85,53356,1,0,3:0:0:0:
127,23,53631,2,0,L|8:48,1,121,2|2,3:2|2:0,2:0:0:0:
56,119,54044,1,2,3:2:0:0:
56,119,54182,2,0,L|118:136,1,60.5,10|0,1:0|2:0,2:0:0:0:
84,207,54457,2,0,L|146:224,1,60.5,10|0,1:0|2:0,2:0:0:0:
230,153,54732,6,0,P|244:97|240:71,1,60.5,2|0,2:0|3:0,2:0:0:0:
317,18,55007,2,0,P|332:58|392:124,1,121,2|10,3:2|2:0,2:0:0:0:
512,285,55558,1,0,2:0:0:0:
334,384,55833,1,2,3:2:0:0:
273,334,55971,1,2,2:0:0:0:
203,372,56108,2,0,P|159:362|77:353,2,121,2|10|10,2:0|1:0|1:0,2:0:0:0:
273,325,56796,1,2,2:0:0:0:
209,249,56934,6,0,L|108:263,1,80.6666666666667,8|8,3:0|3:0,2:0:0:0:
39,173,57301,1,8,3:0:0:0:
117,75,57485,6,0,L|218:89,1,80.6666666666667,8|8,3:0|3:0,2:0:0:0:
294,175,57852,1,8,3:0:0:0:
379,63,58035,6,0,P|424:38|524:48,1,126.5,4|0,3:2|2:0,2:0:0:0:
512,117,58448,2,0,P|467:142|367:132,1,126.5,0|0,3:0|2:0,2:0:0:0:
312,103,58861,2,0,P|300:55|298:34,1,63.25,8|0,2:0|2:0,2:0:0:0:
221,17,59136,2,0,P|157:42|95:48,2,126.5,0|0|8,2:0|3:0|2:0,2:0:0:0:
231,101,59824,1,0,2:0:0:0:
209,177,59962,2,0,P|203:208|193:246,1,63.25,2|2,3:2|3:2,2:0:0:0:
121,307,60237,5,2,3:2:0:0:
121,307,60374,2,0,P|108:259|102:166,1,126.5,2|0,2:0|3:0,2:0:0:0:
25,150,60787,1,2,3:2:0:0:
108,175,60925,1,2,2:0:0:0:
18,134,61063,2,0,P|24:92|32:65,1,63.25,10|2,2:0|2:0,2:0:0:0:
104,15,61338,2,0,P|154:37|233:47,1,126.5,2|2,2:0|3:2,2:0:0:0:
324,96,61751,1,2,2:0:0:0:
324,96,61888,2,0,P|274:118|193:131,1,126.5,10|2,2:0|3:2,2:0:0:0:
304,190,62301,1,2,2:0:0:0:
386,210,62439,6,0,L|460:222,1,63.25,2|0,3:2|2:0,2:0:0:0:
506,286,62714,2,0,L|432:303,1,63.25,2|2,2:0|3:2,2:0:0:0:
403,373,62989,2,0,P|325:346|260:342,1,126.5,2|10,2:0|2:0,2:0:0:0:
281,341,63677,1,2,2:0:0:0:
281,341,63815,2,0,P|286:303|293:274,1,63.25,2|2,3:2|2:0,2:0:0:0:
371,267,64090,2,0,P|380:228|392:192,1,63.25,10|0,2:0|2:0,2:0:0:0:
469,199,64365,2,0,P|478:164|491:133,1,63.25,2|2,3:2|3:2,2:0:0:0:
430,55,64641,5,2,3:2:0:0:
362,97,64778,1,2,2:0:0:0:
294,54,64916,2,0,P|257:37|214:29,1,63.25,2|0,2:0|3:0,2:0:0:0:
156,30,65191,2,0,P|165:72|249:120,2,126.5,2|10|8,3:2|2:0|3:0,2:0:0:0:
54,123,65925,6,0,L|39:208,1,84.3333333333334,8|8,3:0|3:0,2:0:0:0:
181,224,66292,6,0,L|166:309,1,84.3333333333334,8|8,3:0|3:0,2:0:0:0:
51,367,66659,1,8,3:0:0:0:
197,377,66842,6,0,P|260:366|317:358,1,94.875,4|0,3:2|2:0,2:0:0:0:
290,361,67118,2,0,P|329:368|356:368,1,63.25,8|0,1:0|3:0,2:0:0:0:
357,274,67393,2,0,P|398:288|429:290,1,63.25,8|0,1:0|2:0,2:0:0:0:
432,200,67668,2,0,P|476:212|520:212,1,63.25,8|0,1:0|2:0,2:0:0:0:
512,110,67943,1,8,1:0:0:0:
354,37,68218,1,8,3:1:0:0:
189,107,68494,1,8,1:0:0:0:
21,27,68769,2,0,P|9:57|1:95,1,63.25,2|2,3:2|3:2,2:0:0:0:
67,151,69044,5,2,3:2:0:0:
67,151,69182,2,0,P|98:87|105:31,1,126.5,2|0,2:0|3:0,2:0:0:0:
177,115,69595,2,0,P|186:177|215:233,2,126.5,2|10|2,3:2|1:0|2:0,2:0:0:0:
349,16,70420,5,2,3:2:0:0:
410,81,70558,1,2,3:2:0:0:
482,39,70696,2,0,P|501:65|514:101,1,63.25,10|0,2:0|2:0,2:0:0:0:
481,191,70971,5,2,3:2:0:0:
406,240,71108,1,2,3:2:0:0:
338,184,71257,1,0,2:0:0:0:
256,192,71394,12,2,73458,2:0:0:0:
180,62,74559,6,0,L|166:130,2,58.6666666666667,8|8|8,3:0|3:0|3:0,2:0:0:0:
337,51,75110,6,0,L|351:119,2,58.6666666666667,8|8|8,3:0|3:0|3:0,2:0:0:0:
266,169,75660,6,0,L|286:369,1,176,4|2,3:2|2:0,2:0:0:0:
283,344,77036,1,0,3:0:0:0:
283,344,77174,2,0,P|320:333|342:329,2,44,2|2|2,2:0|2:0|2:0,2:0:0:0:
283,344,78137,6,0,P|246:333|224:329,1,44,2|2,2:0|2:0,2:0:0:0:
202,248,78412,2,0,P|252:257|309:255,1,88,2|2,2:0|2:0,2:0:0:0:
346,199,78825,2,0,P|269:172|210:167,1,132,2|0,2:0|3:0,2:0:0:0:
191,94,79376,1,0,3:0:0:0:
191,94,79513,2,0,P|203:58|205:32,2,44,10|2|2,2:0|2:0|2:0,2:0:0:0:
12,58,80064,6,0,P|16:36|24:16,2,44,2|2|2,3:2|2:0|2:0,2:0:0:0:
83,109,80477,1,2,2:0:0:0:
83,109,80614,2,0,P|100:146|112:205,1,88,2|2,2:0|2:0,2:0:0:0:
30,195,81027,2,0,P|40:259|75:315,1,132,2|0,2:0|3:0,2:0:0:0:
138,266,81578,1,2,2:0:0:0:
138,266,81715,2,0,L|192:255,2,44,10|2|2,2:0|2:0|2:0,2:0:0:0:
313,358,82266,6,0,L|399:374,1,88,2|2,3:2|2:0,2:0:0:0:
433,306,82679,1,2,2:0:0:0:
433,306,82816,2,0,P|469:264|473:223,1,88,2|10,2:0|2:0,2:0:0:0:
420,173,83229,1,2,2:0:0:0:
423,177,83367,6,0,L|435:107,2,58.6666666666667,8|8|8,3:0|3:0|3:0,2:0:0:0:
329,280,83917,6,0,L|336:345,2,58.6666666666667,8|8|8,3:0|3:0|3:0,2:0:0:0:
201,209,84468,6,0,P|203:173|238:118,3,88,8|8|8|8,1:0|1:0|1:0|1:0,2:0:0:0:
306,157,85431,1,8,1:0:0:0:
306,157,85568,2,0,P|304:193|269:248,7,88,8|8|8|8|8|8|8|8,1:0|1:0|1:0|1:0|1:0|1:0|1:0|1:0,2:0:0:0:
205,185,87633,1,8,1:0:0:0:
208,178,87770,2,0,P|214:160|223:145,14,22,8|0|0|0|8|0|0|0|8|0|0|0|8|0|0,1:0|3:0|3:0|3:0|1:0|3:0|3:0|3:0|1:0|3:0|3:0|3:0|1:0|3:0|3:0,2:0:0:0:
306,157,88871,2,0,P|304:193|269:248,3,88,8|8|8|8,1:0|1:0|1:0|1:0,2:0:0:0:
205,208,89834,1,8,1:0:0:0:
205,208,89972,2,0,P|207:172|242:117,4,88,8|8|8|8|8,1:0|1:0|1:0|1:0|1:0,2:0:0:0:
205,208,93256,6,0,P|243:218|333:221,2,110,4|0|0,3:2|2:0|3:0,2:0:0:0:
52,342,94081,1,0,2:0:0:0:
52,342,94219,1,0,3:0:0:0:
52,342,94356,2,0,P|4:356|-23:358,1,55,8|0,2:0|2:0,2:0:0:0:
130,303,94632,5,2,2:0:0:0:
183,365,94769,1,2,2:0:0:0:
252,318,94907,2,0,P|302:320|330:323,1,55,2|0,2:0|3:0,2:0:0:0:
372,267,95182,2,0,P|405:247|441:230,1,55,2|0,2:0|2:0,2:0:0:0:
429,153,95457,6,0,P|438:97|459:46,1,110,0|0,3:2|2:0,2:0:0:0:
358,54,95870,1,0,2:0:0:0:
358,54,96008,2,0,P|349:110|328:161,1,110,0|0,3:0|2:0,2:0:0:0:
253,174,96421,1,0,3:0:0:0:
182,112,96558,2,0,P|192:79|211:48,1,55,8|0,2:0|2:0,2:0:0:0:
97,39,96833,6,0,L|32:54,1,55,2|2,2:0|2:0,2:0:0:0:
0,125,97109,2,0,L|65:140,1,55,2|0,2:0|3:0,2:0:0:0:
89,212,97384,2,0,L|158:198,1,55,2|0,2:0|2:0,2:0:0:0:
210,272,97659,6,0,P|225:327|213:399,2,110,4|0|0,3:2|2:0|3:0,2:0:0:0:
83,132,98485,1,0,2:0:0:0:
83,132,98622,1,0,3:0:0:0:
83,132,98760,2,0,P|75:96|74:71,1,55,8|0,2:0|2:0,2:0:0:0:
173,25,99035,5,2,2:0:0:0:
238,72,99173,1,2,2:0:0:0:
303,27,99311,2,0,L|366:16,1,55,2|0,2:0|3:0,2:0:0:0:
409,81,99586,2,0,L|484:68,1,55,2|0,2:0|2:0,2:0:0:0:
368,154,99861,6,0,P|330:185|315:247,1,110,0|0,3:2|2:0,2:0:0:0:
393,278,100274,1,0,2:0:0:0:
393,278,100411,2,0,L|508:253,1,110,0|0,3:0|2:0,2:0:0:0:
506,335,100824,1,0,3:0:0:0:
422,378,100962,2,0,L|362:368,1,55,8|0,2:0|2:0,2:0:0:0:
287,299,101237,6,0,P|294:265|304:239,1,55,2|2,2:0|2:0,2:0:0:0:
233,204,101512,2,0,P|248:147|256:134,1,55,2|0,2:0|3:0,2:0:0:0:
173,118,101788,2,0,P|184:81|201:53,1,55,2|0,2:0|2:0,2:0:0:0:
291,23,102063,5,4,3:2:0:0:
380,19,102200,1,2,2:0:0:0:
389,102,102338,2,0,L|503:71,1,110,2|2,2:0|3:2,2:0:0:0:
493,153,102751,1,2,2:0:0:0:
430,216,102889,2,0,P|394:213|360:201,1,55,2|2,2:0|3:2,2:0:0:0:
284,245,103164,2,0,P|339:278|356:328,1,110,10|2,2:0|3:2,2:0:0:0:
299,373,103577,1,2,2:0:0:0:
204,347,103714,1,2,2:0:0:0:
204,347,103852,1,2,3:2:0:0:
204,347,103989,2,0,L|93:371,1,110,2|2,2:0|3:2,2:0:0:0:
36,293,104402,5,2,2:0:0:0:
104,236,104540,1,2,2:0:0:0:
104,236,104678,1,2,2:0:0:0:
104,236,104815,2,0,L|171:246,1,55,2|2,3:2|2:0,2:0:0:0:
242,178,105090,2,0,L|169:163,1,55,2|2,2:0|3:2,2:0:0:0:
151,72,105366,5,10,2:0:0:0:
216,30,105503,1,2,2:0:0:0:
284,65,105641,2,0,L|308:129,1,55,2|2,3:2|2:0,2:0:0:0:
335,213,105916,1,2,2:0:0:0:
414,264,106054,1,0,3:1:0:0:
485,203,106191,2,0,L|508:96,1,110,2|2,2:0|2:0,2:0:0:0:
508,95,106879,5,0,3:0:0:0:
451,41,107017,2,0,P|395:11|330:18,1,110,6|2,3:2|2:0,2:0:0:0:
319,84,107430,1,2,3:2:0:0:
232,65,107567,2,0,L|222:6,2,55,10|2|2,2:0|2:0|3:2,2:0:0:0:
164,130,107980,2,0,L|151:253,1,110,0|0,2:0|3:0,2:0:0:0:
86,283,108393,2,0,P|55:294|25:297,1,55,2|2,2:0|2:0,2:0:0:0:
153,349,108668,6,0,P|193:362|223:365,1,55,2|2,3:2|2:0,2:0:0:0:
295,358,108944,2,0,P|271:310|198:291,2,110,2|2|2,2:0|3:2|2:0,2:0:0:0:
369,378,109632,1,2,3:2:0:0:
439,321,109769,2,0,L|451:258,1,55,10|2,2:0|2:0,2:0:0:0:
462,187,110044,1,2,3:2:0:0:
378,131,110182,2,0,L|357:21,1,110,0|0,2:0|3:0,2:0:0:0:
283,53,110595,1,0,2:0:0:0:
160,150,110870,6,0,P|94:172|-12:177,1,165,0|0,3:0|3:0,2:0:0:0:
0,178,111696,2,0,P|52:224|109:313,1,165,0|0,3:0|3:0,2:0:0:0:
104,303,112522,2,0,P|117:234|166:140,1,165,0|0,3:0|3:0,2:0:0:0:
160,149,113347,2,0,P|227:195|281:258,1,165,0|0,3:0|3:0,2:0:0:0:
281,258,114035,2,0,P|306:228|318:199,1,55,0|8,2:0|2:0,2:0:0:0:
366,158,114311,2,0,P|401:178|476:194,1,110,0|0,2:0|2:0,2:0:0:0:
463,112,114723,2,0,P|428:92|353:76,1,110,0|0,3:0|3:0,2:0:0:0:
295,33,115136,1,0,3:0:0:0:
295,33,115274,6,0,P|268:86|263:199,1,165,0|0,3:0|3:0,2:0:0:0:
400,265,115962,1,0,3:0:0:0:
400,265,116100,2,0,P|477:281|529:280,2,110,0|8|0,3:0|2:0|3:0,2:0:0:0:
293,361,116925,1,0,3:0:0:0:
293,361,117063,2,0,P|236:377|172:385,1,110,0|0,3:0|2:0,2:0:0:0:
110,370,117476,2,0,P|101:306|138:26,1,330,0|0,3:0|3:0,2:0:0:0:
299,15,118577,1,8,2:0:0:0:
299,15,118714,1,2,2:0:0:0:
247,75,118871,6,0,P|219:85|184:90,1,55,2|0,2:0|2:0,2:0:0:0:
144,157,119146,2,0,P|102:163|70:163,1,55,2|0,2:0|3:0,2:0:0:0:
0,227,119421,2,0,P|43:246|98:257,1,82.5,2|0,2:0|2:0,2:0:0:0:
77,254,119696,6,0,L|92:371,1,110,4|2,3:2|2:0,2:0:0:0:
169,380,120108,1,2,2:0:0:0:
243,315,120246,2,0,L|223:197,1,110,2|2,3:2|2:0,2:0:0:0:
148,165,120659,1,0,3:0:0:0:
148,165,120796,2,0,L|168:44,1,110,10|2,2:0|3:2,2:0:0:0:
96,17,121209,1,2,2:0:0:0:
96,17,121347,2,0,L|33:29,1,55,2|0,2:0|3:0,2:0:0:0:
172,64,121622,2,0,P|250:49|278:11,1,110,2|2,2:0|2:0,2:0:0:0:
429,89,122173,5,2,2:0:0:0:
503,215,122448,2,0,P|440:228|383:245,1,110,2|2,3:2|2:0,2:0:0:0:
330,294,122861,2,0,P|309:258|306:229,2,55,2|10|2,3:2|2:0|2:0,2:0:0:0:
233,343,123273,2,0,P|230:310|235:274,1,55,2|2,3:2|2:0,2:0:0:0:
147,335,123549,2,0,L|27:358,2,110,2|2|6,2:0|2:0|3:2,2:0:0:0:
343,377,124374,6,0,L|416:387,1,55,2|2,2:0|2:0,2:0:0:0:
496,355,124650,2,0,P|447:326|429:260,1,110,2|2,3:2|2:0,2:0:0:0:
453,107,125200,1,10,2:0:0:0:
298,20,125475,2,0,L|235:32,1,55,2|2,3:2|2:0,2:0:0:0:
156,81,125751,2,0,P|222:109|245:153,2,110,2|2|2,2:0|2:0|2:0,2:0:0:0:
156,81,128473,6,0,L|377:60,1,220,4|0,3:2|3:0,2:0:0:0:
387,262,129298,1,2,2:0:0:0:
387,262,129436,1,2,3:2:0:0:
387,262,129573,2,0,P|391:310|402:340,1,55,10|0,2:0|2:0,2:0:0:0:
307,365,129849,2,0,P|307:298|265:200,1,165,2|2,2:0|3:2,2:0:0:0:
192,211,130399,2,0,L|130:228,1,55,2|2,2:0|2:0,2:0:0:0:
245,283,130674,6,0,L|315:292,1,55,2|2,3:2|2:0,2:0:0:0:
388,333,130950,1,2,2:0:0:0:
388,333,131087,1,2,2:0:0:0:
388,333,131225,2,0,L|453:321,1,55,2|2,3:2|2:0,2:0:0:0:
507,239,131500,1,2,2:0:0:0:
435,201,131638,1,2,3:2:0:0:
484,131,131775,2,0,L|496:35,1,82.5,10|0,2:0|2:0,2:0:0:0:
494,49,132050,2,0,P|457:59|441:66,1,55,2|0,2:0|2:0,2:0:0:0:
360,129,132326,2,0,P|369:88|330:21,2,110,0|0|0,2:0|2:0|2:0,2:0:0:0:
360,129,133427,5,0,2:0:0:0:
360,129,133977,1,10,2:0:0:0:
189,227,134252,2,0,P|191:262|204:295,1,55,2|0,2:0|2:0,2:0:0:0:
275,301,134528,2,0,P|276:246|262:193,1,110,0|0,2:0|2:0,2:0:0:0:
262,193,137280,6,0,P|210:206|141:218,1,110,4|2,3:2|2:0,2:0:0:0:
85,184,137693,1,2,2:0:0:0:
56,259,137830,2,0,P|55:296|67:337,1,55,2|0,3:2|2:0,2:0:0:0:
123,368,138106,2,0,P|142:329|214:296,1,110,2|10,2:0|2:0,2:0:0:0:
369,379,138656,1,2,3:2:0:0:
498,250,138931,2,0,P|499:212|492:160,1,82.5,2|0,2:0|2:0,2:0:0:0:
493,167,139206,2,0,L|506:108,1,55,2|2,2:0|2:0,2:0:0:0:
410,232,139482,5,2,3:2:0:0:
360,169,139619,1,2,2:0:0:0:
288,201,139757,2,0,L|217:187,1,55,2|2,2:0|2:0,2:0:0:0:
175,137,140032,2,0,L|110:150,1,55,2|0,3:2|2:0,2:0:0:0:
67,203,140307,2,0,P|30:195|7:124,2,110,2|10|2,2:0|2:0|3:2,2:0:0:0:
136,243,140995,1,2,2:0:0:0:
69,306,141133,2,0,L|12:328,1,55,2|0,2:0|3:0,2:0:0:0:
134,363,141408,2,0,L|245:384,1,110,2|2,2:0|2:0,2:0:0:0:
242,383,142096,5,0,3:0:0:0:
303,327,142234,2,0,P|299:287|301:256,1,55,6|0,3:2|2:0,2:0:0:0:
229,230,142509,2,0,P|236:191|241:106,1,110,2|10,2:0|2:0,2:0:0:0:
87,33,143060,1,2,3:2:0:0:
5,19,143197,1,2,2:0:0:0:
97,28,143335,2,0,P|132:22|157:16,1,55,2|0,2:0|3:0,2:0:0:0:
120,106,143610,2,0,P|155:100|180:94,1,55,2|0,2:0|2:0,2:0:0:0:
250,42,143885,6,0,P|291:60|316:123,1,110,2|2,3:2|2:0,2:0:0:0:
252,165,144298,1,2,2:0:0:0:
336,205,144436,2,0,L|389:215,1,55,2|0,2:0|2:0,2:0:0:0:
488,270,144711,2,0,L|370:299,1,110,2|10,2:0|2:0,2:0:0:0:
163,379,145261,5,0,3:0:0:0:
220,329,145399,1,2,2:0:0:0:
151,305,145537,1,2,2:0:0:0:
274,125,145812,1,2,2:0:0:0:
203,69,145950,1,2,2:0:0:0:
272,17,146087,1,0,3:0:0:0:
272,17,146490,6,0,P|361:42|455:46,1,165,0|0,3:0|3:0,2:0:0:0:
433,47,147315,2,0,P|408:136|404:230,1,165,0|0,3:0|3:0,2:0:0:0:
402,208,148141,2,0,P|313:183|219:179,1,165,0|0,3:0|3:0,2:0:0:0:
240,177,148967,2,0,P|215:266|211:360,1,165,0|8,3:0|2:0,2:0:0:0:
209,338,149655,2,0,P|257:348|288:349,1,55,0|0,2:0|2:0,2:0:0:0:
321,299,149930,2,0,P|359:338|408:365,1,110,0|0,3:0|3:0,2:0:0:0:
486,384,150343,1,0,3:0:0:0:
486,384,150480,6,0,P|490:337|448:229,1,165,0|0,3:0|3:0,2:0:0:0:
386,53,151168,1,0,3:0:0:0:
386,53,151306,2,0,P|436:39|492:9,1,110,0|8,3:0|2:0,2:0:0:0:
326,157,151856,2,0,P|275:179|216:192,1,110,0|0,3:0|3:0,2:0:0:0:
155,229,152269,1,0,3:0:0:0:
0,370,152682,2,0,P|76:353|339:345,1,330,0|0,3:0|3:0,2:0:0:0:
491,235,153783,1,8,2:0:0:0:
340,130,154058,2,0,P|273:137|224:136,1,110,2|2,2:0|2:0,2:0:0:0:
176,78,154471,2,0,L|199:8,1,55,2|2,2:0|2:0,2:0:0:0:
193,25,155170,6,0,P|267:41|317:46,2,110,2|2|2,3:2|3:2|2:0,2:0:0:0:
121,55,155858,1,0,3:0:0:0:
161,132,155995,2,0,P|173:164|176:194,1,55,10|0,2:0|2:0,2:0:0:0:
95,217,156270,2,0,P|90:249|77:278,1,55,2|0,3:2|2:0,2:0:0:0:
95,366,156546,2,0,P|135:341|165:283,1,110,2|2,2:0|2:0,2:0:0:0:
240,270,156958,1,2,2:0:0:0:
311,336,157096,6,0,L|387:346,1,55,2|2,3:2|2:0,2:0:0:0:
422,271,157371,1,2,2:0:0:0:
494,306,157509,1,2,2:0:0:0:
490,228,157647,2,0,P|483:193|483:157,1,55,2|0,3:2|2:0,2:0:0:0:
404,151,157922,2,0,P|423:92|462:36,2,110,2|10|2,2:0|2:0|3:2,2:0:0:0:
337,210,158610,1,2,2:0:0:0:
247,192,158747,2,0,P|223:145|169:93,2,110,2|2|2,2:0|2:0|3:2,2:0:0:0:
24,304,159573,6,0,L|138:279,1,110,2|2,2:0|3:2,2:0:0:0:
190,233,159986,1,2,2:0:0:0:
213,311,160124,2,0,P|210:343|199:368,1,55,2|0,2:0|3:0,2:0:0:0:
299,331,160399,2,0,P|321:281|332:202,2,110,8|2|2,2:0|3:2|2:0,2:0:0:0:
365,369,161087,2,0,L|431:381,1,55,2|2,3:2|2:0,2:0:0:0:
512,170,161500,1,2,2:0:0:0:
512,170,163687,5,2,3:2:0:0:
356,89,163962,2,0,L|367:32,1,49.5000000000001,2|2,2:0|2:0,2:0:0:0:
254,23,164237,2,0,L|276:130,1,99.0000000000001,2|2,3:2|2:0,2:0:0:0:
298,197,164650,1,0,3:0:0:0:
205,163,164787,2,0,P|161:142|112:138,1,99.0000000000001,8|2,2:0|3:2,2:0:0:0:
44,179,165200,2,0,P|30:148|29:115,2,49.5000000000001,2|2|2,2:0|2:0|3:2,2:0:0:0:
111,215,165613,1,2,2:0:0:0:
0,358,165888,6,0,P|44:379|93:383,1,99.0000000000001,2|2,3:2|2:0,2:0:0:0:
172,382,166301,1,2,2:0:0:0:
172,382,166439,2,0,L|157:280,1,99.0000000000001,2|2,3:2|2:0,2:0:0:0:
133,212,166852,1,0,3:0:0:0:
235,262,166989,2,0,P|279:281|343:287,2,99.0000000000001,8|2|2,2:0|3:2|2:0,2:0:0:0:
164,106,167815,1,2,2:0:0:0:
317,12,168090,5,2,3:2:0:0:
488,81,168365,2,0,P|497:118|500:144,1,49.5000000000001,2|2,2:0|2:0,2:0:0:0:
407,73,168641,2,0,P|410:119|432:185,1,99.0000000000001,2|2,3:2|2:0,2:0:0:0:
493,206,169053,1,0,3:0:0:0:
394,243,169191,2,0,L|325:260,1,49.5000000000001,8|0,2:0|2:0,2:0:0:0:
272,219,169466,5,2,3:2:0:0:
272,219,169604,1,2,2:0:0:0:
194,283,169742,2,0,P|195:317|200:348,1,49.5000000000001,2|2,2:0|3:2,2:0:0:0:
137,384,170017,1,2,2:0:0:0:
137,384,170154,1,2,2:0:0:0:
51,316,170292,2,0,P|52:282|57:251,1,49.5000000000001,2|2,3:2|2:0,2:0:0:0:
123,212,170567,2,0,P|119:161|96:111,2,99.0000000000001,2|2|2,2:0|3:2|2:0,2:0:0:0:
136,286,171255,1,0,3:0:0:0:
216,236,171393,6,0,L|328:211,1,99.0000000000001,8|2,2:0|3:2,2:0:0:0:
394,202,171806,1,2,2:0:0:0:
394,202,171943,2,0,P|388:160|378:140,1,49.5000000000001,2|0,2:0|3:0,2:0:0:0:
463,135,172219,2,0,P|456:94|442:72,1,49.5000000000001,2|0,2:0|2:0,2:0:0:0:
499,24,172494,1,0,2:0:0:0:
499,24,173044,1,2,3:2:0:0:
499,24,173457,1,0,3:0:0:0:
408,61,173595,6,0,P|367:66|298:76,1,99.0000000000001,8|2,2:0|3:2,2:0:0:0:
222,48,174008,1,2,2:0:0:0:
181,115,174145,1,2,2:0:0:0:
115,66,174283,2,0,P|102:35|97:15,1,49.5000000000001,2|2,3:2|2:0,2:0:0:0:
36,100,174558,2,0,P|36:140|43:172,1,49.5000000000001,2|2,2:0|3:0,2:0:0:0:
37,149,175246,1,2,3:2:0:0:
37,149,175659,1,0,3:0:0:0:
128,173,175797,6,0,L|232:187,1,99.0000000000001,8|0,2:0|3:0,2:0:0:0:
302,197,176209,1,2,2:0:0:0:
269,119,176347,1,2,2:0:0:0:
182,264,176622,1,2,2:0:0:0:
335,351,176898,2,0,L|396:363,1,49.5000000000001,2|2,3:2|2:0,2:0:0:0:
473,314,177173,2,0,L|412:287,1,49.5000000000001,2|2,2:0|2:0,2:0:0:0:
360,233,177448,2,0,L|413:220,1,49.5000000000001,2|2,3:2|2:0,2:0:0:0:
492,201,177723,1,2,2:0:0:0:
268,182,177998,6,0,L|160:163,1,99.0000000000001,10|2,2:0|3:2,2:0:0:0:
95,138,178411,1,2,2:0:0:0:
16,117,178549,2,0,P|11:88|13:57,1,49.5000000000001,2|2,2:0|3:2,2:0:0:0:
83,7,178824,2,0,P|89:35|102:63,1,49.5000000000001,2|2,2:0|2:0,2:0:0:0:
188,64,179099,2,0,L|300:36,2,99.0000000000001,2|2|2,3:2|2:0|3:2,2:0:0:0:
49,200,179925,1,2,2:0:0:0:
187,334,180200,2,0,L|299:357,1,99.0000000000001,10|2,2:0|3:2,2:0:0:0:
370,384,180613,5,2,2:0:0:0:
370,384,180751,2,0,P|376:332|375:322,1,49.5000000000001,2|0,2:0|3:0,2:0:0:0:
326,261,181026,2,0,P|338:217|337:200,1,49.5000000000001,2|0,2:0|2:0,2:0:0:0:
249,187,181301,5,2,3:2:0:0:
248,180,185705,5,0,3:0:0:0:
256,192,189008,12,0,189833,2:0:0:0:
248,180,190109,6,0,P|301:193|377:198,2,110,4|0|0,3:2|2:0|3:0,2:0:0:0:
81,58,190934,1,0,2:0:0:0:
81,58,191072,1,0,3:0:0:0:
81,58,191209,2,0,P|39:48|15:36,1,55,8|0,2:0|2:0,2:0:0:0:
169,76,191485,5,2,2:0:0:0:
106,146,191622,1,2,2:0:0:0:
163,208,191760,2,0,P|168:248|166:286,1,55,2|0,2:0|2:0,2:0:0:0:
92,289,192035,2,0,P|86:334|76:364,1,55,2|0,2:0|2:0,2:0:0:0:
184,366,192310,6,0,L|300:386,1,110,0|0,3:2|2:0,2:0:0:0:
358,328,192723,1,0,2:0:0:0:
358,328,192861,2,0,L|252:289,1,110,0|0,3:0|2:0,2:0:0:0:
225,216,193274,1,0,3:0:0:0:
324,200,193411,2,0,L|391:192,1,55,8|0,2:0|2:0,2:0:0:0:
318,114,193686,6,0,P|327:83|324:53,1,55,2|2,2:0|2:0,2:0:0:0:
225,72,193962,2,0,P|216:35|203:16,1,55,2|0,2:0|2:0,2:0:0:0:
128,70,194237,2,0,P|104:39|36:-5,1,110,2|4,2:0|3:2,2:0:0:0:
