osu file format v14

[General]
AudioFilename: audio.mp3
AudioLeadIn: 0
PreviewTime: 2
Countdown: 0
SampleSet: Soft
StackLeniency: 0.2
Mode: 0
LetterboxInBreaks: 0
WidescreenStoryboard: 0

[Editor]
Bookmarks: 22797,40412,58035,75660,93256,110870,119662,137280,146087,154609,163687,181301,194512
DistanceSpacing: 3.5
BeatDivisor: 8
GridSize: 16
TimelineZoom: 1

[Metadata]
Title:I Ain't Got Time!
TitleUnicode:I Ain't Got Time!
Artist:Tyler, The Creator
ArtistUnicode:Tyler, The Creator
Creator:chaser01
Version:Flower Boy
Source:
Tags:resahc bluirre fsjallink flower boy rap ain aint hip hop hip-hop english
BeatmapID:3789610
BeatmapSetID:1844850

[Difficulty]
HPDrainRate:5
CircleSize:4.3
OverallDifficulty:8
ApproachRate:9.3
SliderMultiplier:3.2
SliderTickRate:1

[Events]
//Background and Video events
0,0,"baby.jpg",0,0
//Break Periods
2,181852,185151
2,185905,187907
//Storyboard Layer 0 (Background)
//Storyboard Layer 1 (Fail)
//Storyboard Layer 2 (Pass)
//Storyboard Layer 3 (Foreground)
//Storyboard Layer 4 (Overlay)
//Storyboard Sound Samples

[TimingPoints]
779,550.45871559633,4,2,1,70,1,0
22797,-83.3333333333333,4,2,1,77,0,1
34356,-133.333333333333,4,2,1,77,0,1
35182,-83.3333333333333,4,2,1,77,0,1
40412,-133.333333333333,4,2,1,77,0,0
40480,-133.333333333333,4,2,1,50,0,0
44830,550.45871559633,4,2,1,70,1,0
46206,-133.333333333333,4,2,1,70,0,0
49302,-133.333333333333,4,2,1,25,0,0
49508,-133.333333333333,4,2,1,5,0,0
50059,-133.333333333333,4,2,1,25,0,0
50334,-100,4,2,1,25,0,0
50609,-133.333333333333,4,2,1,25,0,0
51159,-133.333333333333,4,2,1,50,0,0
51430,550.45871559633,4,2,1,70,1,0
52530,-76.9230769230769,4,2,1,70,0,0
53356,-100,4,2,1,70,0,0
54732,-76.9230769230769,4,2,1,70,0,0
55558,-100,4,2,1,70,0,0
58035,-83.3333333333333,4,2,1,77,0,1
69595,-133.333333333333,4,2,1,77,0,1
70420,-83.3333333333333,4,2,1,77,0,1
71257,550.45871559633,4,2,1,50,1,0
75660,-133.333333333333,4,2,1,50,0,0
77449,-1000,4,2,1,20,0,0
78137,-1000,4,2,1,50,0,0
78412,-133.333333333333,4,2,1,50,0,0
84468,-133.333333333333,4,2,1,40,0,0
87770,-250,4,2,1,40,0,0
93256,550.45871559633,4,2,1,70,1,0
93256,-181.818181818182,4,2,1,70,0,0
94356,-86.9565217391304,4,2,1,70,0,0
94907,-181.818181818182,4,2,1,70,0,0
96558,-86.9565217391304,4,2,1,70,0,0
96833,-181.818181818182,4,2,1,70,0,0
98760,-86.9565217391304,4,2,1,70,0,0
99311,-181.818181818182,4,2,1,70,0,0
100962,-86.9565217391304,4,2,1,70,0,0
101237,-181.818181818182,4,2,1,70,0,0
102338,-153.846153846154,4,2,1,70,0,0
106466,-153.846153846154,4,2,1,30,0,0
106879,-153.846153846154,4,2,1,70,0,0
110870,-153.846153846154,4,2,1,50,0,0
111283,-142.857142857143,4,2,1,50,0,0
118871,550.45871559633,4,2,1,65,1,0
118871,-200,4,2,1,65,0,0
119146,-111.111111111111,4,2,1,70,0,0
119421,-62.5,4,2,1,80,0,0
119696,550.45871559633,4,2,1,70,1,0
120246,-133.333333333333,4,2,1,70,0,0
121347,-133.333333333333,4,2,1,60,0,0
126301,-133.333333333333,4,2,1,30,0,0
128473,550.45871559633,4,2,1,70,1,0
128473,-83.3333333333333,4,2,1,70,0,0
129298,-133.333333333333,4,2,1,70,0,0
132876,-133.333333333333,4,2,1,50,0,0
137280,-83.3333333333333,4,2,1,70,0,0
137830,-133.333333333333,4,2,1,70,0,0
141683,-133.333333333333,4,2,1,30,0,0
142096,-133.333333333333,4,2,1,70,0,0
146087,-133.333333333333,4,2,1,50,0,0
146490,550.45871559633,4,2,1,50,1,0
146490,-142.857142857143,4,2,1,50,0,0
147178,550.45871559633,4,2,1,50,1,0
147178,-142.857142857143,4,2,1,50,0,0
148278,550.45871559633,4,2,1,50,1,0
148278,-142.857142857143,4,2,1,50,0,0
154609,-1000,4,2,1,20,0,0
155022,-1000,4,2,1,70,0,0
155170,550.45871559633,4,2,1,70,1,0
155170,-133.333333333333,4,2,1,70,0,0
157096,550.45871559633,4,2,1,70,1,0
157096,-133.333333333333,4,2,1,70,0,0
161500,-133.333333333333,4,2,1,30,0,0
163014,-333.333333333333,4,2,1,30,0,0
163687,550.45871559633,4,2,1,60,1,0
163687,-222.222222222222,4,2,1,60,0,0
164787,-222.222222222222,4,2,1,77,0,0
164856,-222.222222222222,4,2,1,60,0,0
166989,-222.222222222222,4,2,1,77,0,0
167058,-222.222222222222,4,2,1,60,0,0
169191,-222.222222222222,4,2,1,77,0,0
169260,-222.222222222222,4,2,1,60,0,0
171393,-222.222222222222,4,2,1,77,0,0
171462,-222.222222222222,4,2,1,60,0,0
172494,-222.222222222222,4,2,1,40,0,0
173595,-181.818181818182,4,2,1,77,0,0
173664,-181.818181818182,4,2,1,60,0,0
175246,-181.818181818182,4,2,1,40,0,0
175804,-181.818181818182,4,2,1,77,0,0
175873,-181.818181818182,4,2,1,60,0,0
177998,-181.818181818182,4,2,1,77,0,0
178067,-181.818181818182,4,2,1,60,0,0
180200,-181.818181818182,4,2,1,77,0,0
180269,-181.818181818182,4,2,1,60,0,0
185705,-181.818181818182,4,2,1,30,0,0
189742,-1000,4,2,1,30,0,0
190109,-181.818181818182,4,2,1,70,0,0
191209,-83.3333333333333,4,2,1,70,0,0
191485,-181.818181818182,4,2,1,70,0,0
193411,-83.3333333333333,4,2,1,70,0,0
193686,-181.818181818182,4,2,1,70,0,0

[Colours]
Combo1 : 253,255,202
Combo2 : 255,155,45

[HitObjects]
256,192,20733,12,0,22522,2:0:0:0:
511,30,22797,6,0,P|386:57|315:88,1,192,4|0,3:2|2:0,2:0:0:0:
0,144,23210,2,0,P|124:171|195:202,1,192,0|0,3:0|2:0,2:0:0:0:
272,384,23623,6,0,P|278:325|274:277,1,96,8|0,2:0|2:0,2:0:0:0:
383,160,23898,2,0,P|398:240|450:377,2,192,0|0|8,2:0|3:0|2:0,2:0:0:0:
383,160,24586,1,0,2:0:0:0:
473,172,24723,5,2,3:2:0:0:
452,83,24861,1,2,3:2:0:0:
291,129,24999,1,2,3:2:0:0:
312,218,25136,2,0,P|309:299|299:386,1,144,2|0,2:0|2:0,2:0:0:0:
303,361,25412,1,0,3:0:0:0:
103,298,25549,5,2,3:2:0:0:
202,257,25687,1,2,2:0:0:0:
181,352,25824,1,10,2:0:0:0:
123,199,25962,1,2,2:0:0:0:
181,48,26100,2,0,P|145:20|32:18,1,144,2|0,2:0|2:0,2:0:0:0:
191,55,26375,2,0,L|301:33,1,96,2|2,3:2|2:0,2:0:0:0:
450,83,26650,2,0,L|355:101,1,96,10|0,2:0|2:0,2:0:0:0:
276,115,26925,5,2,3:2:0:0:
359,21,27063,1,2,2:0:0:0:
509,164,27201,2,0,P|518:217|509:319,1,144,2|0,3:2|2:0,2:0:0:0:
506,293,27476,2,0,L|392:269,1,96,2|2,2:0|3:2,2:0:0:0:
132,384,27751,2,0,L|353:328,1,192,2|10,2:0|2:0,2:0:0:0:
399,382,28164,5,2,2:0:0:0:
417,382,28301,5,2,2:0:0:0:
435,382,28439,5,2,2:0:0:0:
122,378,28577,6,0,L|131:269,1,96,2|2,3:2|2:0,2:0:0:0:
186,191,28852,2,0,P|168:135|153:17,1,144,10|0,2:0|2:0,2:0:0:0:
154,51,29127,1,2,3:2:0:0:
68,88,29265,1,2,3:2:0:0:
306,8,29402,5,2,3:2:0:0:
450,102,29540,1,2,2:0:0:0:
299,198,29678,1,2,2:0:0:0:
341,105,29815,1,0,3:0:0:0:
428,181,29953,6,0,P|484:212|522:248,1,96,2|0,3:2|2:0,2:0:0:0:
246,384,30228,2,0,P|161:355|64:270,1,192,10|8,2:0|1:0,2:0:0:0:
81,292,30641,1,2,2:0:0:0:
41,221,30778,5,8,1:0:0:0:
180,287,31054,1,10,1:2:0:0:
43,373,31329,1,2,2:0:0:0:
43,373,31604,6,0,P|83:322|112:278,1,96,4|0,3:2|2:0,2:0:0:0:
199,317,31879,2,0,P|230:260|252:212,1,96,8|0,1:0|3:0,2:0:0:0:
0,216,32155,6,0,P|26:156|43:107,1,96,8|0,1:0|2:0,2:0:0:0:
337,187,32430,2,0,P|352:124|361:72,1,96,8|0,1:0|2:0,2:0:0:0:
163,102,32705,6,0,P|173:38|177:-14,1,96,8|0,1:0|2:0,2:0:0:0:
512,285,32980,2,0,P|515:221|509:114,1,144,8|0,3:1|2:0,2:0:0:0:
511,141,33256,2,0,L|405:160,1,96,8|0,1:0|2:0,2:0:0:0:
157,336,33531,5,2,3:2:0:0:
243,202,33668,1,2,3:2:0:0:
376,272,33806,1,2,3:2:0:0:
327,384,33944,2,0,P|293:367|256:258,1,144,2|0,2:0|2:0,2:0:0:0:
262,281,34219,1,0,3:0:0:0:
52,201,34356,6,0,P|30:221|4:236,1,60.0000000000001,2|2,3:2|2:0,2:0:0:0:
126,309,34632,2,0,P|118:279|118:250,1,60.0000000000001,10|2,1:0|2:0,2:0:0:0:
0,315,34907,2,0,P|28:323|54:338,1,60.0000000000001,2|0,2:0|2:0,2:0:0:0:
373,201,35182,6,0,L|321:178,1,48,2|0,3:2|2:0,2:0:0:0:
296,116,35320,2,0,L|219:131,1,48,2|0,3:2|2:0,2:0:0:0:
190,78,35457,2,0,P|89:101|29:130,1,144,10|0,2:0|2:0,2:0:0:0:
52,117,35733,5,2,3:2:0:0:
152,228,35870,1,2,3:2:0:0:
382,104,36008,2,0,P|403:52|410:0,1,96,2|0,3:2|2:0,2:0:0:0:
133,131,36283,6,0,P|141:178|160:222,1,96,2|2,2:0|3:2,2:0:0:0:
323,352,36558,2,0,L|521:386,1,192,2|10,2:0|2:0,2:0:0:0:
506,303,36971,5,2,2:0:0:0:
507,283,37109,5,2,2:0:0:0:
507,260,37246,5,0,3:1:0:0:
218,296,37384,6,0,P|162:333|129:397,1,96,2|2,3:2|2:0,2:0:0:0:
407,234,37659,2,0,P|460:172|473:80,1,144,8|0,2:0|2:0,2:0:0:0:
474,112,37934,1,2,2:0:0:0:
403,14,38072,1,2,2:0:0:0:
265,46,38210,6,0,P|244:105|237:172,1,96,10|0,3:1|2:0,2:0:0:0:
0,154,38485,2,0,P|3:215|15:258,1,96,10|2,1:0|3:2,2:0:0:0:
345,144,38760,6,0,P|368:202|400:248,1,96,10|0,1:0|2:0,2:0:0:0:
149,314,39035,2,0,P|177:354|214:386,1,96,10|0,1:0|2:0,2:0:0:0:
428,151,39311,5,8,3:0:0:0:
104,25,39494,5,8,3:0:0:0:
170,363,39678,5,8,3:0:0:0:
329,93,39861,5,8,3:0:0:0:
158,170,40045,5,8,3:0:0:0:
313,276,40228,5,8,3:0:0:0:
256,200,40412,6,0,L|221:211,1,30.0000000000001,4|0,3:2|2:0,2:0:0:0:
512,365,42063,1,10,2:0:0:0:
512,365,42613,6,0,L|420:381,1,90.0000000000002,2|0,2:0|2:0,2:0:0:0:
414,376,42889,2,0,L|380:370,5,20.0000000000001,2|0|0|0|0|0,2:0|2:0|2:0|2:0|2:0|2:0,2:0:0:0:
375,301,43439,1,2,2:0:0:0:
133,375,43645,5,0,3:0:0:0:
157,361,43714,2,0,L|34:336,1,120,2|2,3:2|3:2,2:0:0:0:
331,249,44196,5,0,3:0:0:0:
308,266,44265,2,0,L|431:241,1,120,2|2,3:2|2:0,2:0:0:0:
425,242,44830,6,0,B|283:147|278:330|133:305,1,320,4|2,3:2|2:0,2:0:0:0:
151,299,45655,1,2,2:0:0:0:
79,287,45930,1,2,2:0:0:0:
8,272,46206,2,0,L|28:194,1,60.0000000000001,2|0,2:0|2:0,2:0:0:0:
120,27,46481,1,10,2:0:0:0:
120,27,46756,6,0,L|124:61,1,30.0000000000001,2|0,2:0|2:0,2:0:0:0:
195,37,47031,2,0,L|284:54,1,90.0000000000002,2|0,2:0|2:0,2:0:0:0:
290,47,47307,2,0,L|315:23,5,20.0000000000001,2|0|0|0|0|0,2:0|2:0|2:0|2:0|2:0|2:0,2:0:0:0:
438,23,47857,2,0,L|369:9,1,60.0000000000001,2|2,2:0|2:0,2:0:0:0:
141,79,48132,5,8,3:0:0:0:
232,325,48316,5,8,3:0:0:0:
394,119,48499,5,8,3:0:0:0:
177,199,48683,5,8,3:0:0:0:
307,259,48866,5,8,3:0:0:0:
290,116,49050,5,8,3:0:0:0:
256,197,49233,6,0,L|250:329,1,120,4|0,3:2|2:0,2:0:0:0:
225,384,50059,5,2,2:0:0:0:
225,384,50196,1,2,2:0:0:0:
225,384,50334,2,0,P|204:320|202:265,1,120,2|0,2:0|2:0,2:0:0:0:
318,253,50609,6,0,P|316:183|257:6,1,240.000000000001,2|0,2:0|3:0,2:0:0:0:
264,22,51297,1,0,3:0:0:0:
512,203,51430,6,0,P|442:185|386:168,1,120,4|0,3:2|2:0,2:0:0:0:
396,171,51705,1,2,2:0:0:0:
318,262,51842,1,2,3:2:0:0:
409,332,51980,2,0,P|413:278|411:237,1,80,2|0,3:2|2:0,2:0:0:0:
232,305,52255,2,0,P|231:344|235:384,1,80,10|0,1:0|2:0,2:0:0:0:
506,214,52530,6,0,P|511:136|508:76,1,104,2|0,2:0|2:0,2:0:0:0:
74,215,52806,2,0,B|67:280|97:383|97:383|120:341,1,208,2|10,3:2|2:0,2:0:0:0:
201,166,53218,1,2,2:0:0:0:
99,110,53356,2,0,P|41:96|-9:94,1,80,0|0,3:0|2:0,2:0:0:0:
263,220,53631,6,0,P|337:191|393:146,1,120,2|0,3:2|2:0,2:0:0:0:
369,167,53907,1,2,2:0:0:0:
193,158,54044,1,2,3:2:0:0:
382,179,54182,2,0,P|449:187|493:189,1,80,10|0,1:0|2:0,2:0:0:0:
207,281,54457,2,0,P|140:289|96:291,1,80,10|0,1:0|2:0,2:0:0:0:
512,85,54732,6,0,P|443:97|403:100,1,104,2|0,2:0|3:0,2:0:0:0:
0,259,55007,2,0,P|140:294|231:298,1,208,2|10,3:2|2:0,2:0:0:0:
246,202,55420,5,2,3:2:0:0:
466,361,55558,2,0,L|505:368,1,40,0|2,2:0|2:0,2:0:0:0:
506,369,55833,5,2,3:2:0:0:
411,261,55971,1,2,2:0:0:0:
285,384,56108,2,0,P|271:342|266:279,1,80,2|0,2:0|3:0,2:0:0:0:
384,146,56384,2,0,P|407:203|420:264,1,120,10|0,1:0|2:0,2:0:0:0:
411,261,56659,2,0,L|326:281,1,80,10|2,1:0|2:0,2:0:0:0:
223,244,56934,5,8,3:0:0:0:
232,144,57118,5,8,3:0:0:0:
310,204,57301,5,8,3:0:0:0:
45,181,57485,5,8,3:0:0:0:
303,365,57668,5,8,3:0:0:0:
334,34,57852,5,8,3:0:0:0:
181,312,58035,6,0,P|117:314|-17:218,1,192,4|0,3:2|2:0,2:0:0:0:
329,207,58448,2,0,B|379:221|379:221|466:201|550:258,1,192,0|0,3:0|2:0,2:0:0:0:
297,370,58861,6,0,P|282:313|279:272,1,96,8|0,2:0|2:0,2:0:0:0:
423,16,59136,2,0,P|443:79|456:233,2,192,0|0|8,2:0|3:0|2:0,2:0:0:0:
423,16,59824,1,0,2:0:0:0:
307,115,59962,5,2,3:2:0:0:
206,47,60099,1,2,3:2:0:0:
338,21,60237,5,2,3:2:0:0:
143,153,60374,2,0,P|92:172|-18:193,1,144,2|0,2:0|2:0,2:0:0:0:
4,191,60650,1,0,3:0:0:0:
215,287,60787,5,2,3:2:0:0:
134,333,60925,1,2,2:0:0:0:
33,295,61063,1,10,2:0:0:0:
115,250,61200,1,2,2:0:0:0:
295,334,61338,6,0,P|374:355|450:388,1,144,2|0,2:0|2:0,2:0:0:0:
431,378,61613,6,0,P|422:308|422:250,1,128,2|0,3:2|2:0,2:0:0:0:
512,140,61888,2,0,P|440:165|317:189,1,192,10|2,2:0|3:2,2:0:0:0:
340,268,62301,5,2,2:0:0:0:
148,86,62439,2,0,P|222:114|326:129,1,144,2|0,3:2|2:0,2:0:0:0:
278,131,62714,5,2,2:0:0:0:
227,30,62852,1,2,3:2:0:0:
53,88,62989,2,0,P|20:139|7:282,1,192,2|10,2:0|2:0,2:0:0:0:
48,362,63402,5,2,2:0:0:0:
24,371,63540,5,2,2:0:0:0:
1,379,63677,5,2,2:0:0:0:
254,207,63815,6,0,P|259:153|259:97,1,96,2|2,3:2|2:0,2:0:0:0:
414,304,64090,2,0,P|401:212|398:130,1,144,10|0,2:0|2:0,2:0:0:0:
398,161,64365,1,2,3:2:0:0:
487,266,64503,1,2,3:2:0:0:
379,370,64641,5,2,3:2:0:0:
269,206,64778,1,2,2:0:0:0:
80,285,64916,1,2,2:0:0:0:
194,319,65053,1,0,3:0:0:0:
182,225,65191,6,0,P|155:169|114:122,1,96,2|0,3:2|2:0,2:0:0:0:
0,4,65466,2,0,P|120:64|214:80,1,192,10|8,2:0|3:0,2:0:0:0:
358,88,65925,5,8,3:0:0:0:
506,16,66108,5,8,3:0:0:0:
472,164,66292,5,8,3:0:0:0:
478,264,66475,5,8,3:0:0:0:
512,333,66659,5,8,3:0:0:0:
226,304,66842,6,0,P|186:355|157:399,1,96,4|0,3:2|2:0,2:0:0:0:
162,162,67118,2,0,P|131:219|109:267,1,96,8|0,1:0|3:0,2:0:0:0:
348,148,67393,6,0,P|322:208|305:257,1,96,8|0,1:0|2:0,2:0:0:0:
78,44,67668,2,0,P|63:107|54:159,1,96,8|0,1:0|2:0,2:0:0:0:
274,10,67943,6,0,P|264:74|260:126,1,96,8|0,1:0|2:0,2:0:0:0:
512,380,68218,2,0,P|505:312|484:215,1,144,8|0,3:1|2:0,2:0:0:0:
490,237,68494,2,0,L|376:277,1,96,8|0,1:0|2:0,2:0:0:0:
101,344,68769,5,2,3:2:0:0:
261,375,68907,1,2,3:2:0:0:
393,265,69044,1,2,3:2:0:0:
224,231,69182,2,0,P|193:281|186:402,1,144,2|0,2:0|2:0,2:0:0:0:
179,364,69457,1,0,3:0:0:0:
290,168,69595,6,0,P|267:137|243:118,1,60.0000000000001,2|2,3:2|2:0,2:0:0:0:
386,99,69870,2,0,P|371:132|366:162,1,60.0000000000001,10|2,1:0|2:0,2:0:0:0:
281,51,70145,2,0,P|316:45|345:35,1,60.0000000000001,2|0,2:0|2:0,2:0:0:0:
512,381,70420,6,0,L|460:359,1,48,2|0,3:2|2:0,2:0:0:0:
429,296,70558,2,0,L|368:312,1,48,2|0,3:2|2:0,2:0:0:0:
326,258,70696,2,0,P|271:270|176:333,1,144,10|0,2:0|2:0,2:0:0:0:
195,313,70971,5,2,3:2:0:0:
328,367,71108,1,2,3:2:0:0:
268,47,71257,1,0,2:0:0:0:
297,113,71807,5,2,2:0:0:0:
297,113,71945,1,2,2:0:0:0:
367,145,72357,1,2,2:0:0:0:
440,140,73183,1,2,2:0:0:0:
492,91,73458,1,2,2:0:0:0:
492,91,74559,5,8,3:0:0:0:
387,71,74743,5,8,3:0:0:0:
298,17,74926,5,8,3:0:0:0:
305,30,75110,5,8,3:0:0:0:
384,79,75293,5,8,3:0:0:0:
480,96,75477,5,8,3:0:0:0:
311,155,75660,6,0,B|198:79|194:224|80:204,1,240.000000000001,4|2,3:2|2:0,2:0:0:0:
96,205,77036,2,0,L|101:272,1,60.0000000000001,0|2,3:0|2:0,2:0:0:0:
25,242,77312,1,2,2:0:0:0:
277,261,77449,2,0,L|238:257,1,40,2|2,2:0|2:0,2:0:0:0:
366,362,78275,5,2,2:0:0:0:
394,287,78412,2,0,P|439:338|461:384,1,120,2|2,2:0|2:0,2:0:0:0:
504,286,78825,2,0,P|469:227|456:177,1,120,2|0,2:0|2:0,2:0:0:0:
512,128,79238,1,0,3:0:0:0:
365,119,79376,5,0,3:0:0:0:
356,210,79513,1,10,2:0:0:0:
263,198,79651,1,2,2:0:0:0:
272,107,79789,2,0,P|276:78|303:12,1,90.0000000000002,2|0,2:0|2:0,2:0:0:0:
297,21,80064,6,0,L|227:34,1,60.0000000000001,2|2,3:2|2:0,2:0:0:0:
106,90,80339,2,0,L|176:77,1,60.0000000000001,2|2,2:0|2:0,2:0:0:0:
40,17,80614,2,0,P|15:52|2:145,1,120,2|2,2:0|2:0,2:0:0:0:
220,185,81027,2,0,P|211:126|179:75,1,120,2|0,2:0|2:0,2:0:0:0:
105,99,81440,1,0,3:0:0:0:
44,263,81578,5,2,2:0:0:0:
127,315,81715,1,10,2:0:0:0:
141,219,81853,1,2,2:0:0:0:
39,270,81990,2,0,L|21:352,1,60.0000000000001,2|0,2:0|2:0,2:0:0:0:
278,384,82266,6,0,L|261:275,1,90.0000000000002,2|0,3:2|2:0,2:0:0:0:
264,295,82541,2,0,P|218:282|189:281,1,60.0000000000001,2|2,2:0|2:0,2:0:0:0:
353,337,82816,6,0,P|413:315|461:272,1,120,2|10,2:0|2:0,2:0:0:0:
455,279,83229,2,0,L|465:229,1,30.0000000000001,2|0,2:0|2:0,2:0:0:0:
499,46,83367,5,8,3:0:0:0:
366,71,83550,5,8,3:0:0:0:
230,100,83734,5,8,3:0:0:0:
6,144,83917,5,8,3:0:0:0:
89,161,84101,5,8,3:0:0:0:
173,179,84284,5,8,3:0:0:0:
255,193,84468,5,8,1:0:0:0:
255,193,84743,1,8,1:0:0:0:
255,193,85018,1,8,1:0:0:0:
255,193,85293,1,8,1:0:0:0:
255,193,85431,1,8,1:0:0:0:
255,193,85568,1,8,1:0:0:0:
255,193,85844,1,8,1:0:0:0:
255,193,86119,1,8,1:0:0:0:
255,193,86394,1,8,1:0:0:0:
255,193,86669,1,8,1:0:0:0:
255,193,86945,1,8,1:0:0:0:
255,193,87220,1,8,1:0:0:0:
255,193,87495,1,8,1:0:0:0:
255,193,87633,1,8,1:0:0:0:
265,196,87770,6,0,L|280:198,1,16,8|0,1:0|3:0,2:0:0:0:
258,183,87908,2,0,L|281:166,1,16,0|0,3:0|3:0,2:0:0:0:
246,184,88045,2,0,L|242:162,1,16,8|0,1:0|3:0,2:0:0:0:
239,192,88183,2,0,L|220:189,1,16,0|0,3:0|3:0,2:0:0:0:
233,205,88321,2,0,L|217:218,1,16,8|0,1:0|3:0,2:0:0:0:
248,213,88458,2,0,L|246:233,1,16,0|0,3:0|3:0,2:0:0:0:
264,211,88596,2,0,L|271:235,1,16,8|0,1:0|3:0,2:0:0:0:
273,204,88734,2,0,L|292:212,1,16,0|0,3:0|3:0,2:0:0:0:
255,193,88871,5,8,1:0:0:0:
255,193,89146,1,8,1:0:0:0:
255,193,89422,1,8,1:0:0:0:
255,193,89697,1,8,1:0:0:0:
255,193,89834,1,8,1:0:0:0:
255,193,89972,1,8,1:0:0:0:
255,193,90247,1,8,1:0:0:0:
255,193,90523,1,8,1:0:0:0:
255,193,90798,1,8,1:0:0:0:
255,193,91073,1,8,1:0:0:0:
0,330,93256,6,0,L|89:351,1,87.9999999999999,4|0,3:2|2:0,2:0:0:0:
85,350,93668,1,0,2:0:0:0:
193,250,93806,2,0,L|127:266,1,65.9999999999999,0|0,3:0|2:0,2:0:0:0:
128,265,94081,2,0,L|97:218,1,44,0|0,2:0|3:0,2:0:0:0:
296,346,94356,6,0,L|435:382,1,138,8|0,2:0|2:0,2:0:0:0:
429,381,94632,5,2,2:0:0:0:
512,291,94769,1,2,2:0:0:0:
403,173,94907,2,0,P|391:197|385:230,1,44,2|0,2:0|3:0,2:0:0:0:
491,149,95182,2,0,P|499:124|502:94,1,44,2|0,2:0|2:0,2:0:0:0:
305,253,95457,6,0,P|239:245|208:235,1,87.9999999999999,0|0,3:2|2:0,2:0:0:0:
218,238,95870,1,0,2:0:0:0:
95,325,96008,2,0,P|127:308|156:283,1,65.9999999999999,0|0,3:0|2:0,2:0:0:0:
149,290,96283,2,0,L|164:338,1,44,0|0,2:0|3:0,2:0:0:0:
338,182,96558,6,0,L|363:44,1,138,8|0,2:0|2:0,2:0:0:0:
362,46,96833,6,0,L|398:38,1,22,2|0,2:0|2:0,2:0:0:0:
452,74,96971,2,0,L|488:66,1,22,2|0,2:0|2:0,2:0:0:0:
286,21,97109,2,0,L|225:9,1,44,2|0,2:0|3:0,2:0:0:0:
46,44,97384,2,0,L|89:52,1,44,2|0,2:0|2:0,2:0:0:0:
160,148,97659,6,0,P|176:107|173:58,1,87.9999999999999,4|0,3:2|2:0,2:0:0:0:
174,63,98072,1,0,2:0:0:0:
52,145,98210,2,0,P|63:182|88:215,1,65.9999999999999,0|0,3:0|2:0,2:0:0:0:
78,204,98485,2,0,L|27:212,1,44,0|0,2:0|3:0,2:0:0:0:
250,98,98760,6,0,L|406:75,1,138,8|0,2:0|2:0,2:0:0:0:
386,77,99035,5,2,2:0:0:0:
482,140,99173,1,2,2:0:0:0:
279,171,99311,2,0,L|341:182,1,44,2|0,2:0|3:0,2:0:0:0:
512,253,99586,2,0,L|468:245,1,44,2|0,2:0|2:0,2:0:0:0:
362,283,99861,6,0,P|338:318|325:378,1,87.9999999999999,0|0,3:2|2:0,2:0:0:0:
325,361,100274,1,0,2:0:0:0:
202,255,100411,2,0,P|218:286|227:320,1,65.9999999999999,0|0,3:0|2:0,2:0:0:0:
226,315,100687,2,0,L|216:364,1,44,0|0,2:0|3:0,2:0:0:0:
352,145,100962,6,0,L|503:102,1,138,8|0,2:0|2:0,2:0:0:0:
484,107,101237,6,0,L|517:117,1,22,2|0,2:0|2:0,2:0:0:0:
512,193,101375,2,0,L|474:181,1,22,2|0,2:0|2:0,2:0:0:0:
351,27,101512,2,0,L|340:90,1,44,2|0,2:0|3:0,2:0:0:0:
214,86,101788,2,0,L|225:149,1,44,2|0,2:0|2:0,2:0:0:0:
434,235,102063,5,4,3:2:0:0:
331,351,102200,1,2,2:0:0:0:
185,306,102338,2,0,P|142:296|92:296,1,77.9999999999999,2|0,2:0|2:0,2:0:0:0:
108,294,102613,5,2,3:2:0:0:
107,135,102751,1,2,2:0:0:0:
260,196,102889,1,2,2:0:0:0:
108,305,103026,1,2,3:2:0:0:
269,195,103164,2,0,P|304:225|329:266,1,77.9999999999999,10|0,2:0|2:0,2:0:0:0:
321,251,103439,5,2,3:2:0:0:
323,354,103577,1,2,2:0:0:0:
424,362,103714,1,2,2:0:0:0:
429,261,103852,1,2,3:2:0:0:
315,359,103989,2,0,L|251:379,1,51.9999999999999,2|0,2:0|2:0,2:0:0:0:
436,256,104265,6,0,L|447:191,1,51.9999999999999,2|2,3:2|2:0,2:0:0:0:
429,85,104540,1,2,2:0:0:0:
372,136,104678,1,2,2:0:0:0:
348,63,104815,1,2,3:2:0:0:
512,166,104953,5,2,2:0:0:0:
406,12,105090,1,2,2:0:0:0:
219,88,105228,1,2,3:2:0:0:
347,225,105366,5,10,2:0:0:0:
241,234,105503,1,2,2:0:0:0:
250,336,105641,1,2,3:2:0:0:
359,326,105778,1,2,2:0:0:0:
367,332,105916,5,2,2:0:0:0:
236,225,106054,1,0,3:1:0:0:
0,358,106191,2,0,L|121:381,1,104,2|2,2:0|2:0,2:0:0:0:
102,377,106879,5,0,3:0:0:0:
97,186,107017,2,0,L|101:296,1,104,6|2,3:2|2:0,2:0:0:0:
12,234,107430,1,2,3:2:0:0:
149,88,107567,5,10,2:0:0:0:
300,192,107705,1,2,2:0:0:0:
358,19,107843,1,2,3:2:0:0:
269,99,107980,1,0,2:0:0:0:
269,99,108049,2,0,L|369:113,1,77.9999999999999,2|0,2:0|3:0,2:0:0:0:
512,180,108393,2,0,L|444:193,1,51.9999999999999,2|2,2:0|2:0,2:0:0:0:
249,291,108668,5,2,3:2:0:0:
371,374,108806,1,2,2:0:0:0:
397,247,108944,2,0,P|389:209|367:179,1,51.9999999999999,2|0,2:0|2:0,2:0:0:0:
247,299,109219,2,0,P|255:337|292:382,1,77.9999999999999,2|0,3:2|2:0,2:0:0:0:
276,369,109494,5,2,2:0:0:0:
325,282,109632,1,2,3:2:0:0:
124,149,109769,5,10,2:0:0:0:
180,275,109907,1,2,2:0:0:0:
407,222,110044,5,2,3:2:0:0:
460,46,110182,1,0,2:0:0:0:
460,46,110251,2,0,L|383:25,1,77.9999999999999,2|0,2:0|3:0,2:0:0:0:
189,56,110595,2,0,P|241:45|287:-6,1,104,0|0,2:0|3:0,2:0:0:0:
277,11,111283,6,0,P|274:65|277:156,1,140,0|0,3:0|2:0,2:0:0:0:
242,218,111696,6,0,P|245:155|241:70,1,140,0|0,3:0|2:0,2:0:0:0:
362,109,112109,6,0,P|359:163|362:254,1,140,0|0,3:0|2:0,2:0:0:0:
202,316,112522,6,0,P|205:253|201:168,1,140,0|0,3:0|2:0,2:0:0:0:
412,191,112934,6,0,P|409:245|412:336,1,140,0|0,3:0|2:0,2:0:0:0:
158,383,113347,6,0,P|161:320|157:235,1,140,0|0,3:0|2:0,2:0:0:0:
439,122,113760,6,0,P|436:176|439:267,1,140,0|0,3:0|2:0,2:0:0:0:
438,261,114173,1,8,2:0:0:0:
445,269,114723,5,0,3:0:0:0:
373,287,114999,1,0,3:0:0:0:
303,303,115136,1,0,3:0:0:0:
230,336,115274,6,0,P|186:326|83:321,1,140,0|0,3:0|2:0,2:0:0:0:
0,288,115687,6,0,P|69:285|109:278,1,83.9999999999999,0|0,3:0|2:0,2:0:0:0:
257,239,115962,6,0,P|223:233|206:229,1,28,0|0,3:0|2:0,2:0:0:0:
47,140,116100,6,0,P|116:137|179:123,2,112,0|8|0,3:0|2:0|3:0,2:0:0:0:
37,136,116925,6,0,P|60:134|76:132,1,28,0|0,3:0|2:0,2:0:0:0:
420,47,117063,6,0,P|367:47|273:36,1,140,0|0,3:0|2:0,2:0:0:0:
20,143,117476,6,0,P|98:152|368:142,1,336,0|0,3:0|3:0,2:0:0:0:
354,143,118577,1,8,2:0:0:0:
354,143,118714,2,0,L|394:155,1,28,2|0,2:0|2:0,2:0:0:0:
512,204,118871,6,0,P|503:171|499:145,1,60,2|0,2:0|2:0,2:0:0:0:
344,153,119146,6,0,P|364:226|369:264,1,108,2|0,2:0|2:0,2:0:0:0:
157,363,119421,6,0,P|140:294|132:81,1,256,2|4,2:0|3:2,2:0:0:0:
129,109,119971,5,2,2:0:0:0:
229,8,120108,1,2,2:0:0:0:
368,101,120246,2,0,P|425:86|467:60,1,90.0000000000002,2|0,3:2|2:0,2:0:0:0:
451,71,120521,2,0,L|521:85,1,60.0000000000001,2|0,2:0|3:0,2:0:0:0:
296,156,120796,2,0,L|237:144,1,60.0000000000001,10|0,2:0|2:0,2:0:0:0:
512,242,121072,5,2,3:2:0:0:
437,384,121209,1,2,2:0:0:0:
269,343,121347,2,0,P|212:358|170:384,1,90.0000000000002,2|0,2:0|2:0,2:0:0:0:
185,372,121622,2,0,L|115:358,1,60.0000000000001,2|0,2:0|2:0,2:0:0:0:
274,266,121897,2,0,L|411:295,1,120,2|2,2:0|2:0,2:0:0:0:
391,290,122310,1,2,2:0:0:0:
374,177,122448,6,0,L|311:192,1,60.0000000000001,2|2,3:2|2:0,2:0:0:0:
173,87,122723,2,0,L|236:72,1,60.0000000000001,2|2,2:0|3:2,2:0:0:0:
209,166,122998,5,10,2:0:0:0:
197,256,123136,1,2,2:0:0:0:
105,243,123273,1,2,3:2:0:0:
117,152,123411,1,2,2:0:0:0:
204,263,123549,2,0,P|215:309|217:347,1,60.0000000000001,2|0,2:0|3:0,2:0:0:0:
398,384,123824,6,0,P|412:343|417:262,2,120,2|6|2,2:0|3:2|2:0,2:0:0:0:
318,303,124512,1,2,2:0:0:0:
419,190,124650,2,0,L|507:166,1,90.0000000000002,2|0,3:2|2:0,2:0:0:0:
505,166,124925,2,0,L|447:158,1,60.0000000000001,2|0,2:0|3:0,2:0:0:0:
113,8,125200,6,0,L|252:36,1,120,10|2,2:0|3:2,2:0:0:0:
146,148,125613,1,2,2:0:0:0:
24,123,125751,2,0,P|43:92|73:70,1,60.0000000000001,2|0,2:0|3:0,2:0:0:0:
91,254,126026,2,0,P|73:277|-9:330,1,120,2|2,2:0|2:0,2:0:0:0:
0,328,128473,6,0,L|403:365,1,384,4|0,3:2|3:0,2:0:0:0:
382,363,129298,2,0,P|374:323|366:296,1,60.0000000000001,2|2,2:0|3:2,2:0:0:0:
501,138,129573,2,0,P|493:166|487:196,1,60.0000000000001,10|0,2:0|2:0,2:0:0:0:
505,279,129849,2,0,P|437:256|365:166,1,180,2|2,2:0|3:2,2:0:0:0:
385,99,130399,2,0,L|462:79,1,60.0000000000001,2|2,2:0|2:0,2:0:0:0:
293,35,130674,5,2,3:2:0:0:
122,99,130812,1,2,2:0:0:0:
162,26,130950,5,2,2:0:0:0:
296,127,131087,1,2,2:0:0:0:
215,277,131225,5,2,3:2:0:0:
193,193,131362,1,2,2:0:0:0:
1,377,131500,5,2,2:0:0:0:
48,253,131638,1,2,3:2:0:0:
310,328,131775,2,0,P|383:347|421:363,1,90.0000000000002,10|0,2:0|2:0,2:0:0:0:
397,353,132050,6,0,L|389:317,1,30.0000000000001,2|0,2:0|2:0,2:0:0:0:
473,372,132188,2,0,L|466:334,1,30.0000000000001,0|0,2:0|2:0,2:0:0:0:
338,256,132326,2,0,L|266:234,1,60.0000000000001,0|0,2:0|3:0,2:0:0:0:
512,102,132601,2,0,L|454:86,1,60.0000000000001,0|0,2:0|2:0,2:0:0:0:
342,142,132876,6,0,P|355:85|507:16,2,240.000000000001,0|0|10,2:0|2:0|2:0,2:0:0:0:
342,142,134252,2,0,L|377:150,1,30.0000000000001,2|0,2:0|2:0,2:0:0:0:
363,132,134390,2,0,L|398:140,1,30.0000000000001,0|0,2:0|2:0,2:0:0:0:
387,122,134528,1,0,2:0:0:0:
475,84,134803,1,0,2:0:0:0:
475,84,137280,6,0,L|316:113,1,144,4|0,3:2|2:0,2:0:0:0:
333,109,137555,1,2,2:0:0:0:
310,203,137693,1,2,2:0:0:0:
448,266,137830,2,0,P|471:228|476:196,1,60.0000000000001,2|0,3:2|2:0,2:0:0:0:
207,144,138106,2,0,P|219:184|237:211,1,60.0000000000001,2|0,2:0|2:0,2:0:0:0:
389,337,138381,2,0,L|525:357,2,120,10|2|2,2:0|3:2|2:0,2:0:0:0:
328,278,139069,1,0,3:0:0:0:
182,373,139206,2,0,L|165:310,1,60.0000000000001,2|2,2:0|2:0,2:0:0:0:
83,373,139482,5,2,3:2:0:0:
199,247,139619,1,2,2:0:0:0:
93,104,139757,2,0,L|25:93,1,60.0000000000001,2|2,2:0|2:0,2:0:0:0:
276,41,140032,2,0,L|344:52,1,60.0000000000001,2|0,3:2|2:0,2:0:0:0:
171,2,140307,6,0,P|173:33|187:71,1,60.0000000000001,2|0,2:0|3:0,2:0:0:0:
497,265,140583,2,0,P|491:230|458:168,1,90.0000000000002,10|0,2:0|2:0,2:0:0:0:
467,180,140858,5,2,3:2:0:0:
344,282,140995,1,2,2:0:0:0:
451,371,141133,2,0,L|531:389,1,60.0000000000001,2|0,2:0|3:0,2:0:0:0:
336,287,141408,2,0,L|210:316,1,120,2|2,2:0|2:0,2:0:0:0:
219,313,142096,6,0,P|229:287|234:269,1,30.0000000000001,0|0,3:0|2:0,2:0:0:0:
504,204,142234,2,0,P|443:180|414:139,1,90.0000000000002,6|0,3:2|2:0,2:0:0:0:
427,162,142509,2,0,P|427:130|431:96,1,60.0000000000001,2|0,2:0|3:0,2:0:0:0:
197,227,142784,2,0,P|174:169|135:105,1,120,10|2,2:0|3:2,2:0:0:0:
308,176,143197,5,2,2:0:0:0:
145,119,143335,2,0,L|69:105,1,60.0000000000001,2|0,2:0|3:0,2:0:0:0:
59,181,143610,2,0,L|-17:167,1,60.0000000000001,2|0,2:0|2:0,2:0:0:0:
204,236,143885,2,0,P|237:287|245:341,1,90.0000000000002,2|0,3:2|2:0,2:0:0:0:
243,314,144161,5,2,2:0:0:0:
147,323,144298,1,2,2:0:0:0:
324,248,144436,2,0,L|457:274,1,120,2|2,2:0|2:0,2:0:0:0:
244,326,144849,5,0,3:0:0:0:
173,123,144986,2,0,P|192:66|225:31,1,90.0000000000002,10|0,2:0|2:0,2:0:0:0:
211,44,145261,6,0,L|255:33,1,30.0000000000001,0|0,3:0|2:0,2:0:0:0:
275,101,145399,2,0,L|320:91,1,30.0000000000001,2|0,2:0|2:0,2:0:0:0:
96,69,145537,2,0,P|75:30|71:3,1,60.0000000000001,2|0,2:0|3:0,2:0:0:0:
276,110,145812,5,2,2:0:0:0:
339,270,145950,1,2,2:0:0:0:
61,384,146087,1,0,3:0:0:0:
61,384,146490,6,0,P|131:377|222:375,1,140,0|0,3:0|2:0,2:0:0:0:
298,342,146902,6,0,P|228:349|137:351,1,140,0|0,3:0|2:0,2:0:0:0:
26,283,147315,6,0,P|96:276|187:274,1,140,0|0,3:0|2:0,2:0:0:0:
368,317,147728,6,0,P|298:324|207:326,1,140,0|0,3:0|2:0,2:0:0:0:
54,185,148141,6,0,P|124:178|215:176,1,140,0|0,3:0|2:0,2:0:0:0:
444,232,148554,6,0,P|374:239|283:241,1,140,0|0,3:0|2:0,2:0:0:0:
0,103,148967,6,0,P|70:96|163:98,1,140,0|0,3:0|2:0,2:0:0:0:
139,96,149379,1,8,2:0:0:0:
145,102,149930,5,0,3:0:0:0:
222,103,150205,1,0,3:0:0:0:
287,61,150343,1,0,3:0:0:0:
390,0,150480,6,0,P|376:68|374:138,1,140,0|0,3:0|2:0,2:0:0:0:
346,204,150893,6,0,P|343:135|336:95,1,83.9999999999999,0|0,3:0|2:0,2:0:0:0:
397,13,151168,6,0,P|391:47|390:65,1,28,0|0,3:0|2:0,2:0:0:0:
273,284,151306,6,0,P|270:215|256:152,2,112,0|8|0,3:0|2:0|3:0,2:0:0:0:
266,291,152132,6,0,P|264:268|262:252,1,28,0|0,3:0|2:0,2:0:0:0:
110,96,152269,6,0,P|110:148|99:242,1,140,0|0,3:0|2:0,2:0:0:0:
283,384,152682,6,0,P|292:306|282:35,1,336,0|0,3:0|3:0,2:0:0:0:
283,49,153783,1,8,2:0:0:0:
246,112,154058,1,2,2:0:0:0:
172,110,154334,1,2,2:0:0:0:
126,48,154471,2,0,L|165:41,1,28,2|0,2:0|2:0,2:0:0:0:
475,5,154609,6,0,L|501:0,1,26.6666666666667,2|0,2:0|2:0,2:0:0:0:
434,73,155170,6,0,L|419:148,1,60.0000000000001,2|2,3:2|2:0,2:0:0:0:
212,169,155445,1,2,3:2:0:0:
287,141,155582,1,0,2:0:0:0:
273,218,155720,5,2,2:0:0:0:
187,46,155858,1,0,3:0:0:0:
0,148,155995,2,0,L|111:180,1,90.0000000000002,10|0,2:0|2:0,2:0:0:0:
85,179,156270,2,0,P|89:218|87:248,1,60.0000000000001,2|0,3:2|2:0,2:0:0:0:
240,354,156546,2,0,P|236:315|238:285,1,60.0000000000001,2|0,2:0|3:0,2:0:0:0:
155,281,156821,5,2,2:0:0:0:
120,378,156958,1,2,2:0:0:0:
375,300,157096,5,2,3:2:0:0:
331,114,157234,1,2,2:0:0:0:
510,48,157371,5,2,2:0:0:0:
480,175,157509,1,2,2:0:0:0:
328,123,157647,2,0,P|361:152|402:170,1,90.0000000000002,2|0,3:2|2:0,2:0:0:0:
413,177,157922,2,0,L|492:168,1,60.0000000000001,2|0,2:0|3:0,2:0:0:0:
211,74,158197,6,0,L|109:85,1,90.0000000000002,10|0,2:0|2:0,2:0:0:0:
121,83,158472,1,2,3:2:0:0:
187,193,158610,1,2,2:0:0:0:
115,78,158747,2,0,P|102:41|96:8,1,60.0000000000001,2|0,2:0|3:0,2:0:0:0:
102,315,159023,2,0,P|76:344|50:366,1,60.0000000000001,2|0,2:0|2:0,2:0:0:0:
339,213,159298,6,0,P|377:220|473:267,2,120,2|2|2,3:2|2:0|3:2,2:0:0:0:
390,305,159986,1,2,2:0:0:0:
505,159,160124,2,0,L|514:91,1,60.0000000000001,2|0,2:0|3:0,2:0:0:0:
337,38,160399,6,0,L|352:141,1,90.0000000000002,8|0,2:0|2:0,2:0:0:0:
349,127,160674,2,0,P|408:139|428:143,1,60.0000000000001,2|0,3:2|2:0,2:0:0:0:
234,92,160949,5,2,2:0:0:0:
161,206,161087,1,2,3:2:0:0:
30,131,161225,2,0,L|59:12,1,120,2|2,2:0|2:0,2:0:0:0:
58,14,163014,6,0,L|80:18,1,12,2|0,2:0|2:0,2:0:0:0:
81,27,163151,6,0,L|39:36,1,36,2|0,2:0|2:0,2:0:0:0:
43,44,163426,6,0,L|87:55,1,36,2|0,2:0|2:0,2:0:0:0:
243,120,163687,6,0,L|182:138,1,54.0000000000001,2|0,3:2|2:0,2:0:0:0:
191,144,163962,1,2,2:0:0:0:
192,153,164099,1,2,2:0:0:0:
311,78,164237,2,0,P|312:46|311:32,1,36,2|0,3:2|2:0,2:0:0:0:
392,8,164512,2,0,P|391:40|392:54,1,36,2|0,2:0|3:0,2:0:0:0:
449,322,164787,6,0,P|494:342|510:347,1,54.0000000000001,8|0,2:0|2:0,2:0:0:0:
503,337,165063,1,2,3:2:0:0:
505,330,165200,1,2,2:0:0:0:
393,251,165338,1,2,2:0:0:0:
396,257,165475,1,2,3:2:0:0:
356,383,165613,1,2,2:0:0:0:
358,376,165751,1,2,2:0:0:0:
389,245,165888,6,0,P|383:211|377:196,1,36,2|0,3:2|2:0,2:0:0:0:
314,240,166164,1,2,2:0:0:0:
307,242,166301,1,2,2:0:0:0:
477,178,166439,2,0,L|523:189,1,36,2|0,3:2|2:0,2:0:0:0:
301,245,166714,2,0,L|265:236,1,36,2|0,2:0|3:0,2:0:0:0:
0,82,166989,6,0,L|64:99,1,54.0000000000001,8|0,2:0|2:0,2:0:0:0:
60,93,167264,2,0,P|68:74|72:49,1,36,2|0,3:2|2:0,2:0:0:0:
197,69,167540,1,2,2:0:0:0:
192,61,167677,1,2,3:2:0:0:
188,52,167815,2,0,P|180:33|176:8,1,36,2|0,2:0|2:0,2:0:0:0:
138,152,168090,6,0,L|125:216,1,54.0000000000001,2|0,3:2|2:0,2:0:0:0:
125,213,168365,1,2,2:0:0:0:
123,222,168503,1,2,2:0:0:0:
27,308,168641,2,0,L|62:274,1,36,2|0,3:2|2:0,2:0:0:0:
189,333,168916,2,0,L|166:302,1,36,2|0,2:0|3:0,2:0:0:0:
411,40,169191,6,0,L|399:104,1,54.0000000000001,8|0,2:0|2:0,2:0:0:0:
405,101,169466,1,2,3:2:0:0:
413,99,169604,1,2,2:0:0:0:
318,135,169742,1,2,2:0:0:0:
310,138,169879,1,2,3:2:0:0:
499,179,170017,5,2,2:0:0:0:
507,176,170154,1,2,2:0:0:0:
293,245,170292,1,2,3:2:0:0:
285,248,170430,1,2,2:0:0:0:
422,261,170567,5,2,2:0:0:0:
428,270,170705,1,2,2:0:0:0:
432,279,170842,2,0,P|439:306|441:327,1,36,2|0,3:2|2:0,2:0:0:0:
253,384,171118,2,0,P|247:366|244:349,1,36,2|0,2:0|3:0,2:0:0:0:
232,73,171393,6,0,L|240:-2,1,72.0000000000001,8|2,2:0|3:2,2:0:0:0:
239,1,171806,6,0,L|221:5,1,18,2|0,2:0|2:0,2:0:0:0:
94,4,171943,6,0,L|152:21,1,54.0000000000001,2|0,2:0|2:0,2:0:0:0:
386,43,172219,6,0,L|302:61,1,72.0000000000001,2|0,2:0|2:0,2:0:0:0:
315,58,173044,1,2,3:2:0:0:
315,58,173457,5,0,3:0:0:0:
468,187,173595,2,0,P|511:199|522:201,1,44,8|2,2:0|2:0,2:0:0:0:
372,316,173870,1,2,3:2:0:0:
399,244,174008,1,2,2:0:0:0:
450,299,174145,1,2,2:0:0:0:
311,220,174283,5,2,3:2:0:0:
337,377,174420,1,2,2:0:0:0:
503,347,174558,1,2,2:0:0:0:
476,194,174696,1,2,3:0:0:0:
476,194,175246,1,2,3:2:0:0:
476,194,175659,5,0,3:0:0:0:
176,270,175797,2,0,P|131:280|78:289,1,87.9999999999999,8|0,2:0|3:0,2:0:0:0:
239,198,176209,1,2,2:0:0:0:
252,297,176347,2,0,P|253:331|248:359,1,44,2|0,2:0|3:0,2:0:0:0:
80,166,176622,2,0,P|87:120|92:106,1,44,2|2,2:0|2:0,2:0:0:0:
256,23,176898,5,2,3:2:0:0:
276,102,177035,1,2,2:0:0:0:
184,124,177173,1,2,2:0:0:0:
164,45,177310,1,2,2:0:0:0:
289,105,177448,5,2,3:2:0:0:
161,33,177586,1,2,2:0:0:0:
74,161,177723,2,0,P|65:193|61:219,1,44,2|0,2:0|3:0,2:0:0:0:
388,384,177998,6,0,P|380:342|355:286,1,87.9999999999999,10|2,2:0|3:2,2:0:0:0:
332,237,178411,1,2,2:0:0:0:
277,308,178549,5,2,2:0:0:0:
388,176,178687,1,2,3:2:0:0:
429,263,178824,5,2,2:0:0:0:
254,220,178962,1,2,2:0:0:0:
86,304,179099,6,0,P|79:360|77:386,1,65.9999999999999,2|0,3:2|2:0,2:0:0:0:
154,380,179375,2,0,P|161:324|163:298,1,65.9999999999999,2|0,2:0|2:0,2:0:0:0:
137,243,179650,2,0,P|106:224|73:202,1,65.9999999999999,2|0,3:2|2:0,2:0:0:0:
79,309,179925,5,2,2:0:0:0:
165,382,180063,1,2,2:0:0:0:
426,213,180200,2,0,P|478:179|511:157,1,87.9999999999999,10|2,2:0|3:2,2:0:0:0:
499,164,180613,6,0,L|492:137,1,22,2|0,2:0|2:0,2:0:0:0:
393,80,180751,6,0,L|381:155,1,65.9999999999999,2|0,2:0|2:0,2:0:0:0:
258,254,181026,6,0,L|241:158,1,87.9999999999999,2|2,2:0|3:2,2:0:0:0:
242,167,185705,5,0,3:0:0:0:
242,167,189742,6,0,L|240:185,1,16,0|0,2:0|2:0,2:0:0:0:
300,107,190109,6,0,L|279:3,1,87.9999999999999,4|0,3:2|2:0,2:0:0:0:
282,20,190521,1,0,2:0:0:0:
144,82,190659,2,0,L|130:157,1,65.9999999999999,0|0,3:0|2:0,2:0:0:0:
131,146,190934,2,0,L|84:158,1,44,0|0,2:0|3:0,2:0:0:0:
362,233,191209,6,0,L|523:270,1,144,8|0,2:0|2:0,2:0:0:0:
502,265,191485,6,0,L|466:277,1,22,2|0,2:0|2:0,2:0:0:0:
422,344,191622,2,0,L|427:306,1,22,2|0,2:0|2:0,2:0:0:0:
504,158,191760,2,0,L|494:106,1,44,2|0,2:0|2:0,2:0:0:0:
361,84,192035,2,0,L|370:26,1,44,2|0,2:0|2:0,2:0:0:0:
209,33,192310,6,0,P|163:17|112:12,1,87.9999999999999,0|0,3:2|2:0,2:0:0:0:
124,12,192723,1,0,2:0:0:0:
209,129,192861,2,0,P|255:120|278:110,1,65.9999999999999,0|0,3:0|2:0,2:0:0:0:
272,112,193136,2,0,L|284:67,1,44,0|0,2:0|3:0,2:0:0:0:
42,209,193411,6,0,L|70:358,1,144,8|0,2:0|2:0,2:0:0:0:
68,350,193686,6,0,L|107:359,1,22,2|0,2:0|2:0,2:0:0:0:
7,286,193824,2,0,L|46:295,1,22,2|0,2:0|2:0,2:0:0:0:
199,384,193962,2,0,L|259:371,1,44,2|0,2:0|2:0,2:0:0:0:
470,247,194237,6,0,L|367:268,1,87.9999999999999,2|4,2:0|3:2,2:0:0:0:
