osu file format v14

[General]
AudioFilename: audio.mp3
AudioLeadIn: 0
PreviewTime: 12305
Countdown: 0
SampleSet: Soft
StackLeniency: 0.7
Mode: 0
LetterboxInBreaks: 0
WidescreenStoryboard: 1

[Editor]
Bookmarks: 74337,78789,154853
DistanceSpacing: 1
BeatDivisor: 4
GridSize: 4
TimelineZoom: 1.2

[Metadata]
Title:DOGTOOTH
TitleUnicode:DOGTOOTH
Artist:Tyler, The Creator
ArtistUnicode:Tyler, The Creator
Creator:momothx
Version:NORMAL
Source:
Tags:CALL ME IF YOU GET LOST The Estate Sale Ajitani Hifumi we vibing mindmaster107 hehe handsome hip hop hip-hop rap english
BeatmapID:4171366
BeatmapSetID:2005286

[Difficulty]
HPDrainRate:4
CircleSize:3.4
OverallDifficulty:5
ApproachRate:5
SliderMultiplier:2.4
SliderTickRate:1

[Events]
//Background and Video events
0,0,"wj7msvc5kj9v6cyy.jpg",0,0
//Break Periods
//Storyboard Layer 0 (Background)
//Storyboard Layer 1 (Fail)
//Storyboard Layer 2 (Pass)
//Storyboard Layer 3 (Foreground)
//Storyboard Layer 4 (Overlay)
//Storyboard Sound Samples

[TimingPoints]
23,774.193548387097,4,2,1,55,1,0
23,-133.333333333333,4,2,1,55,0,0
11635,-133.333333333333,4,2,1,65,0,0
12410,-100,4,2,1,75,0,0
61958,-133.333333333333,4,2,1,65,0,0
74345,-100,4,2,1,75,0,0
75119,-100,4,2,1,75,0,1
77442,-100,4,2,1,75,0,0
106861,-133.333333333333,4,2,1,75,0,0
108410,-100,4,2,1,75,0,0
114603,-133.333333333333,4,2,1,75,0,0
123893,-133.333333333333,4,2,1,75,0,0
124668,-133.333333333333,4,2,1,65,0,0
136281,-100,4,2,1,75,0,0
138990,-100,4,2,1,45,0,0
139087,-100,4,2,1,75,0,0

[Colours]
Combo1 : 198,177,159
Combo2 : 128,128,128

[HitObjects]
55,379,23,5,4,1:0:0:0:
137,308,797,2,0,P|290:278|401:252,1,270.000010299683,2|2,2:0|2:0,0:0:0:0:
453,239,2345,1,2,2:0:0:0:
450,131,3119,6,0,P|302:170|183:177,1,270.000010299683,2|2,3:2|2:0,0:0:0:0:
131,173,4668,1,2,2:0:0:0:
207,96,5442,1,2,2:0:0:0:
312,119,6216,6,0,P|323:192|198:334,1,270.000010299683,2|2,3:2|2:0,0:0:0:0:
151,323,7764,2,0,P|121:308|51:302,1,90.0000034332277,2|2,2:0|2:0,0:0:0:0:
20,330,8539,1,0,3:2:0:0:
118,375,9313,6,0,L|137:195,2,180.000006866455,0|2|0,3:2|2:0|0:0,0:0:0:0:
38,332,11248,1,2,2:0:0:0:
142,174,12022,1,10,2:0:0:0:
234,66,12410,6,0,P|267:82|360:85,2,120,2|2|10,1:0|1:0|0:0,0:0:0:0:
121,25,13571,2,0,P|73:29|44:40,1,60,2|2,0:0|0:0,0:0:0:0:
25,80,13958,1,2,0:0:0:0:
72,190,14345,1,2,0:0:0:0:
187,158,14732,2,0,P|234:193|261:246,1,120,10|2,0:0|0:0,0:0:0:0:
349,328,15506,6,0,P|377:275|422:237,2,120,2|2|10,1:0|1:0|0:0,0:0:0:0:
232,358,16668,2,0,P|204:346|171:335,1,60,2|2,3:2|0:0,0:0:0:0:
116,325,17055,2,0,P|116:284|112:252,1,60,2|0,0:0|3:2,0:0:0:0:
71,223,17442,1,2,0:0:0:0:
146,129,17829,1,10,0:0:0:0:
254,180,18216,1,2,0:0:0:0:
349,107,18603,6,0,P|397:72|456:67,2,120,2|2|10,1:0|1:0|0:0,0:0:0:0:
240,158,19764,2,0,P|211:142|185:121,1,60,2|2,0:0|3:2,0:0:0:0:
134,100,20152,2,0,P|76:103|9:151,1,120,2|2,0:0|3:2,0:0:0:0:
29,253,20926,1,10,0:0:0:0:
133,312,21313,2,0,P|185:296|211:292,1,60,2|2,3:2|0:0,0:0:0:0:
249,286,21700,6,0,P|283:244|286:167,2,120,2|2|10,1:0|1:0|0:0,0:0:0:0:
142,229,22861,2,0,P|126:181|131:154,1,60,2|2,3:2|0:0,0:0:0:0:
172,133,23248,1,2,0:0:0:0:
79,57,23635,1,2,0:0:0:0:
188,8,24022,1,10,0:0:0:0:
283,81,24410,1,2,0:0:0:0:
384,16,24797,6,0,P|443:26|501:11,2,120,2|2|8,1:0|1:0|0:0,0:0:0:0:
329,40,25764,1,2,0:0:0:0:
300,92,25958,2,0,P|271:100|243:110,1,60,2|2,0:0|0:0,0:0:0:0:
225,167,26345,2,0,P|171:193|112:203,1,120,2|2,0:0|0:0,0:0:0:0:
21,281,27119,2,0,P|58:328|79:384,1,120,10|2,0:0|0:0,0:0:0:0:
191,342,27893,6,0,P|232:307|316:288,2,120,2|2|10,1:0|1:0|0:0,0:0:0:0:
105,256,29055,2,0,P|93:198|106:140,1,120,2|2,3:2|0:0,0:0:0:0:
194,59,29829,2,0,P|224:63|252:73,1,60,2|2,0:0|0:0,0:0:0:0:
299,109,30216,1,10,0:0:0:0:
365,209,30603,2,0,L|367:269,1,60,2|2,0:0|0:0,0:0:0:0:
388,317,30990,6,0,P|427:331|518:321,2,120,2|2|8,1:0|1:0|0:0,0:0:0:0:
271,285,32152,2,0,L|129:251,1,120,2|0,0:0|0:0,0:0:0:0:
96,246,32732,1,2,3:2:0:0:
37,238,32926,2,0,P|33:202|84:135,1,120,2|8,3:2|0:0,0:0:0:0:
140,136,33506,1,2,0:0:0:0:
140,136,33700,1,2,3:2:0:0:
219,46,34087,6,0,P|243:78|253:180,2,120,0|2|8,3:2|0:0|0:0,0:0:0:0:
102,18,35248,2,0,L|130:144,1,120,2|0,3:2|0:0,0:0:0:0:
150,252,36022,2,0,P|195:245|226:241,1,60,2|0,0:0|0:0,0:0:0:0:
249,288,36410,2,0,P|297:284|330:280,1,60,10|10,0:0|0:0,0:0:0:0:
363,308,36797,1,10,0:0:0:0:
456,232,37184,6,0,B|423:218|372:197|264:209|209:144,2,240,2|10|2,1:0|0:0|0:0,0:0:0:0:
405,123,39119,1,2,0:0:0:0:
299,66,39506,2,0,P|249:60|179:84,1,120,10|2,0:0|0:0,0:0:0:0:
150,205,40281,6,0,B|86:236|91:384|-14:378,2,240,2|10|2,1:0|0:0|0:0,0:0:0:0:
263,249,42216,1,2,0:0:0:0:
373,201,42603,2,0,P|394:146|389:72,1,120,10|2,0:0|0:0,0:0:0:0:
283,35,43377,6,0,B|260:60|179:84|83:20|52:121,2,240,2|10|2,1:0|0:0|0:0,0:0:0:0:
398,1,45313,1,0,3:2:0:0:
482,85,45700,2,0,P|469:120|465:155,1,60,10|2,0:0|0:0,0:0:0:0:
495,194,46087,2,0,P|508:229|512:264,1,60,2|2,3:2|0:0,0:0:0:0:
494,309,46474,6,0,P|431:289|355:288,1,120,2|2,1:0|1:0,0:0:0:0:
274,346,47248,1,10,0:0:0:0:
360,49,49571,6,0,P|416:60|497:70,2,120,2|2|10,1:0|1:0|0:0,0:0:0:0:
301,61,50539,2,0,P|297:98|284:135,1,60,2|0,0:0|0:0,0:0:0:0:
243,156,50926,2,0,P|247:193|260:230,1,60,2|0,0:0|0:0,0:0:0:0:
287,264,51313,1,2,0:0:0:0:
287,264,51506,2,0,P|328:250|396:213,1,120,2|10,0:0|0:0,0:0:0:0:
476,124,52281,2,0,P|447:110|405:106,1,60,2|2,0:0|0:0,0:0:0:0:
360,116,52668,6,0,P|374:76|368:-10,2,120,2|2|10,1:0|1:0|0:0,0:0:0:0:
306,143,53635,2,0,P|274:145|193:117,1,120,2|2,0:0|0:0,0:0:0:0:
108,29,54410,1,2,3:2:0:0:
108,29,54603,2,0,P|94:62|91:92,1,60,2|2,0:0|0:0,0:0:0:0:
112,141,54990,2,0,P|117:177|89:274,1,120,10|2,0:0|0:0,0:0:0:0:
178,346,55764,6,0,P|230:342|322:333,2,120,2|2|10,1:0|1:0|0:0,0:0:0:0:
59,368,56926,1,2,0:0:0:0:
96,254,57313,2,0,P|86:175|78:115,2,120,2|2|10,0:0|3:2|0:0,0:0:0:0:
141,364,58474,1,2,3:2:0:0:
232,286,58861,6,0,P|273:287|300:297,1,60,2|0,3:2|3:2,0:0:0:0:
338,328,59248,1,2,0:0:0:0:
442,268,59635,2,0,P|434:216|455:150,1,120,10|2,0:0|3:2,0:0:0:0:
498,112,60216,1,2,0:0:0:0:
448,77,60410,2,0,P|395:71|307:54,2,120,2|2|10,0:0|0:0|0:0,0:0:0:0:
405,251,61958,6,0,L|308:237,1,90.0000034332277,0|0,3:2|0:0,0:0:0:0:
229,214,62732,2,0,P|210:210|171:201,1,45.0000017166138,2|2,2:0|2:0,0:0:0:0:
143,187,63119,2,0,L|84:203,1,45.0000017166138,2|2,2:0|2:0,0:0:0:0:
62,224,63506,2,0,P|45:250|31:314,1,90.0000034332277,2|2,2:0|2:0,0:0:0:0:
100,363,64281,1,2,2:0:0:0:
172,310,64668,1,2,2:0:0:0:
253,347,65055,6,0,L|362:325,1,90.0000034332277,2|0,3:2|0:0,0:0:0:0:
406,267,65829,2,0,L|411:219,1,45.0000017166138,2|2,2:0|2:0,0:0:0:0:
441,189,66216,2,0,L|445:141,1,45.0000017166138,2|2,2:0|2:0,0:0:0:0:
469,106,66603,2,0,P|468:71|441:24,1,90.0000034332277,2|2,2:0|2:0,0:0:0:0:
354,46,67377,2,0,P|325:52|246:66,1,90.0000034332277,2|2,2:0|2:0,0:0:0:0:
186,106,68152,6,0,P|169:168|170:208,1,90.0000034332277,2|0,3:2|0:0,0:0:0:0:
207,225,68732,1,2,2:0:0:0:
207,225,68926,2,0,P|290:206|371:256,2,180.000006866455,2|2|2,2:0|2:0|2:0,0:0:0:0:
126,264,70861,1,2,2:0:0:0:
56,207,71248,5,2,3:2:0:0:
159,119,71829,1,2,2:0:0:0:
159,119,72022,2,0,P|192:121|210:116,1,45.0000017166138,2|2,2:0|2:0,0:0:0:0:
243,98,72410,1,2,2:0:0:0:
51,177,74345,6,0,P|41:132|21:47,2,120,6|2|10,1:0|1:0|0:0,0:0:0:0:
421,216,77442,6,0,P|430:171|455:83,2,120,2|2|10,1:0|1:0|0:0,0:0:0:0:
337,302,78603,2,0,P|307:299|274:284,1,60,2|2,3:2|2:0,0:0:0:0:
229,254,78990,2,0,P|233:212|246:182,1,60,2|2,2:0|3:2,0:0:0:0:
295,175,79377,1,2,2:0:0:0:
410,206,79764,2,0,P|416:162|392:74,1,120,10|2,0:0|2:0,0:0:0:0:
289,41,80539,6,0,P|241:58|160:67,1,120,2|2,1:0|1:0,0:0:0:0:
59,26,81313,1,10,0:0:0:0:
0,147,81700,1,2,2:0:0:0:
65,247,82087,2,0,P|63:288|68:317,1,60,2|2,2:0|3:2,0:0:0:0:
95,358,82474,2,0,P|125:361|155:359,1,60,2|2,3:2|2:0,0:0:0:0:
212,340,82861,2,0,P|239:292|243:215,1,120,8|2,0:0|3:2,0:0:0:0:
169,135,83635,6,0,P|111:149|51:156,2,120,2|2|10,1:2|1:2|0:0,0:0:0:0:
221,105,84603,1,2,2:0:0:0:
279,89,84797,2,0,P|298:62|323:46,1,60,2|2,3:2|2:0,0:0:0:0:
379,58,85184,2,0,P|411:52|440:58,1,60,2|2,2:0|3:2,0:0:0:0:
471,107,85571,2,0,P|468:180|434:244,1,120,2|8,2:0|0:0,0:0:0:0:
346,283,86345,1,2,2:0:0:0:
228,261,86732,6,0,P|240:303|244:399,2,120,2|2|10,1:0|1:0|0:0,0:0:0:0:
188,215,87700,2,0,P|147:222|115:234,1,60,2|2,2:0|2:0,0:0:0:0:
82,263,88087,1,2,2:0:0:0:
82,263,88281,2,0,P|52:254|22:237,1,60,2|2,2:0|2:0,0:0:0:0:
0,186,88668,1,2,2:0:0:0:
99,118,89055,1,10,0:0:0:0:
217,138,89442,1,2,2:0:0:0:
317,203,89829,6,0,P|362:192|420:142,2,120,2|2|10,1:0|1:0|0:0,0:0:0:0:
262,222,90797,1,2,2:0:0:0:
262,222,90990,2,0,P|230:243|212:267,1,60,2|2,3:2|2:0,0:0:0:0:
195,316,91377,2,0,P|165:332|124:337,1,60,2|2,2:0|3:2,0:0:0:0:
85,312,91764,1,2,2:0:0:0:
59,194,92152,1,10,0:0:0:0:
133,99,92539,1,2,2:0:0:0:
242,51,92926,6,0,P|263:111|244:189,2,120,2|2|10,1:0|1:0|0:0,0:0:0:0:
185,32,93893,2,0,P|149:42|119:63,1,60,2|2,2:0|2:0,0:0:0:0:
77,83,94281,2,0,P|64:153|61:221,1,120,2|2,3:2|3:2,0:0:0:0:
88,254,94861,2,0,P|135:241|167:235,1,60,2|2,3:2|2:0,0:0:0:0:
201,262,95248,1,10,0:0:0:0:
294,336,95635,1,2,3:2:0:0:
391,266,96022,6,0,P|418:288|444:378,2,120,0|2|10,3:2|2:0|0:0,0:0:0:0:
340,233,96990,2,0,P|328:197|325:167,1,60,2|2,2:0|3:2,0:0:0:0:
351,120,97377,2,0,P|345:84|322:52,1,60,2|0,2:0|0:0,0:0:0:0:
97,16,98345,1,10,0:0:0:0:
136,129,98732,1,10,0:0:0:0:
114,247,99119,6,0,P|53:249|-13:220,2,120,2|2|10,1:0|1:0|0:0,0:0:0:0:
161,209,100087,2,0,P|200:204|232:206,1,60,2|2,2:0|2:0,0:0:0:0:
268,241,100474,2,0,P|307:246|339:244,1,60,2|2,2:0|2:0,0:0:0:0:
382,216,100861,1,2,2:0:0:0:
382,216,101055,1,2,2:0:0:0:
501,221,101442,2,0,P|494:181|434:119,1,120,10|0,0:0|0:0,0:0:0:0:
322,120,102216,6,0,P|298:81|291:-4,2,120,2|2|10,1:0|1:0|0:0,0:0:0:0:
347,174,103184,2,0,P|349:206|339:242,1,60,2|2,2:0|3:2,0:0:0:0:
331,292,103571,2,0,P|309:316|277:334,1,60,2|2,2:0|2:0,0:0:0:0:
243,361,103958,1,2,3:2:0:0:
243,361,104152,1,2,2:0:0:0:
138,301,104539,2,0,P|133:261|152:179,1,120,10|0,0:0|0:0,0:0:0:0:
252,121,105313,5,2,2:0:0:0:
233,157,106861,6,0,B|229:191|320:80|294:143|273:124|343:140|343:140|407:149|332:107|405:104|443:127|481:144|487:143,1,270.000010299683,2|2,2:0|3:2,0:0:0:0:
440,254,108410,6,0,P|429:289|430:376,2,120,2|2|10,1:0|1:0|0:0,0:0:0:0:
478,208,109377,1,2,2:0:0:0:
474,147,109571,2,0,P|450:132|414:125,1,60,2|2,3:2|2:0,0:0:0:0:
365,152,109958,2,0,L|299:159,1,60,10|10,0:0|0:0,0:0:0:0:
256,192,110345,1,10,0:0:0:0:
201,298,110732,1,10,0:0:0:0:
307,353,111119,1,10,0:0:0:0:
256,192,111506,12,10,113829,0:0:0:0:
96,180,114603,6,0,B|59:146|59:146|115:144,1,90.0000034332277,2|2,2:0|2:0,0:0:0:0:
256,192,115377,12,10,116926,0:0:0:0:
416,180,117700,6,0,B|453:146|453:146|397:144,1,90.0000034332277,2|2,2:0|2:0,0:0:0:0:
256,192,118474,12,10,120022,0:0:0:0:
256,192,120603,12,10,123119,0:0:0:0:
119,73,123893,6,0,P|100:89|49:138,1,90.0000034332277,0|0,3:2|0:0,0:0:0:0:
45,223,124668,2,0,P|68:248|81:262,1,45.0000017166138,2|2,2:0|2:0,0:0:0:0:
119,266,125055,2,0,L|167:248,1,45.0000017166138,2|2,2:0|2:0,0:0:0:0:
203,234,125442,1,2,2:0:0:0:
287,265,125829,1,2,2:0:0:0:
356,210,126216,1,2,2:0:0:0:
441,239,126603,1,2,2:0:0:0:
487,161,126990,6,0,P|468:136|429:87,1,90.0000034332277,2|0,3:2|0:0,0:0:0:0:
389,75,127571,1,2,2:0:0:0:
389,75,127764,2,0,L|336:70,1,45.0000017166138,2|2,2:0|2:0,0:0:0:0:
302,89,128152,2,0,P|272:81|243:71,1,45.0000017166138,2|2,2:0|2:0,0:0:0:0:
213,78,128539,1,2,2:0:0:0:
130,114,128926,1,2,2:0:0:0:
93,196,129313,1,2,2:0:0:0:
157,258,129700,2,0,L|210:239,1,45.0000017166138,2|2,2:0|2:0,0:0:0:0:
236,216,130087,6,0,P|280:190|326:182,1,90.0000034332277,2|0,3:2|0:0,0:0:0:0:
369,255,130861,2,0,P|409:300|515:360,2,180.000006866455,2|2|2,2:0|2:0|2:0,0:0:0:0:
296,201,132797,1,2,2:0:0:0:
342,124,133184,6,0,P|400:115|435:104,1,90.0000034332277,2|0,3:2|0:0,0:0:0:0:
459,72,133764,1,2,2:0:0:0:
248,10,136281,6,0,P|258:50|268:138,1,120,2|2,1:0|1:0,0:0:0:0:
226,240,137055,2,0,P|151:257|-24:325,2,240,8|0|8,0:0|3:0|0:0,0:0:0:0:
339,278,138990,1,2,3:0:0:0:
439,212,139377,6,0,P|459:172|488:94,1,120,2|2,1:0|1:0,0:0:0:0:
470,43,139958,1,0,0:0:0:0:
470,43,140152,1,8,0:0:0:0:
361,94,140539,2,0,P|320:88|292:78,1,60,2|0,3:2|0:0,0:0:0:0:
256,43,140926,2,0,P|223:47|193:54,1,60,0|2,0:0|3:2,0:0:0:0:
140,72,141313,1,2,2:0:0:0:
78,174,141700,1,8,0:0:0:0:
164,257,142087,1,0,0:0:0:0:
278,221,142474,6,0,P|328:194|401:167,1,120,2|2,1:0|1:0,0:0:0:0:
493,116,143248,2,0,P|461:98|253:61,2,240,10|0|10,0:0|0:0|0:0,0:0:0:0:
508,235,145184,1,2,3:2:0:0:
408,301,145571,6,0,L|331:283,1,60,2|0,1:0|3:2,0:0:0:0:
293,264,145958,1,2,1:0:0:0:
182,311,146345,1,10,0:0:0:0:
86,238,146732,2,0,P|66:190|61:165,1,60,2|0,3:2|0:0,0:0:0:0:
108,142,147119,2,0,P|142:112|169:102,1,60,2|0,0:0|3:2,0:0:0:0:
213,117,147506,1,2,2:0:0:0:
320,82,147893,2,0,P|327:111|330:141,1,60,10|8,0:0|0:0,0:0:0:0:
307,197,148281,1,8,0:0:0:0:
317,316,148668,6,0,P|365:280|418:252,1,120,2|2,1:0|1:0,0:0:0:0:
447,135,149442,2,0,P|490:172|482:343,2,240,10|2|10,0:0|2:0|0:0,0:0:0:0:
328,115,151377,1,2,2:0:0:0:
239,195,151764,6,0,P|228:236|225:329,1,120,2|2,1:0|1:0,0:0:0:0:
336,354,152539,1,10,0:0:0:0:
446,307,152926,2,0,P|440:271|432:237,1,60,2|0,3:2|0:0,0:0:0:0:
475,203,153313,2,0,L|476:137,1,60,2|0,2:0|3:2,0:0:0:0:
433,100,153700,1,2,2:0:0:0:
327,157,154087,1,10,0:0:0:0:
219,104,154474,1,2,2:0:0:0:
256,192,154861,12,0,160861,0:0:0:0:
