osu file format v14

[General]
AudioFilename: audio.mp3
AudioLeadIn: 0
PreviewTime: 262585
Countdown: 0
SampleSet: Soft
StackLeniency: 0.7
Mode: 2
LetterboxInBreaks: 0
WidescreenStoryboard: 1

[Editor]
Bookmarks: 60092,120040
DistanceSpacing: 1.5
BeatDivisor: 4
GridSize: 32
TimelineZoom: 1.9

[Metadata]
Title:Boredom feat. Rex Orange Country & Anna of the North
TitleUnicode:Boredom feat. Rex Orange Country & Anna of the North
Artist:Tyler, The Creator
ArtistUnicode:Tyler, The Creator
Creator:-Joni-
Version:Boredom got a new best friend
Source:
Tags:Hip hop English Neo-Soul R&B Pop Rap Neo-Psychedelia Male Vocals Vocal Alternative Scum Flower Boy Okonma pkhg
BeatmapID:2772653
BeatmapSetID:1338487

[Difficulty]
HPDrainRate:5
CircleSize:5
OverallDifficulty:8.8
ApproachRate:8.8
SliderMultiplier:1.8
SliderTickRate:1

[Events]
//Background and Video events
0,0,"hna.jpg",0,0
//Break Periods
//Storyboard Layer 0 (Background)
//Storyboard Layer 1 (Fail)
//Storyboard Layer 2 (Pass)
//Storyboard Layer 3 (Foreground)
//Storyboard Layer 4 (Overlay)
//Storyboard Sound Samples

[TimingPoints]
88,377.358490566038,4,2,0,20,1,0
88,-100,4,2,0,20,0,0
2718,377.358490566038,4,2,0,20,1,0
2718,-100,4,2,0,20,0,0
5338,377.358490566038,4,2,0,20,1,0
5338,-100,4,2,0,20,0,0
6124,377.358490566038,4,2,0,20,1,0
6124,-100,4,2,0,20,0,0
6875,377.358490566038,4,2,0,20,1,0
6875,-100,4,2,0,20,0,0
7636,377.358490566038,4,2,0,20,1,0
7636,-100,4,2,0,20,0,0
8744,377.358490566038,4,2,0,20,1,0
8744,-100,4,2,0,20,0,0
9892,377.358490566038,4,2,0,20,1,0
9892,-100,4,2,0,20,0,0
11366,377.358490566038,4,2,0,20,1,0
11366,-100,4,2,0,20,0,0
12144,333.333333333333,4,2,0,20,1,0
12144,-100,4,2,0,20,0,0
12835,377.358490566038,4,2,0,20,1,0
12835,-100,4,2,0,20,0,0
13611,377.358490566038,4,2,0,20,1,0
13611,-100,4,2,0,20,0,0
14743,377.358490566038,4,2,0,20,1,0
15851,377.358490566038,4,2,0,20,1,0
15851,-100,4,2,0,20,0,0
18088,377.358490566038,4,2,0,20,1,0
18088,-100,4,2,0,20,0,0
18765,377.358490566038,4,2,0,20,1,0
18765,-100,4,2,0,20,0,0
19142,377.358490566038,4,2,0,20,1,0
20711,375,4,2,0,15,1,0
24084,375,4,2,0,30,1,0
24084,-100,4,2,0,30,0,0
24795,387.096774193548,4,2,0,30,1,0
24795,-100,4,2,0,30,0,0
27119,370.37037037037,4,2,0,30,1,0
27119,-100,4,2,0,30,0,0
30836,375,4,2,0,30,1,0
30836,-100,4,2,0,30,0,0
33086,370.37037037037,4,2,0,30,1,0
33086,-100,4,2,0,30,0,0
36807,375,4,2,0,30,1,0
36807,-100,4,2,0,30,0,0
39093,375,4,2,0,30,1,0
39093,-100,4,2,0,30,0,0
40593,357.142857142857,4,2,0,30,1,0
40593,-100,4,2,0,30,0,0
41664,375,4,2,0,30,1,0
41664,-100,4,2,0,30,0,0
42783,372.670807453416,4,2,0,30,1,0
42783,-100,4,2,0,30,0,0
43155,382.165605095541,4,2,0,30,1,0
43155,-100,4,2,0,30,0,0
48033,375,4,2,0,40,1,0
48033,-100,4,2,0,40,0,0
48783,382.165605095541,4,2,0,40,1,0
48783,-100,4,2,0,40,0,0
49547,389.61038961039,4,2,0,40,1,0
49547,-100,4,2,0,40,0,0
50691,-100,4,2,0,40,0,0
50939,375,4,2,0,40,1,0
50939,-100,4,2,0,40,0,0
52421,370.37037037037,4,2,0,40,1,0
52421,-100,4,2,0,40,0,0
53317,370.37037037037,4,2,0,40,1,0
53317,-100,4,2,0,40,0,0
54083,375,4,2,0,40,1,0
54083,-100,4,2,0,40,0,0
54833,379.746835443038,4,2,0,40,1,0
54833,-100,4,2,0,40,0,0
57111,372.670807453416,4,2,0,40,1,0
57111,-100,4,2,0,40,0,0
60797,368.098159509202,4,2,0,40,1,0
60797,-100,4,2,0,40,0,0
61533,394.736842105263,4,2,0,40,1,0
61533,-100,4,2,0,40,0,0
63873,379.746835443038,4,2,0,40,1,0
63873,-100,4,2,0,40,0,0
64632,363.636363636364,4,2,0,40,1,0
64632,-100,4,2,0,40,0,0
66141,368.098159509202,4,2,0,40,1,0
71278,375,4,2,0,40,1,0
71278,-100,4,2,0,40,0,0
72027,375,4,3,0,65,1,1
72027,-100,4,3,0,65,0,1
95920,348.837209302326,4,3,0,15,1,0
95920,-100,4,3,0,15,0,0
96268,-100,4,3,0,15,0,0
96617,379.746835443038,4,3,0,15,1,0
96617,-100,4,3,0,15,0,0
96996,-100,4,3,0,20,0,0
97372,372.670807453416,4,3,0,25,1,0
97372,-100,4,3,0,25,0,0
97744,-100,4,3,0,30,0,0
98102,375,4,3,0,35,1,0
98102,-100,4,3,0,35,0,0
98477,382.165605095541,4,3,0,40,1,0
98477,-100,4,3,0,40,0,0
99040,375,4,3,0,40,1,0
99040,-100,4,3,0,40,0,0
120250,375,4,3,0,40,1,0
120250,-76.9230769230769,4,3,0,40,0,0
120625,-100,4,3,0,40,0,0
120779,375,4,3,0,40,1,1
120779,-100,4,3,0,40,0,1
144042,375,4,3,0,40,1,0
144042,-100,4,3,0,40,0,0
150042,-100,4,3,0,40,0,0
154542,-100,4,3,0,40,0,0
155292,-100,4,3,0,40,0,0
162031,375,4,3,0,40,1,0
162406,-100,4,3,0,40,0,0
186031,-100,4,3,0,30,0,0
192039,375,4,3,0,20,1,0
192039,-100,4,3,0,20,0,0
198789,-100,4,3,0,40,0,0
209326,352.941176470588,4,3,0,40,1,0
210031,370.37037037037,4,3,0,40,1,0
210031,-100,4,3,0,50,0,0
211512,372.670807453416,4,3,0,50,1,0
212630,382.165605095541,4,3,0,50,1,0
213012,387.096774193548,4,3,0,50,1,0
214173,372.670807453416,4,3,0,50,1,0
215291,363.636363636364,4,3,0,50,1,0
215654,416.666666666667,4,3,0,50,1,0
216070,335.195530726257,4,3,0,50,1,0
216070,-100,4,3,0,50,0,0
216072,352.941176470588,4,3,0,50,1,0
216405,365.853658536585,4,3,0,50,1,0
216770,372.670807453416,4,3,0,50,1,0
216770,-100,4,3,0,50,0,0
216801,377.358490566038,4,3,0,50,1,0
217142,408.163265306122,4,3,0,50,1,0
217550,397.350993377483,4,3,0,50,1,0
217947,333.333333333333,4,3,0,50,1,0
218280,394.736842105263,4,3,0,20,1,0
218284,394.736842105263,4,3,0,20,1,0
218284,-100,4,3,0,20,0,0
219819,377.358490566038,4,3,0,20,1,0
219819,-100,4,3,0,20,0,0
220573,377.358490566038,4,3,0,20,1,0
222067,340.909090909091,4,3,0,20,1,0
222067,-100,4,3,0,20,0,0
222407,365.853658536585,4,3,0,20,1,0
222798,379.746835443038,4,3,0,20,1,0
222798,-100,4,3,0,20,0,0
224285,387.096774193548,4,3,0,20,1,0
224285,-100,4,3,0,20,0,0
225835,382.165605095541,4,3,0,20,1,0
225835,-100,4,3,0,20,0,0
228080,357.142857142857,4,3,0,20,1,0
228080,-100,4,3,0,20,0,0
228794,382.165605095541,4,3,0,20,1,0
228794,-100,4,3,0,20,0,0
229570,372.670807453416,4,3,0,15,1,0
229570,-100,4,3,0,15,0,0
230340,375,4,3,0,50,1,0
230340,-100,4,3,0,50,0,0
230688,372.670807453416,4,3,0,50,1,0
230688,-100,4,3,0,50,0,0
231061,379.746835443038,4,3,0,15,1,0
231061,-100,4,3,0,15,0,0
231820,-100,4,3,0,25,0,0
232579,392.156862745098,4,3,0,35,1,0
232579,-100,4,3,0,35,0,0
232971,375,4,3,0,35,1,0
233339,-100,4,3,0,45,0,0
233346,370.37037037037,4,3,0,45,1,0
234072,357.142857142857,4,3,0,50,1,0
234072,-100,4,3,0,50,0,0
234783,400,4,3,0,50,1,0
234783,-100,4,3,0,50,0,0
235572,375,4,3,0,50,1,0
235572,-100,4,3,0,50,0,0
236322,-100,4,3,0,15,0,0
237072,-100,4,3,0,15,0,0
237436,382.165605095541,4,3,0,25,1,0
237436,-100,4,3,0,25,0,0
237811,382.165605095541,4,3,0,25,1,0
237811,-100,4,3,0,25,0,0
238575,382.165605095541,4,3,0,35,1,0
238575,-100,4,3,0,35,0,0
239339,-100,4,3,0,45,0,0
240081,365.853658536585,4,3,0,50,1,0
240081,-100,4,3,0,50,0,0
241540,-100,4,3,0,40,0,0
242343,359.281437125748,4,3,0,40,1,0
243078,363.636363636364,4,3,0,50,1,0
243078,-100,4,3,0,50,0,0
243805,394.736842105263,4,3,0,50,1,0
243805,-100,4,3,0,50,0,0
244594,370.37037037037,4,3,0,50,1,0
244594,-100,4,3,0,50,0,0
245334,380.952380952381,4,3,0,50,1,0
245334,-100,4,3,0,50,0,0
245714,363.636363636364,4,3,0,50,1,0
245714,-100,4,3,0,50,0,0
246077,400,4,3,0,50,1,0
246077,-100,4,3,0,50,0,0
246831,419.58041958042,4,3,0,50,1,0
246831,-100,4,3,0,50,0,0
247590,387.096774193548,4,3,0,50,1,0
247590,-100,4,3,0,40,0,0
249130,363.636363636364,4,3,0,50,1,0
249130,-100,4,3,0,50,0,0
249848,384.615384615385,4,3,0,50,1,0
249848,-100,4,3,0,50,0,0
250232,410.958904109589,4,3,0,50,1,0
250642,389.61038961039,4,3,0,50,1,0
251380,382.165605095541,4,3,0,50,1,0
251380,-100,4,3,0,50,0,0
252109,357.142857142857,4,3,0,50,1,0
252109,-100,4,3,0,50,0,0
252826,363.636363636364,4,3,0,50,1,0
252826,-100,4,3,0,50,0,0
253595,375,4,3,0,50,1,0
253595,-100,4,3,0,40,0,0
255853,377.358490566038,4,3,0,50,1,0
255853,-100,4,3,0,50,0,0
256624,408.163265306122,4,3,0,50,1,0
256624,-100,4,3,0,50,0,0
257387,400,4,3,0,50,1,0
257387,-100,4,3,0,50,0,0
258085,375,4,3,0,30,1,0
263006,375,4,3,0,50,1,0
263006,-100,4,3,0,50,0,0
264115,375,4,3,0,65,1,1
264115,-100,4,3,0,65,0,1
288099,375,4,3,0,50,1,0
288099,-100,4,3,0,50,0,0

[Colours]
Combo1 : 255,255,128
Combo2 : 255,146,94

[HitObjects]
324,66,88,5,2,0:0:0:0:
127,65,465,1,0,0:0:0:0:
416,227,842,2,0,L|416:41,1,180,2|0,0:0|0:0,0:0:0:0:
133,56,1597,2,0,L|454:54,1,300,2|2,0:0|0:0,0:0:0:0:
148,117,2718,6,0,P|53:266|176:289,1,360,2|0,0:0|0:0,0:0:0:0:
386,67,3850,2,0,L|196:68,1,180,2|0,0:0|0:0,0:0:0:0:
384,331,4604,2,0,L|384:146,1,180
92,227,5338,2,0,L|291:227,1,180,2|2,0:0|0:0,0:0:0:0:
101,66,6124,6,0,P|43:131|120:151,1,180,2|0,0:0|0:0,0:0:0:0:
298,224,6875,2,0,B|99:224,1,180,2|0,0:0|0:0,0:0:0:0:
361,258,7636,2,0,P|428:226|317:71,1,300,2|2,0:0|0:0,0:0:0:0:
68,314,8744,6,0,P|70:137|215:51,1,360,2|0,0:0|0:0,0:0:0:0:
419,71,9892,2,0,L|211:72,1,180,2|0,0:0|0:0,0:0:0:0:
421,131,10646,2,0,L|227:131,1,180
64,96,11366,2,0,L|258:95,1,180
92,161,12144,6,0,L|75:348,1,180,2|0,0:0|0:0,0:0:0:0:
289,326,12835,2,0,L|299:111,1,180,2|0,0:0|0:0,0:0:0:0:
64,62,13611,2,0,L|264:62,2,180,2|0|2,0:0|0:0|0:0,0:0:0:0:
380,270,14743,6,0,P|467:203|309:53,1,360,2|0,0:0|0:0,0:0:0:0:
91,59,15851,2,0,L|91:266,1,180,2|0,0:0|0:0,0:0:0:0:
321,196,16605,2,0,L|322:12,1,180,2|0,0:0|0:0,0:0:0:0:
64,292,17360,2,0,L|64:92,1,180,2|0,0:0|0:0,0:0:0:0:
382,275,18088,6,0,P|407:170|270:109,1,270,2|0,0:0|0:0,0:0:0:0:
69,96,18765,2,0,L|279:98,2,180,2|0|2,0:0|0:0|0:0,0:0:0:0:
331,80,19897,2,0,P|406:104|404:222,1,180,2|0,0:0|0:0,0:0:0:0:
97,258,20711,1,2,0:0:0:0:
256,192,21086,12,0,23336,0:0:0:0:
124,288,24084,6,0,P|69:230|141:157,1,180,2|0,0:0|0:0,0:0:0:0:
362,100,24795,2,0,L|170:100,1,180,2|0,0:0|0:0,0:0:0:0:
310,169,25375,1,2,0:0:0:0:
441,226,25569,2,0,P|482:176|395:119,1,180,2|0,0:0|0:0,0:0:0:0:
128,228,26343,1,0,0:0:0:0:
356,227,26730,1,0,0:0:0:0:
67,328,27119,6,0,L|67:137,1,180,2|0,0:0|0:0,0:0:0:0:
224,158,27674,1,2,0:0:0:0:
351,97,27859,2,0,L|161:97,1,180,2|0,0:0|0:0,0:0:0:0:
318,253,28415,1,2,0:0:0:0:
192,256,28600,2,0,L|192:47,1,180,2|0,0:0|0:0,0:0:0:0:
353,126,29156,1,2,0:0:0:0:
192,76,29341,2,0,L|383:76,2,180,2|0|0,0:0|0:0|0:0,0:0:0:0:
424,51,30836,6,0,B|427:270,1,180,2|0,0:0|0:0,0:0:0:0:
321,224,31398,1,2,0:0:0:0:
189,63,31586,2,0,B|381:63,2,180,2|0|0,0:0|0:0|0:0,0:0:0:0:
381,330,32711,1,0,0:0:0:0:
98,289,33086,6,0,L|288:289,1,180,2|0,0:0|0:0,0:0:0:0:
136,230,33641,1,2,0:0:0:0:
349,68,33826,2,0,L|127:68,1,180,2|0,0:0|0:0,0:0:0:0:
312,129,34382,1,2,0:0:0:0:
160,318,34567,2,0,L|160:112,1,180,2|0,0:0|0:0,0:0:0:0:
161,37,35123,1,2,0:0:0:0:
322,221,35308,2,0,L|105:221,2,180,2|0|0,0:0|0:0|0:0,0:0:0:0:
96,328,36807,6,0,L|96:135,1,180,2|0,0:0|0:0,0:0:0:0:
257,160,37369,1,2,0:0:0:0:
415,269,37557,2,0,L|416:75,1,180,2|0,0:0|0:0,0:0:0:0:
160,99,38307,1,0,0:0:0:0:
446,96,38682,1,0,0:0:0:0:
105,96,39093,6,0,L|102:318,1,180,2|0,0:0|0:0,0:0:0:0:
256,225,39655,1,2,0:0:0:0:
90,159,39843,2,0,L|288:158,1,180,2|0,0:0|0:0,0:0:0:0:
128,95,40405,1,2,0:0:0:0:
318,322,40593,2,0,P|375:268|303:212,1,180,2|0,0:0|0:0,0:0:0:0:
132,216,41128,2,0,P|70:185|145:135,1,180,2|0,0:0|0:0,0:0:0:0:
325,61,41664,5,2,0:0:0:0:
145,61,42039,2,0,P|85:125|158:159,1,180
451,222,42783,1,0,0:0:0:0:
259,224,43155,2,0,L|61:224,2,180,2|2|2,0:0|0:0|0:0,0:0:0:0:
417,224,44110,1,0,0:0:0:0:
224,160,44301,1,2,0:0:0:0:
417,161,44683,5,2,0:0:0:0:
256,192,45065,12,0,47740,0:0:0:0:
290,226,48033,6,0,L|95:226,1,180,2|0,0:0|0:0,0:0:0:0:
289,160,48783,2,0,L|289:59,1,90,2|0,0:0|0:0,0:0:0:0:
449,157,49165,2,0,L|449:46,1,90,2|0,0:0|0:0,0:0:0:0:
191,258,49547,2,0,L|378:258,2,180,2|0|2,0:0|0:0|0:0,0:0:0:0:
386,204,50939,6,0,P|437:129|377:101,1,180,2|0,0:0|0:0,0:0:0:0:
226,95,51501,1,0,0:0:0:0:
385,328,51876,1,0,0:0:0:0:
159,259,52421,6,0,P|100:222|174:172,1,180,2|0,0:0|0:0,0:0:0:0:
322,159,52976,1,0,0:0:0:0:
127,60,53317,2,0,L|307:60,1,180
99,335,54083,6,0,L|285:335,1,180,2|0,0:0|0:0,0:0:0:0:
95,226,54645,1,0,0:0:0:0:
256,225,54833,2,0,L|256:115,1,90,2|0,0:0|0:0,0:0:0:0:
97,90,55212,2,0,L|97:181,1,90,2|0,0:0|0:0,0:0:0:0:
354,94,55592,2,0,L|165:94,2,180,2|0|2,0:0|0:0|0:0,0:0:0:0:
191,193,56731,1,0,0:0:0:0:
449,223,57111,6,0,L|255:223,1,180,2|0,0:0|0:0,0:0:0:0:
451,341,57856,2,0,L|450:155,1,180
179,162,58601,6,0,L|385:162,1,180,2|0,0:0|0:0,0:0:0:0:
92,242,59347,2,0,L|93:52,1,180
356,131,60092,6,0,L|162:131,1,180,2|0,0:0|0:0,0:0:0:0:
321,333,60797,2,0,L|321:223,1,90,2|0,0:0|0:0,0:0:0:0:
164,227,61165,2,0,L|62:226,1,90,2|0,0:0|0:0,0:0:0:0:
351,160,61533,1,2,0:0:0:0:
227,63,61927,2,0,L|413:62,1,180,2|0,0:0|0:0,0:0:0:0:
118,214,62717,6,0,P|63:185|172:-6,1,360,2|0,0:0|0:0,0:0:0:0:
384,154,63873,2,0,L|358:349,1,180,2|0,0:0|0:0,0:0:0:0:
191,198,64632,2,0,L|191:13,1,180,2|0,0:0|0:0,0:0:0:0:
325,222,65359,2,0,L|117:222,1,180
256,192,66141,12,0,70926,0:0:0:0:
269,330,71278,6,0,P|372:314|407:113,1,315,4|0,0:0|0:0,0:0:0:0:
229,98,72027,6,0,L|132:98,1,90,4|0,0:0|0:0,0:0:0:0:
321,94,72402,1,0,0:0:0:0:
385,223,72589,1,4,0:0:0:0:
127,224,72777,2,0,L|314:224,1,180,2|0,1:2|0:0,0:0:0:0:
190,96,73339,1,0,0:0:0:0:
385,184,73527,6,0,L|480:170,2,90,2|0|0,0:2|0:0|0:0,0:0:0:0:
225,158,74089,1,4,0:0:0:0:
483,285,74277,2,0,L|443:188,1,90,0|0,1:0|0:0,0:0:0:0:
316,58,74652,2,0,L|420:58,1,90,4|0,0:0|0:0,0:0:0:0:
130,223,75027,6,0,P|74:159|140:113,1,180,4|0,0:0|0:0,0:0:0:0:
257,123,75589,1,4,0:0:0:0:
62,58,75777,1,2,1:2:0:0:
191,152,75964,2,0,L|190:38,1,90
63,159,76339,1,4,0:0:0:0:
320,321,76527,6,0,P|378:289|398:150,1,180,2|0,0:2|0:0,0:0:0:0:
144,323,77089,1,4,0:0:0:0:
47,261,77277,1,0,1:0:0:0:
144,206,77464,1,0,0:0:0:0:
318,315,77652,2,0,L|202:227,1,135,2|0,0:2|0:0,0:0:0:0:
385,130,78027,5,4,0:0:0:0:
386,224,78214,1,0,0:0:0:0:
252,225,78402,2,0,L|128:225,1,90,0|4,0:0|0:0,0:0:0:0:
450,204,78777,2,0,L|256:203,1,180,2|0,1:2|0:0,0:0:0:0:
416,132,79339,1,0,0:2:0:0:
162,287,79527,5,2,0:2:0:0:
62,241,79714,1,0,0:0:0:0:
189,161,79902,1,0,0:0:0:0:
62,94,80089,1,4,0:0:0:0:
325,268,80277,2,0,L|306:158,1,90,0|0,1:0|0:0,0:0:0:0:
159,158,80652,2,0,L|138:39,1,90,4|0,0:0|0:0,0:0:0:0:
322,126,81027,6,0,L|433:126,1,90,4|0,0:0|0:0,0:0:0:0:
258,127,81402,1,0,0:0:0:0:
130,128,81589,1,4,0:0:0:0:
378,124,81777,2,0,L|262:124,1,90,0|0,1:0|0:0,0:0:0:0:
445,66,82152,1,0,0:0:0:0:
378,124,82339,1,0,0:0:0:0:
126,290,82527,6,0,L|126:179,1,90,0|0,0:0|0:0,0:0:0:0:
258,220,82902,1,0,0:0:0:0:
128,93,83089,1,4,0:0:0:0:
387,207,83277,2,0,L|386:93,1,90,0|4,1:0|0:0,0:0:0:0:
127,322,83652,2,0,L|286:320,1,135,4|0,0:2|0:0,0:0:0:0:
100,219,84027,6,0,L|89:105,1,90,2|2,1:2|0:2,0:0:0:0:
261,160,84402,2,0,L|145:158,1,90,2|2,0:2|0:2,0:0:0:0:
412,64,84777,1,2,1:2:0:0:
417,161,84964,1,0,0:0:0:0:
252,63,85152,2,0,L|360:63,1,90,2|0,0:2|0:0,0:0:0:0:
191,122,85527,6,0,L|155:10,1,90
258,63,85902,1,0,0:0:0:0:
356,63,86089,1,4,0:0:0:0:
82,45,86277,2,0,L|187:45,1,90,2|0,1:2|0:0,0:0:0:0:
314,127,86652,2,0,L|467:127,1,135,4|0,0:0|0:0,0:0:0:0:
215,174,87027,6,0,L|217:63,1,90,4|0,0:0|0:0,0:0:0:0:
318,63,87402,1,0,0:0:0:0:
415,95,87589,1,4,0:0:0:0:
153,188,87777,2,0,L|54:187,1,90,0|0,1:2|0:0,0:0:0:0:
259,191,88152,2,0,L|268:99,1,90,0|0,0:0|0:0,0:0:0:0:
91,94,88527,5,0,0:0:0:0:
220,93,88714,1,0,0:0:0:0:
93,190,88902,2,0,L|183:190,1,90,0|4,0:0|0:0,0:0:0:0:
352,93,89277,1,0,1:0:0:0:
183,190,89464,1,4,0:0:0:0:
439,158,89652,2,0,P|416:92|351:89,1,135,4|0,0:2|0:0,0:0:0:0:
154,332,90027,6,0,L|155:233,1,90,4|0,0:0|0:0,0:0:0:0:
289,252,90402,1,0,0:0:0:0:
159,125,90589,1,4,0:0:0:0:
410,272,90777,2,0,L|410:154,1,90,0|0,1:0|0:0,0:0:0:0:
291,156,91152,2,0,L|191:157,2,90,0|0|0,0:0|0:0|0:0,0:0:0:0:
129,93,91714,5,0,0:0:0:0:
257,53,91902,2,0,L|147:52,1,90,0|4,0:0|0:0,0:0:0:0:
431,239,92277,2,0,L|492:162,2,90,0|0|4,1:0|0:0|0:0,0:0:0:0:
354,246,92839,1,0,0:0:0:0:
95,95,93027,5,4,0:0:0:0:
222,98,93214,1,0,0:0:0:0:
92,321,93402,2,0,L|92:225,1,90,0|4,0:0|0:0,0:0:0:0:
354,64,93777,2,0,L|467:63,1,90,0|0,1:0|0:0,0:0:0:0:
247,115,94152,1,0,0:0:0:0:
134,116,94339,1,0,0:0:0:0:
386,298,94527,6,0,L|378:179,1,90,0|0,0:0|0:0,0:0:0:0:
268,326,94902,2,0,L|386:327,1,90,0|4,0:0|0:0,0:0:0:0:
76,332,95277,2,0,L|76:217,1,90,0|4,1:0|0:0,0:0:0:0:
166,332,95652,2,0,L|66:332,1,90,4|0,0:2|0:0,0:0:0:0:
229,308,95920,6,0,L|252:199,1,90
123,199,96268,2,0,L|108:98,1,90
260,63,96617,2,0,L|145:59,1,90
306,196,96996,6,0,L|312:85,1,90
190,285,97372,2,0,L|300:276,1,90
159,207,97744,2,0,L|142:95,1,90
286,30,98102,2,0,P|229:30|160:30,1,90
328,140,98477,5,0,0:0:0:0:
261,133,98668,1,0,0:0:0:0:
191,128,98859,1,0,0:0:0:0:
442,260,99040,6,0,L|451:155,1,90,4|0,0:0|0:0,0:0:0:0:
278,268,99415,1,0,0:0:0:0:
138,159,99602,1,4,0:0:0:0:
382,94,99790,2,0,L|280:80,1,90,0|0,1:0|0:0,0:0:0:0:
162,154,100165,2,0,L|153:45,1,90,0|0,0:0|0:0,0:0:0:0:
286,163,100540,6,0,L|403:163,1,90,0|0,0:0|0:0,0:0:0:0:
247,56,100915,1,0,0:0:0:0:
373,50,101102,1,4,0:0:0:0:
105,158,101290,2,0,L|98:63,1,90,0|4,1:0|0:0,0:0:0:0:
290,101,101665,2,0,L|125:103,1,135,4|0,0:2|0:0,0:0:0:0:
317,204,102040,6,0,P|384:169|392:60,1,180,4|0,0:0|0:0,0:0:0:0:
316,66,102602,1,4,0:0:0:0:
68,93,102790,2,0,L|184:91,1,90,0|0,1:0|0:0,0:0:0:0:
286,94,103165,1,0,0:0:0:0:
166,270,103352,2,0,L|256:267,1,90
352,178,103727,6,0,L|255:175,1,90
127,63,104102,1,4,0:0:0:0:
383,63,104290,1,0,1:0:0:0:
369,223,104477,1,0,0:0:0:0:
127,327,104665,2,0,L|239:319,1,90,4|0,0:0|0:0,0:0:0:0:
476,221,105040,6,0,L|264:214,1,180,4|0,0:0|0:0,0:0:0:0:
383,124,105602,1,4,0:0:0:0:
132,155,105790,2,0,P|63:114|74:5,1,180,0|0,1:0|0:0,0:0:0:0:
142,27,106352,1,0,0:0:0:0:
384,37,106540,2,0,L|485:38,2,90,0|0|0,0:0|0:0|0:0,0:0:0:0:
473,37,107102,5,4,0:0:0:0:
225,160,107290,2,0,L|123:160,1,90,0|4,1:0|0:0,0:0:0:0:
287,160,107665,2,0,P|351:134|357:60,1,135,4|0,0:2|0:0,0:0:0:0:
212,72,108040,2,0,L|110:65,1,90,4|0,0:0|0:0,0:0:0:0:
259,30,108415,1,0,0:0:0:0:
385,29,108602,1,4,0:0:0:0:
130,314,108790,6,0,L|128:214,1,90,0|0,1:0|0:0,0:0:0:0:
291,227,109165,2,0,L|287:125,1,90
109,179,109540,1,0,0:0:0:0:
190,177,109727,2,0,L|300:177,1,90
127,93,110102,1,4,0:0:0:0:
387,156,110290,2,0,L|399:52,1,90,0|0,1:0|0:0,0:0:0:0:
143,337,110665,2,0,L|38:331,1,90,4|0,0:0|0:0,0:0:0:0:
303,335,111040,6,0,L|503:314,1,180,4|0,0:0|0:0,0:0:0:0:
388,249,111602,1,4,0:0:0:0:
124,312,111790,2,0,P|67:280|82:166,1,180,0|0,1:0|0:0,0:0:0:0:
157,180,112352,1,0,0:0:0:0:
399,327,112540,2,0,L|497:325,2,90,0|0|0,0:0|0:0|0:0,0:0:0:0:
219,320,113102,1,4,0:0:0:0:
473,179,113290,2,0,L|477:60,1,90,0|4,1:0|0:0,0:0:0:0:
289,317,113665,2,0,L|142:314,1,135,4|0,0:2|0:0,0:0:0:0:
338,217,114040,6,0,P|393:201|427:73,1,180,4|0,0:0|0:0,0:0:0:0:
353,95,114602,1,4,0:0:0:0:
77,330,114790,2,0,L|70:225,1,90,0|0,1:0|0:0,0:0:0:0:
217,256,115165,1,0,0:0:0:0:
66,138,115352,1,0,0:0:0:0:
209,139,115540,2,0,L|334:132,1,90,0|0,0:0|0:0,0:0:0:0:
102,60,115915,2,0,L|207:52,1,90,0|4,0:0|0:0,0:0:0:0:
450,62,116290,6,0,L|333:52,1,90,0|4,1:0|0:0,0:0:0:0:
468,130,116665,1,4,0:0:0:0:
335,127,116852,1,0,0:0:0:0:
92,300,117040,2,0,L|297:299,1,180,4|0,0:0|0:0,0:0:0:0:
92,197,117602,1,4,0:0:0:0:
348,297,117790,2,0,P|421:217|381:147,1,180,0|0,1:0|0:0,0:0:0:0:
290,126,118352,1,0,0:0:0:0:
125,84,118540,6,0,P|46:134|71:219,1,180,0|0,0:0|0:0,0:0:0:0:
139,201,119102,1,4,0:0:0:0:
402,311,119290,2,0,L|414:217,1,90,0|0,1:0|0:0,0:0:0:0:
149,162,119665,2,0,L|139:55,1,90,4|0,0:2|0:0,0:0:0:0:
384,330,120250,6,0,L|113:325,1,233.999989288331,4|0,1:3|0:0,0:0:0:0:
360,248,120779,6,0,L|374:135,1,90,2|0,1:2|0:0,0:0:0:0:
204,124,121154,2,0,L|86:106,1,90,0|0,0:0|0:0,0:0:0:0:
367,112,121529,2,0,L|359:1,1,90,2|0,0:2|0:0,0:0:0:0:
157,34,121904,1,0,0:0:0:0:
82,151,122091,1,4,0:0:0:0:
356,130,122279,1,0,1:0:0:0:
277,250,122466,1,0,0:0:0:0:
38,335,122654,2,0,L|160:335,1,90,4|0,0:0|0:0,0:0:0:0:
369,268,123029,6,0,P|457:238|432:140,1,180,4|0,0:0|0:0,0:0:0:0:
366,157,123591,1,4,0:0:0:0:
110,67,123779,2,0,L|314:55,1,180,2|0,1:2|0:0,0:0:0:0:
197,159,124341,1,0,0:0:0:0:
442,337,124529,2,0,L|450:138,1,180,2|0,0:2|0:0,0:0:0:0:
203,342,125091,1,4,0:0:0:0:
446,343,125279,1,0,1:0:0:0:
322,285,125466,1,4,0:0:0:0:
324,126,125654,1,4,0:2:0:0:
448,64,125841,1,0,0:0:0:0:
194,324,126029,6,0,L|80:321,1,90,4|0,0:0|0:0,0:0:0:0:
282,103,126404,1,0,0:0:0:0:
326,37,126591,1,4,0:0:0:0:
84,42,126779,2,0,L|285:31,1,180,2|0,1:2|0:0,0:0:0:0:
159,123,127341,1,0,0:0:0:0:
404,244,127529,2,0,L|414:131,1,90,2|0,0:2|0:0,0:0:0:0:
144,216,127904,1,0,0:0:0:0:
305,112,128091,1,4,0:0:0:0:
67,66,128279,6,0,L|179:55,1,90,0|0,1:0|0:0,0:0:0:0:
403,49,128654,2,0,L|297:44,1,90,4|0,0:0|0:0,0:0:0:0:
55,318,129029,2,0,P|70:246|164:203,1,180,4|0,0:0|0:0,0:0:0:0:
237,202,129591,1,4,0:0:0:0:
487,59,129779,2,0,L|278:58,1,180,2|0,1:2|0:0,0:0:0:0:
190,60,130341,1,0,0:0:0:0:
471,273,130529,6,0,P|458:201|350:162,1,180,2|0,0:2|0:0,0:0:0:0:
127,158,131091,1,4,0:0:0:0:
288,158,131279,1,0,1:0:0:0:
205,62,131466,1,0,0:0:0:0:
373,349,131654,2,0,L|222:339,1,135,4|0,0:2|0:0,0:0:0:0:
386,161,132029,6,0,L|463:99,1,90,2|2,1:2|0:2,0:0:0:0:
333,129,132404,2,0,L|438:124,1,90,2|2,0:2|0:2,0:0:0:0:
167,260,132779,2,0,P|95:254|79:143,1,180,2|2,1:2|0:2,0:0:0:0:
142,164,133341,1,0,0:0:0:0:
397,299,133529,2,0,P|456:273|460:157,1,180,0|0,0:0|0:0,0:0:0:0:
387,170,134091,1,4,0:0:0:0:
135,232,134279,2,0,L|126:122,1,90,2|0,1:2|0:0,0:0:0:0:
295,165,134654,2,0,L|405:155,1,90,4|0,0:0|0:0,0:0:0:0:
143,159,135029,6,0,P|84:96|85:5,1,180,4|0,0:0|0:0,0:0:0:0:
217,62,135591,1,4,0:0:0:0:
460,64,135779,2,0,L|271:57,1,180,0|0,1:0|0:0,0:0:0:0:
379,26,136341,1,4,0:0:0:0:
141,168,136529,6,0,L|358:151,1,180
72,118,137091,1,4,0:0:0:0:
171,107,137279,1,0,1:0:0:0:
262,98,137466,1,0,0:0:0:0:
440,139,137654,2,0,L|450:31,1,90,4|0,0:2|0:0,0:0:0:0:
191,317,138029,6,0,L|88:312,1,90,4|0,0:0|0:0,0:0:0:0:
359,182,138404,2,0,L|138:170,1,180,0|0,0:0|1:0,0:0:0:0:
286,65,138966,1,0,0:0:0:0:
162,320,139154,2,0,L|149:208,1,90,0|0,0:0|0:0,0:0:0:0:
389,188,139529,2,0,L|281:183,1,90,0|0,0:0|0:0,0:0:0:0:
144,132,139904,2,0,L|159:29,1,90,0|4,0:0|0:0,0:0:0:0:
415,64,140279,5,0,1:0:0:0:
391,300,140466,1,0,0:0:0:0:
151,229,140654,2,0,L|49:230,1,90,4|0,0:0|0:0,0:0:0:0:
225,226,141029,2,0,L|230:123,1,90,4|0,0:0|0:0,0:0:0:0:
93,127,141404,1,0,0:0:0:0:
189,59,141591,1,4,0:0:0:0:
445,161,141779,6,0,L|435:42,1,90,0|0,1:0|0:0,0:0:0:0:
293,60,142154,2,0,L|170:57,1,90,0|0,0:0|0:0,0:0:0:0:
327,59,142529,1,0,0:0:0:0:
398,127,142716,1,0,0:0:0:0:
256,321,142904,2,0,L|368:323,1,90,0|4,0:0|0:0,0:0:0:0:
107,313,143279,6,0,L|98:202,1,90,0|0,1:0|0:0,0:0:0:0:
341,223,143654,2,0,P|418:223|413:160,1,135,4|0,0:2|0:0,0:0:0:0:
204,216,144042,2,0,L|200:85,1,90,4|0,0:0|0:0,0:0:0:0:
363,121,144417,1,0,0:0:0:0:
204,89,144604,1,4,0:0:0:0:
454,47,144792,6,0,L|242:40,1,180,0|0,1:0|0:0,0:0:0:0:
387,122,145354,1,0,0:0:0:0:
129,97,145542,2,0,L|280:97,2,135,0|0|4,0:0|0:0|0:0,0:0:0:0:
419,190,146292,2,0,L|426:70,1,90,0|0,1:0|0:0,0:0:0:0:
260,91,146667,2,0,L|156:92,1,90,4|0,0:0|0:0,0:0:0:0:
415,130,147042,6,0,L|294:130,1,90,4|0,0:0|0:0,0:0:0:0:
448,62,147417,1,0,0:0:0:0:
318,63,147604,1,4,0:0:0:0:
63,227,147792,2,0,L|161:227,1,90,0|0,1:0|0:0,0:0:0:0:
334,225,148167,2,0,L|435:225,1,90
248,178,148542,2,0,L|354:178,1,90
95,123,148917,1,0,0:0:0:0:
96,318,149104,1,0,0:0:0:0:
385,163,150042,6,0,L|386:61,1,90,4|0,0:0|0:0,0:0:0:0:
255,96,150417,1,0,0:0:0:0:
385,73,150604,1,4,0:0:0:0:
128,60,150792,2,0,L|255:59,1,90,0|0,1:0|0:0,0:0:0:0:
350,169,151167,2,0,L|387:72,1,90,0|0,0:0|0:0,0:0:0:0:
252,158,151542,2,0,L|145:158,2,90,0|0|0,0:0|0:0|0:0,0:0:0:0:
136,158,152104,1,4,0:0:0:0:
384,158,152292,6,0,P|395:103|284:48,1,180,0|4,1:0|0:0,0:0:0:0:
160,96,152854,1,0,0:0:0:0:
414,334,153042,2,0,L|414:232,1,90,4|0,0:0|0:0,0:0:0:0:
288,222,153417,1,0,0:0:0:0:
162,224,153604,1,4,0:0:0:0:
350,95,153792,6,0,L|462:95,1,90,0|0,1:0|0:0,0:0:0:0:
255,62,154167,2,0,L|264:179,1,90,0|0,0:0|0:0,0:0:0:0:
456,190,154542,2,0,P|444:118|330:91,1,180
191,93,155104,1,4,0:0:0:0:
450,61,155292,2,0,L|341:61,1,90,0|0,1:0|0:0,0:0:0:0:
228,60,155667,2,0,P|162:80|146:155,1,135,4|0,0:2|0:0,0:0:0:0:
321,257,156042,6,0,P|397:245|406:145,1,180,4|0,0:0|0:0,0:0:0:0:
344,154,156604,1,4,0:0:0:0:
157,61,156792,2,0,L|375:61,1,180,0|0,1:0|0:0,0:0:0:0:
224,124,157354,1,0,0:0:0:0:
396,342,157542,6,0,P|461:288|454:195,1,180
383,195,158104,1,4,0:0:0:0:
112,271,158292,2,0,P|59:208|134:151,1,180,0|4,1:0|0:0,0:0:0:0:
268,96,158854,1,0,0:0:0:0:
404,26,159042,1,4,0:0:0:0:
325,29,159229,1,0,0:0:0:0:
189,61,159417,6,0,L|71:60,1,90,0|4,0:0|0:0,0:0:0:0:
385,158,159792,2,0,L|279:158,1,90,0|0,1:0|0:0,0:0:0:0:
159,159,160167,2,0,L|158:264,1,90,0|0,0:0|0:0,0:0:0:0:
284,229,160542,2,0,L|403:229,2,90,0|0|0,0:0|0:0|0:0,0:0:0:0:
160,224,161104,1,4,0:0:0:0:
415,161,161292,6,0,L|305:160,1,90,0|0,1:0|0:0,0:0:0:0:
160,339,161667,2,0,P|107:309|116:253,1,90,4|0,0:2|0:0,0:0:0:0:
344,320,162031,2,0,L|341:221,1,90,4|0,0:0|0:0,0:0:0:0:
193,93,162406,1,0,0:0:0:0:
126,256,162593,1,4,0:0:0:0:
378,289,162781,2,0,L|486:289,1,90,0|0,1:0|0:0,0:0:0:0:
288,224,163156,1,0,0:0:0:0:
125,225,163343,1,0,0:0:0:0:
371,130,163531,6,0,L|313:28,1,90,0|0,0:0|0:0,0:0:0:0:
190,26,163906,1,0,0:0:0:0:
354,31,164093,1,4,0:0:0:0:
100,94,164281,2,0,L|214:94,1,90,0|0,1:0|0:0,0:0:0:0:
352,157,164656,2,0,L|361:41,1,90,4|0,0:0|0:0,0:0:0:0:
116,331,165031,6,0,L|238:322,1,90,4|0,0:0|0:0,0:0:0:0:
379,292,165406,2,0,L|404:188,1,90,0|4,0:0|0:0,0:0:0:0:
157,158,165781,2,0,P|88:130|156:79,1,180,0|0,1:0|0:0,0:0:0:0:
258,61,166343,1,0,0:0:0:0:
156,65,166531,2,0,L|52:65,1,90,0|0,0:0|0:0,0:0:0:0:
197,122,166906,2,0,L|95:122,1,90,0|4,0:0|0:0,0:0:0:0:
352,122,167281,2,0,L|353:12,1,90,0|4,1:0|0:0,0:0:0:0:
188,125,167656,2,0,L|188:9,1,90,4|0,0:2|0:0,0:0:0:0:
429,34,168031,6,0,L|219:34,1,180,4|0,0:0|0:0,0:0:0:0:
386,98,168593,1,4,0:0:0:0:
129,126,168781,2,0,L|117:21,1,90,0|0,1:0|0:0,0:0:0:0:
249,56,169156,2,0,L|373:56,1,90,0|0,0:0|0:0,0:0:0:0:
128,60,169531,1,0,0:0:0:0:
257,127,169718,1,0,0:0:0:0:
95,293,169906,2,0,L|73:185,1,90,0|4,0:0|0:0,0:0:0:0:
318,222,170281,2,0,L|417:218,1,90,0|0,1:0|0:0,0:0:0:0:
157,158,170656,6,0,L|148:56,1,90,4|0,0:0|0:0,0:0:0:0:
413,160,171031,2,0,P|466:138|389:86,1,180,4|0,0:0|0:0,0:0:0:0:
250,64,171593,1,4,0:0:0:0:
413,160,171781,2,0,P|466:138|389:86,1,180,0|0,1:0|0:0,0:0:0:0:
163,95,172343,5,0,0:0:0:0:
287,94,172531,2,0,L|393:94,2,90
163,95,173093,1,4,0:0:0:0:
418,212,173281,2,0,L|418:96,1,90,0|0,1:0|0:0,0:0:0:0:
158,316,173656,2,0,P|164:256|244:234,1,135,4|0,0:2|0:0,0:0:0:0:
387,95,174031,6,0,L|181:96,1,180,4|0,0:0|0:0,0:0:0:0:
350,30,174593,1,4,0:0:0:0:
105,341,174781,2,0,L|97:227,1,90,0|0,1:0|0:0,0:0:0:0:
226,257,175156,1,0,0:0:0:0:
96,97,175343,1,0,0:0:0:0:
345,124,175531,6,0,L|446:124,1,90,0|0,0:0|0:0,0:0:0:0:
224,127,175906,2,0,L|120:127,1,90,0|4,0:0|0:0,0:0:0:0:
387,344,176281,2,0,L|479:340,2,90,0|0|4,1:0|0:0|0:0,0:0:0:0:
222,321,176843,1,0,0:0:0:0:
463,79,177031,6,0,L|249:78,1,180,4|0,0:0|0:0,0:0:0:0:
387,174,177593,1,4,0:0:0:0:
148,158,177781,2,0,B|58:160|58:160|80:58,1,180,0|0,1:0|0:0,0:0:0:0:
192,61,178343,1,0,0:0:0:0:
438,336,178531,2,0,P|471:249|416:156,1,180,0|0,0:0|0:0,0:0:0:0:
353,157,179093,1,4,0:0:0:0:
93,198,179281,1,0,1:0:0:0:
185,197,179468,1,4,0:0:0:0:
272,197,179656,1,4,0:2:0:0:
160,92,179843,1,0,0:0:0:0:
415,62,180031,6,0,L|297:53,1,90,4|0,0:0|0:0,0:0:0:0:
191,60,180406,1,0,0:0:0:0:
320,62,180593,1,4,0:0:0:0:
65,132,180781,2,0,L|168:132,1,90,0|0,1:0|0:0,0:0:0:0:
289,130,181156,2,0,L|296:250,1,90
162,341,181531,6,0,L|161:242,1,90,0|0,0:0|0:0,0:0:0:0:
288,254,181906,1,0,0:0:0:0:
159,94,182093,1,4,0:0:0:0:
418,158,182281,2,0,L|423:51,1,90,0|0,1:0|0:0,0:0:0:0:
170,333,182656,2,0,L|163:224,1,90,4|0,0:0|0:0,0:0:0:0:
423,203,183031,6,0,L|217:208,1,180,4|0,0:0|0:0,0:0:0:0:
357,128,183593,1,4,0:0:0:0:
94,312,183781,2,0,L|83:198,1,90,0|0,1:0|0:0,0:0:0:0:
221,230,184156,1,0,0:0:0:0:
347,233,184343,1,0,0:0:0:0:
91,197,184531,5,0,0:0:0:0:
350,158,186031,5,0,0:0:0:0:
158,160,186406,1,2,0:2:0:0:
350,158,186781,1,2,0:2:0:0:
161,61,187531,1,0,0:0:0:0:
418,60,187906,1,0,0:0:0:0:
256,192,188656,12,0,191656,0:0:0:0:
159,159,192039,6,0,P|101:98|176:61,1,180,0|0,0:0|0:0,0:0:0:0:
325,65,192789,1,2,0:2:0:0:
160,286,193351,1,0,0:0:0:0:
340,287,193539,2,0,L|341:87,1,180,2|0,0:2|0:0,0:0:0:0:
192,62,194289,1,0,0:0:0:0:
352,62,194664,5,0,0:0:0:0:
165,232,195039,2,0,L|366:230,1,180,2|0,0:2|0:0,0:0:0:0:
191,127,195601,1,0,0:0:0:0:
319,159,195789,2,0,P|375:105|305:43,1,180,2|0,0:2|0:0,0:0:0:0:
190,61,196351,1,0,0:0:0:0:
324,130,196539,2,0,L|111:130,1,180,2|0,0:2|0:0,0:0:0:0:
150,37,197101,1,0,0:0:0:0:
289,32,197289,2,0,L|77:29,1,180,2|0,0:2|0:0,0:0:0:0:
382,240,198789,6,0,P|437:204|373:136,1,180,2|0,0:2|0:0,0:0:0:0:
256,125,199351,1,0,0:0:0:0:
127,129,199539,2,0,P|73:166|144:237,1,180,2|0,0:2|0:0,0:0:0:0:
353,58,200289,2,0,L|149:57,1,180,0|0,0:0|0:0,0:0:0:0:
416,331,201039,6,0,L|416:139,1,180,2|0,0:2|0:0,0:0:0:0:
254,157,201601,1,0,0:0:0:0:
92,258,201789,2,0,L|282:258,1,180,2|0,0:2|0:0,0:0:0:0:
156,159,202351,1,0,0:0:0:0:
351,288,202539,6,0,L|351:94,1,180,2|0,0:2|0:0,0:0:0:0:
190,127,203289,1,0,0:0:0:0:
354,189,203664,2,0,L|159:189,1,180,0|0,0:0|0:0,0:0:0:0:
389,156,204789,6,0,P|447:127|372:64,1,180,2|0,0:2|0:0,0:0:0:0:
256,61,205351,1,0,0:0:0:0:
94,94,205539,2,0,P|93:159|222:198,1,180,2|0,0:2|0:0,0:0:0:0:
351,224,206289,1,0,0:0:0:0:
193,283,206664,1,0,0:0:0:0:
388,346,207039,6,0,L|386:150,1,180,2|0,0:2|0:0,0:0:0:0:
254,161,207601,1,0,0:0:0:0:
126,59,207789,2,0,L|313:59,1,180,2|0,0:2|0:0,0:0:0:0:
128,129,208351,1,0,0:0:0:0:
288,357,208539,2,0,L|288:157,1,180,2|0,0:2|0:0,0:0:0:0:
158,320,209326,2,0,L|357:320,1,180
161,216,209855,1,0,0:0:0:0:
422,223,210031,6,0,L|432:128,1,90,4|0,0:0|0:0,0:0:0:0:
285,125,210401,1,0,0:0:0:0:
421,62,210586,1,4,0:0:0:0:
165,94,210771,2,0,L|62:94,1,90,0|0,1:0|0:0,0:0:0:0:
224,223,211142,1,0,0:0:0:0:
386,223,211327,1,0,0:0:0:0:
127,329,211512,6,0,L|128:218,1,90
283,319,211884,2,0,L|387:319,1,90,0|4,0:0|0:0,0:0:0:0:
93,65,212257,2,0,L|193:65,1,90,0|0,1:0|0:0,0:0:0:0:
351,203,212630,2,0,L|351:102,1,90,4|0,0:0|0:0,0:0:0:0:
96,161,213012,6,0,L|203:161,2,90,4|0|0,0:0|0:0|0:0,0:0:0:0:
220,96,213592,1,4,0:0:0:0:
475,59,213786,2,0,L|377:59,1,90,0|0,1:0|0:0,0:0:0:0:
223,225,214173,2,0,L|117:225,1,90
296,231,214545,5,0,0:0:0:0:
389,207,214732,1,0,0:0:0:0:
467,152,214918,2,0,L|471:57,1,90,0|4,0:0|0:0,0:0:0:0:
197,65,215291,2,0,L|306:65,1,90,0|0,1:0|0:0,0:0:0:0:
127,286,215654,1,0,0:0:0:0:
418,66,216072,6,0,L|418:181,1,90,0|2,0:0|0:2,0:0:0:0:
239,160,216405,2,0,L|239:67,1,90,0|2,0:0|0:2,0:0:0:0:
413,239,216770,1,2,0:2:0:0:
233,239,217142,1,0,0:0:0:0:
451,200,217550,2,0,L|249:200,1,180
66,222,218284,6,0,P|77:153|190:102,1,180,2|0,0:2|0:0,0:0:0:0:
321,97,219073,1,0,0:0:0:0:
157,95,219468,1,0,0:0:0:0:
318,339,219819,2,0,L|322:148,1,180
131,222,220573,6,0,P|97:153|175:110,1,180
320,113,221328,1,0,0:0:0:0:
164,118,221705,1,0,0:0:0:0:
317,227,222067,6,0,L|415:227,1,90,0|2,0:0|0:2,0:0:0:0:
227,160,222407,2,0,L|135:160,1,90,0|2,0:0|0:2,0:0:0:0:
317,159,222798,2,0,P|390:108|314:52,1,180,2|0,0:2|0:0,0:0:0:0:
185,225,223557,2,0,L|384:225,1,180
131,157,224285,5,2,0:2:0:0:
306,117,224672,2,0,L|108:117,2,180
129,93,225835,2,0,L|327:94,1,180,2|0,0:2|0:0,0:0:0:0:
125,225,226599,1,0,0:0:0:0:
129,93,226981,1,2,0:2:0:0:
310,94,227363,2,0,L|108:92,1,180,2|0,0:2|0:0,0:0:0:0:
380,220,228080,6,0,P|430:159|362:113,1,180,0|0,0:0|0:0,0:0:0:0:
161,221,228794,2,0,P|107:181|179:120,1,180,0|0,0:0|0:0,0:0:0:0:
448,64,229570,6,0,P|453:156|353:183,1,180,0|0,0:0|0:0,0:0:0:0:
147,311,230340,1,0,0:0:0:0:
326,298,230688,1,0,0:0:0:0:
147,311,231060,1,0,0:0:0:0:
316,193,231440,2,0,B|418:179|418:179|440:81,1,180,0|0,0:0|0:0,0:0:0:0:
161,314,232200,1,0,0:0:0:0:
128,253,232579,1,2,0:2:0:0:
97,189,232971,1,2,0:2:0:0:
301,337,233346,6,0,L|505:320,1,180,2|0,0:2|0:0,0:0:0:0:
248,281,234072,2,0,L|41:261,1,180,2|2,0:2|0:2,0:0:0:0:
318,158,234783,2,0,P|372:92|301:46,1,180,2|2,0:2|0:2,0:0:0:0:
129,61,235572,5,0,0:0:0:0:
316,63,235947,1,0,0:0:0:0:
149,352,236322,2,0,L|148:140,1,180,0|0,0:0|0:0,0:0:0:0:
357,329,237072,1,0,0:0:0:0:
192,194,237436,1,0,0:0:0:0:
352,64,237811,1,0,0:0:0:0:
193,127,238193,2,0,L|384:127,1,180,0|0,0:0|0:0,0:0:0:0:
193,65,238957,1,0,0:0:0:0:
359,128,239339,2,0,L|165:128,1,180,0|0,0:0|0:0,0:0:0:0:
353,227,240081,6,0,P|410:196|401:72,1,180,2|0,0:2|0:0,0:0:0:0:
149,267,240812,2,0,L|346:261,1,180,0|0,0:0|0:0,0:0:0:0:
181,186,241544,6,0,L|101:191,2,60,2|0|0,0:2|0:0|0:0,0:0:0:0:
293,183,241910,2,0,L|362:181,2,60,2|0|0,0:2|0:0|0:0,0:0:0:0:
160,123,242343,2,0,L|141:50,2,60,2|0|0,0:2|0:0|0:0,0:0:0:0:
283,128,242702,2,0,L|299:50,2,60,2|0|0,0:2|0:0|0:0,0:0:0:0:
153,310,243078,5,2,0:2:0:0:
317,323,243441,2,0,P|381:299|303:276,1,180,0|0,0:0|0:0,0:0:0:0:
128,63,244199,2,0,L|328:62,1,180,0|0,0:0|0:0,0:0:0:0:
98,292,244964,1,0,0:0:0:0:
285,291,245334,2,0,L|377:290,1,90,0|0,0:0|0:0,0:0:0:0:
196,61,245714,2,0,L|156:153,1,90
319,286,246077,6,0,P|389:256|377:153,1,180,0|0,0:0|0:0,0:0:0:0:
126,65,246831,2,0,L|323:65,1,180,0|0,0:0|0:0,0:0:0:0:
126,333,247590,6,0,L|114:217,1,90,2|0,0:2|0:0,0:0:0:0:
294,221,247977,2,0,L|181:225,1,90,2|0,0:2|0:0,0:0:0:0:
61,103,248364,2,0,L|164:95,1,90,2|0,0:2|0:0,0:0:0:0:
352,159,248751,2,0,L|364:50,1,90,2|0,0:2|0:0,0:0:0:0:
159,302,249130,5,2,0:2:0:0:
329,224,249493,1,0,0:0:0:0:
194,219,249848,1,0,0:0:0:0:
332,322,250232,2,0,L|347:128,1,180
136,63,251031,1,0,0:0:0:0:
309,61,251380,1,0,0:0:0:0:
130,64,251762,1,0,0:0:0:0:
353,290,252109,6,0,P|438:268|421:191,1,180,0|0,0:0|0:0,0:0:0:0:
225,96,252826,1,0,0:0:0:0:
385,95,253189,1,0,0:0:0:0:
193,334,253595,6,0,L|188:263,2,60,2|0|0,0:2|0:0|0:0,0:0:0:0:
352,300,253970,2,0,L|364:217,2,60,2|0|0,0:2|0:0|0:0,0:0:0:0:
225,159,254345,2,0,L|139:155,2,60,2|0|0,0:2|0:0|0:0,0:0:0:0:
353,98,254720,2,0,L|431:92,2,60,2|0|0,0:2|0:0|0:0,0:0:0:0:
195,96,255095,5,2,0:2:0:0:
329,194,255470,2,0,L|114:190,1,180,0|0,0:0|0:0,0:0:0:0:
324,260,256230,2,0,P|391:221|310:170,1,180,0|0,0:0|0:0,0:0:0:0:
78,351,257032,1,0,0:0:0:0:
170,248,257387,1,0,0:0:0:0:
352,223,257787,1,0,0:0:0:0:
256,192,258085,12,0,262585,0:0:0:0:
156,95,263006,6,0,L|347:95,1,180,0|0,0:0|0:0,0:0:0:0:
149,211,264115,6,0,P|97:153|167:111,1,180,4|0,0:0|0:0,0:0:0:0:
320,116,264677,1,4,0:0:0:0:
159,344,264865,2,0,L|148:232,1,90,4|0,0:0|0:0,0:0:0:0:
421,221,265240,2,0,L|328:214,1,90,4|0,0:0|0:0,0:0:0:0:
66,91,265615,6,0,L|172:92,1,90,0|4,0:0|0:0,0:0:0:0:
343,92,265990,2,0,L|457:92,1,90,4|0,0:0|0:0,0:0:0:0:
164,156,266365,2,0,B|76:159|76:159|51:256,1,180,4|4,0:0|0:0,0:0:0:0:
164,299,266927,1,0,0:0:0:0:
450,62,267115,6,0,L|260:62,1,180,4|0,0:0|0:0,0:0:0:0:
416,31,267677,1,4,0:0:0:0:
160,218,267865,2,0,L|151:111,1,90,4|0,0:0|0:0,0:0:0:0:
285,131,268240,1,4,0:0:0:0:
152,128,268427,1,0,0:0:0:0:
323,227,268615,5,0,0:0:0:0:
65,336,268802,2,0,L|66:232,1,90,4|4,0:0|0:0,0:0:0:0:
154,285,269177,1,0,0:0:0:0:
311,226,269365,2,0,L|122:226,1,180,4|4,0:0|0:0,0:0:0:0:
409,97,269927,1,0,0:0:0:0:
123,317,270115,6,0,L|329:317,1,180,4|0,0:0|0:0,0:0:0:0:
129,155,270677,1,4,0:0:0:0:
389,202,270865,2,0,L|404:80,1,90,4|0,0:0|0:0,0:0:0:0:
255,93,271240,2,0,L|360:90,1,90,4|0,0:0|0:0,0:0:0:0:
162,64,271615,6,0,L|53:63,2,90,0|4|4,0:0|0:0|0:0,0:0:0:0:
72,63,272177,1,0,0:0:0:0:
317,158,272365,1,4,0:0:0:0:
190,163,272552,2,0,L|95:147,2,90,0|4|0,0:0|0:0|0:0,0:0:0:0:
444,332,273115,6,0,L|226:325,1,180,4|0,0:0|0:0,0:0:0:0:
385,254,273677,1,4,0:0:0:0:
130,327,273865,2,0,L|129:210,1,90,4|0,0:0|0:0,0:0:0:0:
315,324,274240,2,0,L|201:327,1,90,4|0,0:0|0:0,0:0:0:0:
386,280,274615,2,0,P|457:249|461:142,1,180,0|4,0:0|0:0,0:0:0:0:
379,168,275177,1,0,0:0:0:0:
100,284,275365,6,0,P|140:194|215:174,1,180,4|4,0:0|0:0,0:0:0:0:
343,128,275927,1,0,0:0:0:0:
95,66,276115,6,0,L|278:66,1,180,4|0,0:0|0:0,0:0:0:0:
128,159,276677,1,4,0:0:0:0:
390,298,276865,2,0,L|390:181,1,90,4|0,0:0|0:0,0:0:0:0:
226,194,277240,2,0,L|226:80,1,90,4|0,0:0|0:0,0:0:0:0:
419,61,277615,6,0,L|300:61,2,90,0|4|4,0:0|0:0|0:0,0:0:0:0:
289,126,278177,1,0,0:0:0:0:
36,324,278365,2,0,L|35:208,1,90,4|0,0:0|0:0,0:0:0:0:
195,230,278740,1,4,0:0:0:0:
353,234,278927,1,0,0:0:0:0:
68,327,279115,6,0,P|76:259|188:213,1,180,4|0,0:0|0:0,0:0:0:0:
325,218,279677,1,4,0:0:0:0:
156,134,279865,2,0,L|141:22,1,90,4|0,0:0|0:0,0:0:0:0:
289,128,280240,2,0,L|298:34,1,90,4|0,0:0|0:0,0:0:0:0:
125,65,280615,5,0,0:0:0:0:
288,59,280802,1,4,0:0:0:0:
126,223,280990,2,0,L|323:224,1,180,4|4,0:0|0:0,0:0:0:0:
161,160,281552,1,0,0:0:0:0:
285,161,281740,2,0,L|389:161,1,90,4|0,0:0|0:0,0:0:0:0:
98,338,282115,6,0,P|101:271|222:227,1,180,4|0,0:0|0:0,0:0:0:0:
348,226,282677,1,4,0:0:0:0:
191,99,282865,2,0,L|92:97,1,90,4|0,0:0|0:0,0:0:0:0:
242,59,283240,2,0,L|344:52,1,90,4|0,0:0|0:0,0:0:0:0:
163,224,283615,2,0,L|154:120,1,90,0|4,0:0|0:0,0:0:0:0:
325,99,283990,6,0,L|115:94,1,180,4|4,0:0|0:0,0:0:0:0:
371,157,284740,2,0,L|162:149,1,180,4|4,0:0|0:0,0:0:0:0:
366,60,285302,1,0,0:0:0:0:
223,65,285490,2,0,L|121:66,1,90,0|4,0:0|0:0,0:0:0:0:
254,122,285865,2,0,L|368:134,1,90,4|0,0:0|0:0,0:0:0:0:
192,159,286240,6,0,L|180:61,1,90,4|0,0:0|0:0,0:0:0:0:
321,161,286615,1,0,0:0:0:0:
322,269,286802,1,4,0:0:0:0:
193,284,286990,1,0,0:0:0:0:
324,33,287177,1,0,0:0:0:0:
139,33,287365,1,4,0:0:0:0:
335,330,288099,6,0,P|425:290|431:207,1,180,4|0,0:0|0:0,0:0:0:0:
167,159,288849,2,0,P|80:113|137:69,1,180,0|0,0:0|0:0,0:0:0:0:
395,269,289599,6,0,L|187:269,2,180,2|0|2,0:2|0:0|0:2,0:0:0:0:
126,304,290724,1,0,0:0:0:0:
349,178,291099,6,0,B|456:170|456:170|452:62,1,180,2|0,0:0|0:0,0:0:0:0:
189,66,291849,2,0,L|393:64,1,180,0|0,0:0|0:0,0:0:0:0:
128,224,292599,5,0,0:0:0:0:
354,62,292974,2,0,L|156:81,1,180,0|0,0:0|0:0,0:0:0:0:
384,160,293724,1,0,0:0:0:0:
184,226,294099,6,0,L|383:226,1,180,4|0,0:0|0:0,0:0:0:0:
382,99,294849,1,0,0:0:0:0:
194,100,295224,1,0,0:0:0:0:
449,63,295599,6,0,L|258:64,2,180,2|0|2,0:2|0:0|0:2,0:0:0:0:
193,159,296724,1,0,0:0:0:0:
353,63,297099,6,0,L|138:70,1,180,2|0,0:0|0:0,0:0:0:0:
383,188,297849,2,0,P|441:154|370:79,1,180,0|0,0:0|0:0,0:0:0:0:
187,63,298599,6,0,L|375:67,1,180,0|0,0:0|0:0,0:0:0:0:
350,156,299349,1,0,0:0:0:0:
161,158,299724,1,0,0:0:0:0:
388,290,300099,6,0,L|175:286,1,180,4|0,0:0|0:0,0:0:0:0:
458,237,300849,2,0,L|263:235,1,180,0|0,0:0|0:0,0:0:0:0:
95,99,301599,6,0,L|298:102,2,180,2|0|2,0:2|0:0|0:2,0:0:0:0:
354,58,302724,1,0,0:0:0:0:
194,228,303099,6,0,P|143:192|237:134,1,180,2|0,0:0|0:0,0:0:0:0:
387,125,303849,1,0,0:0:0:0:
350,47,304224,1,0,0:0:0:0:
121,221,304599,6,0,L|320:221,2,180,0|0|0,0:0|0:0|0:0,0:0:0:0:
319,220,305724,1,0,0:0:0:0:
156,98,306099,6,0,L|360:92,1,180,4|0,0:0|0:0,0:0:0:0:
158,195,306849,1,0,0:0:0:0:
323,191,307224,1,0,0:0:0:0:
156,296,307599,6,0,L|135:109,1,180,2|0,0:2|0:0,0:0:0:0:
383,220,308349,2,0,L|398:32,1,180,2|0,0:2|0:0,0:0:0:0:
189,102,309099,2,0,L|391:80,1,180,2|0,0:0|0:0,0:0:0:0:
146,162,309849,2,0,L|351:131,1,180,0|0,0:0|0:0,0:0:0:0:
128,308,310599,6,0,L|112:120,1,180,0|0,0:0|0:0,0:0:0:0:
320,198,311349,2,0,L|434:206,1,90,0|0,0:0|0:0,0:0:0:0:
316,84,311724,1,0,0:0:0:0:
165,209,312099,2,0,P|106:162|192:104,1,180,4|0,0:0|0:0,0:0:0:0:
368,337,312849,2,0,L|157:342,1,180,0|0,0:0|0:0,0:0:0:0:
374,208,313599,6,0,L|397:129,2,60,2|0|0,0:2|0:0|0:0,0:0:0:0:
254,118,313974,2,0,L|234:52,2,60,0|0|0,0:0|0:0|0:0,0:0:0:0:
379,67,314349,2,0,L|464:72,2,60,2|0|0,0:2|0:0|0:0,0:0:0:0:
222,334,314724,2,0,L|174:279,2,60,0|0|0,0:0|0:0|0:0,0:0:0:0:
456,291,315099,6,0,L|258:292,3,180,2|0|0|0,0:0|0:0|0:0|0:0,0:0:0:0:
256,192,316599,12,0,320724,0:0:0:0:
