osu file format v14

[General]
AudioFilename: audio.mp3
AudioLeadIn: 0
PreviewTime: 18599
Countdown: 0
SampleSet: Normal
StackLeniency: 1
Mode: 1
LetterboxInBreaks: 0
WidescreenStoryboard: 1

[Editor]
Bookmarks: 52158
DistanceSpacing: 1.5
BeatDivisor: 4
GridSize: 32
TimelineZoom: 1

[Metadata]
Title:Big Bag
TitleUnicode:Big Bag
Artist:Tyler, The Creator
ArtistUnicode:Tyler, The Creator
Creator:Vulkin
Version:Oni
Source:
Tags:Music Inspired by Illumination & Dr. Seuss' The Grinch Christmas
BeatmapID:1864200
BeatmapSetID:891723

[Difficulty]
HPDrainRate:6
CircleSize:7
OverallDifficulty:6
ApproachRate:10
SliderMultiplier:1.4
SliderTickRate:1

[Events]
//Background and Video events
0,0,"337541-coda-craven-1366x768.jpg",0,0
//Break Periods
//Storyboard Layer 0 (Background)
//Storyboard Layer 1 (Fail)
//Storyboard Layer 2 (Pass)
//Storyboard Layer 3 (Foreground)
//Storyboard Sound Samples

[TimingPoints]
2328,508.474576271186,4,1,0,60,1,0
18599,-100,4,1,0,70,0,1
34870,-100,4,1,0,60,0,0
67412,-100,4,1,0,70,0,1
76565,-100,4,1,0,60,0,0

[HitObjects]
256,192,2328,5,4,0:0:0:0:
256,192,2582,1,0,0:0:0:0:
256,192,2709,1,0,0:0:0:0:
256,192,2836,1,8,0:0:0:0:
256,192,3090,1,0,0:0:0:0:
256,192,3344,1,8,0:0:0:0:
256,192,3472,1,8,0:0:0:0:
256,192,3599,1,0,0:0:0:0:
256,192,3853,1,8,0:0:0:0:
256,192,4361,1,0,0:0:0:0:
256,192,4616,1,8,0:0:0:0:
256,192,4743,1,0,0:0:0:0:
256,192,4870,1,8,0:0:0:0:
256,192,5124,1,0,0:0:0:0:
256,192,5251,1,0,0:0:0:0:
256,192,5378,1,8,0:0:0:0:
256,192,5505,1,8,0:0:0:0:
256,192,5633,1,0,0:0:0:0:
256,192,5887,1,8,0:0:0:0:
256,192,6395,1,0,0:0:0:0:
256,192,6904,1,0,0:0:0:0:
256,192,7158,1,0,0:0:0:0:
256,192,7285,1,0,0:0:0:0:
256,192,7412,1,8,0:0:0:0:
256,192,7921,1,8,0:0:0:0:
256,192,8175,1,8,0:0:0:0:
256,192,8429,1,0,0:0:0:0:
256,192,8683,1,8,0:0:0:0:
256,192,8811,1,0,0:0:0:0:
256,192,8938,1,8,0:0:0:0:
256,192,9192,1,0,0:0:0:0:
256,192,9319,1,0,0:0:0:0:
256,192,9446,1,8,0:0:0:0:
256,192,9573,1,8,0:0:0:0:
256,192,9700,1,0,0:0:0:0:
256,192,9955,1,8,0:0:0:0:
256,192,10463,1,0,0:0:0:0:
256,192,10717,1,0,0:0:0:0:
256,192,10844,1,0,0:0:0:0:
256,192,10972,1,0,0:0:0:0:
256,192,11226,1,0,0:0:0:0:
256,192,11480,1,8,0:0:0:0:
256,192,11607,1,8,0:0:0:0:
256,192,11734,1,0,0:0:0:0:
256,192,11989,1,8,0:0:0:0:
256,192,12497,1,0,0:0:0:0:
256,192,12751,1,0,0:0:0:0:
256,192,13005,1,8,0:0:0:0:
256,192,13260,1,0,0:0:0:0:
256,192,13387,1,0,0:0:0:0:
256,192,13514,1,8,0:0:0:0:
256,192,13641,1,8,0:0:0:0:
256,192,13768,1,0,0:0:0:0:
256,192,14022,1,8,0:0:0:0:
256,192,14150,1,8,0:0:0:0:
256,192,14277,1,8,0:0:0:0:
256,192,14404,1,8,0:0:0:0:
256,192,14531,1,0,0:0:0:0:
256,192,14785,1,0,0:0:0:0:
256,192,15039,1,8,0:0:0:0:
256,192,15294,1,0,0:0:0:0:
256,192,15421,1,0,0:0:0:0:
256,192,15548,1,8,0:0:0:0:
256,192,15802,1,0,0:0:0:0:
256,192,16056,1,8,0:0:0:0:
256,192,16565,1,0,0:0:0:0:
256,192,16819,1,8,0:0:0:0:
256,192,16946,1,8,0:0:0:0:
256,192,17073,1,8,0:0:0:0:
256,192,17327,1,8,0:0:0:0:
256,192,17582,1,0,0:0:0:0:
256,192,17836,1,8,0:0:0:0:
256,192,18090,1,8,0:0:0:0:
256,192,18599,1,4,0:0:0:0:
256,192,18853,1,0,0:0:0:0:
256,192,18980,1,8,0:0:0:0:
256,192,19107,1,0,0:0:0:0:
256,192,19361,1,8,0:0:0:0:
256,192,19489,1,0,0:0:0:0:
256,192,19616,1,0,0:0:0:0:
256,192,19870,1,0,0:0:0:0:
256,192,20124,1,8,0:0:0:0:
256,192,20378,1,8,0:0:0:0:
256,192,20887,1,0,0:0:0:0:
256,192,21014,1,0,0:0:0:0:
256,192,21141,1,0,0:0:0:0:
256,192,21395,1,0,0:0:0:0:
256,192,21522,1,8,0:0:0:0:
256,192,21650,1,0,0:0:0:0:
256,192,21904,1,8,0:0:0:0:
256,192,22031,1,0,0:0:0:0:
256,192,22158,1,8,0:0:0:0:
256,192,22412,1,8,0:0:0:0:
256,192,22921,1,0,0:0:0:0:
256,192,23048,1,0,0:0:0:0:
256,192,23175,1,0,0:0:0:0:
256,192,23429,1,0,0:0:0:0:
256,192,23556,1,8,0:0:0:0:
256,192,23683,1,0,0:0:0:0:
256,192,23938,1,8,0:0:0:0:
256,192,24065,1,0,0:0:0:0:
256,192,24192,1,8,0:0:0:0:
256,192,24446,1,8,0:0:0:0:
256,192,24700,1,0,0:0:0:0:
256,192,24955,1,0,0:0:0:0:
256,192,25082,1,0,0:0:0:0:
256,192,25209,1,0,0:0:0:0:
256,192,25463,1,0,0:0:0:0:
256,192,25590,1,8,0:0:0:0:
256,192,25717,1,0,0:0:0:0:
256,192,25972,1,8,0:0:0:0:
256,192,26099,1,0,0:0:0:0:
256,192,26226,1,8,0:0:0:0:
256,192,26480,1,8,0:0:0:0:
256,192,26734,1,0,0:0:0:0:
256,192,27243,1,0,0:0:0:0:
256,192,27497,1,8,0:0:0:0:
256,192,27624,1,8,0:0:0:0:
256,192,27751,1,8,0:0:0:0:
256,192,28005,1,0,0:0:0:0:
256,192,28260,1,8,0:0:0:0:
256,192,28514,1,8,0:0:0:0:
256,192,28768,1,0,0:0:0:0:
256,192,29277,1,0,0:0:0:0:
256,192,29531,1,0,0:0:0:0:
256,192,29658,1,0,0:0:0:0:
256,192,29785,1,8,0:0:0:0:
256,192,30039,1,8,0:0:0:0:
256,192,30294,1,0,0:0:0:0:
256,192,30548,1,8,0:0:0:0:
256,192,30802,1,0,0:0:0:0:
256,192,31311,1,0,0:0:0:0:
256,192,31565,1,8,0:0:0:0:
256,192,31692,1,8,0:0:0:0:
256,192,31819,1,8,0:0:0:0:
256,192,32073,1,0,0:0:0:0:
256,192,32327,1,8,0:0:0:0:
256,192,32582,1,8,0:0:0:0:
256,192,32836,1,0,0:0:0:0:
256,192,33090,1,0,0:0:0:0:
256,192,33217,1,0,0:0:0:0:
256,192,33344,1,0,0:0:0:0:
256,192,33599,1,0,0:0:0:0:
256,192,33726,1,0,0:0:0:0:
256,192,33853,1,8,0:0:0:0:
256,192,34107,1,8,0:0:0:0:
256,192,34361,1,0,0:0:0:0:
256,192,34870,1,0,0:0:0:0:
256,192,35887,1,0,0:0:0:0:
256,192,36904,1,0,0:0:0:0:
256,192,37921,1,0,0:0:0:0:
256,192,38938,1,8,0:0:0:0:
256,192,39955,1,8,0:0:0:0:
256,192,40972,1,8,0:0:0:0:
256,192,41989,1,8,0:0:0:0:
256,192,43005,1,0,0:0:0:0:
256,192,44022,1,0,0:0:0:0:
256,192,45039,1,0,0:0:0:0:
256,192,46056,1,0,0:0:0:0:
256,192,46565,1,0,0:0:0:0:
256,192,47073,1,8,0:0:0:0:
256,192,47582,1,0,0:0:0:0:
256,192,48090,1,8,0:0:0:0:
256,192,48599,1,0,0:0:0:0:
256,192,49107,12,0,51141,0:0:0:0:
256,192,52158,5,8,0:0:0:0:
256,192,52412,1,0,0:0:0:0:
256,192,52539,1,0,0:0:0:0:
256,192,52666,1,0,0:0:0:0:
256,192,52921,1,8,0:0:0:0:
256,192,53175,1,0,0:0:0:0:
256,192,53683,1,0,0:0:0:0:
256,192,53938,1,0,0:0:0:0:
256,192,54192,1,8,0:0:0:0:
256,192,54446,1,8,0:0:0:0:
256,192,54700,1,0,0:0:0:0:
256,192,54955,1,8,0:0:0:0:
256,192,55209,1,0,0:0:0:0:
256,192,55717,1,0,0:0:0:0:
256,192,56226,1,8,0:0:0:0:
256,192,56480,1,0,0:0:0:0:
256,192,56607,1,0,0:0:0:0:
256,192,56734,1,8,0:0:0:0:
256,192,57243,1,0,0:0:0:0:
256,192,57497,1,8,0:0:0:0:
256,192,57751,1,8,0:0:0:0:
256,192,58005,1,0,0:0:0:0:
256,192,58260,1,8,0:0:0:0:
256,192,58514,1,8,0:0:0:0:
256,192,58768,1,0,0:0:0:0:
256,192,59277,1,0,0:0:0:0:
256,192,59785,1,0,0:0:0:0:
256,192,60039,1,0,0:0:0:0:
256,192,60294,1,8,0:0:0:0:
256,192,60548,1,0,0:0:0:0:
256,192,60675,1,0,0:0:0:0:
256,192,60802,1,0,0:0:0:0:
256,192,61056,1,8,0:0:0:0:
256,192,61311,1,0,0:0:0:0:
256,192,61565,1,8,0:0:0:0:
256,192,61819,1,0,0:0:0:0:
256,192,62073,1,0,0:0:0:0:
256,192,62327,1,8,0:0:0:0:
256,192,62836,1,0,0:0:0:0:
256,192,63090,1,8,0:0:0:0:
256,192,63344,1,0,0:0:0:0:
256,192,63853,1,8,0:0:0:0:
256,192,64107,1,0,0:0:0:0:
256,192,64361,1,8,0:0:0:0:
256,192,64616,1,8,0:0:0:0:
256,192,64743,1,8,0:0:0:0:
256,192,64870,1,0,0:0:0:0:
256,192,65124,1,8,0:0:0:0:
256,192,65378,1,0,0:0:0:0:
256,192,65887,1,0,0:0:0:0:
256,192,66141,1,0,0:0:0:0:
256,192,66268,1,0,0:0:0:0:
256,192,66395,1,8,0:0:0:0:
256,192,66650,1,8,0:0:0:0:
256,192,66904,1,0,0:0:0:0:
256,192,67412,1,4,0:0:0:0:
256,192,67666,1,0,0:0:0:0:
256,192,67793,1,8,0:0:0:0:
256,192,67920,1,0,0:0:0:0:
256,192,68174,1,8,0:0:0:0:
256,192,68302,1,0,0:0:0:0:
256,192,68429,1,0,0:0:0:0:
256,192,68683,1,0,0:0:0:0:
256,192,68937,1,8,0:0:0:0:
256,192,69191,1,8,0:0:0:0:
256,192,69700,1,0,0:0:0:0:
256,192,69827,1,0,0:0:0:0:
256,192,69954,1,0,0:0:0:0:
256,192,70208,1,0,0:0:0:0:
256,192,70335,1,8,0:0:0:0:
256,192,70463,1,0,0:0:0:0:
256,192,70717,1,8,0:0:0:0:
256,192,70844,1,0,0:0:0:0:
256,192,70971,1,8,0:0:0:0:
256,192,71225,1,8,0:0:0:0:
256,192,71734,1,0,0:0:0:0:
256,192,71861,1,0,0:0:0:0:
256,192,71988,1,0,0:0:0:0:
256,192,72242,1,0,0:0:0:0:
256,192,72369,1,8,0:0:0:0:
256,192,72496,1,0,0:0:0:0:
256,192,72751,1,8,0:0:0:0:
256,192,72878,1,0,0:0:0:0:
256,192,73005,1,8,0:0:0:0:
256,192,73259,1,8,0:0:0:0:
256,192,73513,1,0,0:0:0:0:
256,192,73768,1,0,0:0:0:0:
256,192,73895,1,0,0:0:0:0:
256,192,74022,1,0,0:0:0:0:
256,192,74276,1,0,0:0:0:0:
256,192,74403,1,8,0:0:0:0:
256,192,74530,1,0,0:0:0:0:
256,192,74785,1,8,0:0:0:0:
256,192,74912,1,0,0:0:0:0:
256,192,75039,1,8,0:0:0:0:
256,192,75293,1,8,0:0:0:0:
256,192,76565,1,0,0:0:0:0:
