osu file format v14

[General]
AudioFilename: audio.mp3
AudioLeadIn: 0
PreviewTime: 18599
Countdown: 0
SampleSet: Normal
StackLeniency: 1
Mode: 1
LetterboxInBreaks: 0
WidescreenStoryboard: 1

[Editor]
Bookmarks: 52158
DistanceSpacing: 1.5
BeatDivisor: 4
GridSize: 32
TimelineZoom: 1

[Metadata]
Title:Big Bag
TitleUnicode:Big Bag
Artist:Tyler, The Creator
ArtistUnicode:Tyler, The Creator
Creator:Vulkin
Version:Futsuu
Source:
Tags:Music Inspired by Illumination & Dr. Seuss' The Grinch Christmas
BeatmapID:1864197
BeatmapSetID:891723

[Difficulty]
HPDrainRate:8
CircleSize:7
OverallDifficulty:4
ApproachRate:10
SliderMultiplier:1.4
SliderTickRate:1

[Events]
//Background and Video events
0,0,"337541-coda-craven-1366x768.jpg",0,0
//Break Periods
//Storyboard Layer 0 (Background)
//Storyboard Layer 1 (Fail)
//Storyboard Layer 2 (Pass)
//Storyboard Layer 3 (Foreground)
//Storyboard Sound Samples

[TimingPoints]
2328,508.474576271186,4,1,0,60,1,0
18599,-100,4,1,0,70,0,1
34870,-100,4,1,0,60,0,0
67412,-100,4,1,0,70,0,1
76565,-100,4,1,0,60,0,0

[HitObjects]
256,192,2328,5,4,0:0:0:0:
256,192,3344,1,0,0:0:0:0:
256,192,3599,1,0,0:0:0:0:
256,192,3853,1,8,0:0:0:0:
256,192,4361,1,0,0:0:0:0:
256,192,5378,1,8,0:0:0:0:
256,192,5887,1,8,0:0:0:0:
256,192,6395,1,0,0:0:0:0:
256,192,6904,1,0,0:0:0:0:
256,192,7412,1,8,0:0:0:0:
256,192,8429,1,0,0:0:0:0:
256,192,9955,1,8,0:0:0:0:
256,192,10463,1,0,0:0:0:0:
256,192,11480,1,8,0:0:0:0:
256,192,11989,1,8,0:0:0:0:
256,192,12497,1,0,0:0:0:0:
256,192,13005,1,0,0:0:0:0:
256,192,13260,1,0,0:0:0:0:
256,192,13514,1,8,0:0:0:0:
256,192,14531,1,0,0:0:0:0:
256,192,16056,1,8,0:0:0:0:
256,192,16565,1,0,0:0:0:0:
256,192,17073,1,8,0:0:0:0:
256,192,17327,1,0,0:0:0:0:
256,192,17582,1,8,0:0:0:0:
256,192,18599,1,4,0:0:0:0:
256,192,19361,1,0,0:0:0:0:
256,192,19616,1,8,0:0:0:0:
256,192,20124,1,8,0:0:0:0:
256,192,20378,1,0,0:0:0:0:
256,192,21141,1,0,0:0:0:0:
256,192,21650,1,8,0:0:0:0:
256,192,22158,1,8,0:0:0:0:
256,192,22666,1,0,0:0:0:0:
256,192,23429,1,0,0:0:0:0:
256,192,23683,1,8,0:0:0:0:
256,192,24192,1,8,0:0:0:0:
256,192,24446,1,0,0:0:0:0:
256,192,25209,1,8,0:0:0:0:
256,192,25717,1,8,0:0:0:0:
256,192,26734,1,0,0:0:0:0:
256,192,27751,1,8,0:0:0:0:
256,192,28768,1,0,0:0:0:0:
256,192,29277,1,0,0:0:0:0:
256,192,29785,1,8,0:0:0:0:
256,192,30802,1,0,0:0:0:0:
256,192,31819,1,8,0:0:0:0:
256,192,32836,1,0,0:0:0:0:
256,192,33344,1,0,0:0:0:0:
256,192,33853,1,8,0:0:0:0:
256,192,34361,1,8,0:0:0:0:
256,192,34870,1,0,0:0:0:0:
256,192,36904,1,0,0:0:0:0:
256,192,37921,1,0,0:0:0:0:
256,192,38938,1,8,0:0:0:0:
256,192,40972,1,8,0:0:0:0:
256,192,41989,1,8,0:0:0:0:
256,192,43005,1,0,0:0:0:0:
256,192,45039,1,0,0:0:0:0:
256,192,46056,1,0,0:0:0:0:
256,192,47073,1,8,0:0:0:0:
256,192,48090,1,8,0:0:0:0:
256,192,49107,12,0,51141,0:0:0:0:
256,192,52158,5,8,0:0:0:0:
256,192,53175,1,0,0:0:0:0:
256,192,53683,1,0,0:0:0:0:
256,192,53938,1,0,0:0:0:0:
256,192,54192,1,8,0:0:0:0:
256,192,55209,1,0,0:0:0:0:
256,192,56226,1,8,0:0:0:0:
256,192,57243,1,0,0:0:0:0:
256,192,57751,1,0,0:0:0:0:
256,192,58260,1,8,0:0:0:0:
256,192,59277,1,0,0:0:0:0:
256,192,60294,1,8,0:0:0:0:
256,192,61311,1,0,0:0:0:0:
256,192,61819,1,8,0:0:0:0:
256,192,62073,1,0,0:0:0:0:
256,192,62327,1,8,0:0:0:0:
256,192,62836,1,8,0:0:0:0:
256,192,63344,1,0,0:0:0:0:
256,192,64361,1,8,0:0:0:0:
256,192,65887,1,0,0:0:0:0:
256,192,66395,1,8,0:0:0:0:
256,192,67412,1,4,0:0:0:0:
256,192,68174,1,0,0:0:0:0:
256,192,68429,1,8,0:0:0:0:
256,192,68937,1,8,0:0:0:0:
256,192,69191,1,0,0:0:0:0:
256,192,69954,1,0,0:0:0:0:
256,192,70463,1,8,0:0:0:0:
256,192,70971,1,8,0:0:0:0:
256,192,71479,1,0,0:0:0:0:
256,192,72242,1,0,0:0:0:0:
256,192,72496,1,8,0:0:0:0:
256,192,73005,1,8,0:0:0:0:
256,192,73259,1,0,0:0:0:0:
256,192,74022,1,8,0:0:0:0:
256,192,74530,1,8,0:0:0:0:
256,192,76565,1,0,0:0:0:0:
