osu file format v14

[General]
AudioFilename: audio.mp3
AudioLeadIn: 0
PreviewTime: 64996
Countdown: 0
SampleSet: Drum
StackLeniency: 0.7
Mode: 3
LetterboxInBreaks: 0
SpecialStyle: 0
WidescreenStoryboard: 0

[Editor]
Bookmarks: 13154,39505,65855,92205,105380,118555,131730,144905,158080,171255,184430,195958
DistanceSpacing: 0.9
BeatDivisor: 8
GridSize: 8
TimelineZoom: 5.699998

[Metadata]
Title:Come On, Let's Go
TitleUnicode:Come On, Let's Go
Artist:Tyler, The Creator & Nigo
ArtistUnicode:Tyler, The Creator & Nigo
Creator:Geo_ooo
Version:Punctual
Source:
Tags:Pharell Williams I know NIGO! english hip hop rap technical vocal dump mini jack minijack Victor Worldwide UMG Recordings Inc Republic Records Tyler Okonma and inc.
BeatmapID:3549918
BeatmapSetID:1736855

[Difficulty]
HPDrainRate:8.5
CircleSize:4
OverallDifficulty:8
ApproachRate:5
SliderMultiplier:1.4
SliderTickRate:1

[Events]
//Background and Video events
0,0,"wp3259444.jpg",0,0
//Break Periods
2,158003,163425
//Storyboard Layer 0 (Background)
//Storyboard Layer 1 (Fail)
//Storyboard Layer 2 (Pass)
//Storyboard Layer 3 (Foreground)
//Storyboard Layer 4 (Overlay)
//Storyboard Sound Samples

[TimingPoints]
13123,411.692054343351,4,3,1,30,1,0
65819,-100,4,3,1,40,0,1
66231,-100,4,3,1,40,0,0
69113,-100,4,3,1,40,0,1
69524,-100,4,3,1,40,0,0
78993,-100,4,3,1,40,0,1
79405,-100,4,3,1,40,0,0
82287,-100,4,3,1,40,0,1
82698,-100,4,3,1,40,0,0
92167,-100,4,3,1,30,0,0
144864,-100,4,3,1,40,0,1
158038,-100,4,3,1,30,0,0

[HitObjects]
192,192,13122,128,0,13191:0:0:0:0:
448,192,13122,128,0,13225:0:0:0:0:
192,192,13740,128,0,13809:0:0:0:0:
448,192,13946,128,0,14049:0:0:0:0:
192,192,14152,128,0,14220:0:0:0:0:
320,192,14255,1,0,0:0:0:0:
192,192,14358,128,0,14426:0:0:0:0:
64,192,14563,1,0,0:0:0:0:
448,192,14769,1,0,0:0:0:0:
320,192,14769,1,0,0:0:0:0:
320,192,14906,1,0,0:0:0:0:
64,192,14975,1,0,0:0:0:0:
192,192,15044,1,0,0:0:0:0:
320,192,15112,1,0,0:0:0:0:
64,192,15181,1,0,0:0:0:0:
448,192,15250,1,0,0:0:0:0:
320,192,15318,1,0,0:0:0:0:
64,192,15387,1,0,0:0:0:0:
192,192,15455,1,0,0:0:0:0:
320,192,15524,1,0,0:0:0:0:
64,192,15593,1,0,0:0:0:0:
448,192,15661,1,0,0:0:0:0:
320,192,15730,1,0,0:0:0:0:
64,192,15798,1,0,0:0:0:0:
192,192,15867,1,0,0:0:0:0:
320,192,15936,1,0,0:0:0:0:
192,192,16004,1,0,0:0:0:0:
64,192,16039,1,0,0:0:0:0:
320,192,16073,1,0,0:0:0:0:
448,192,16210,128,0,16279:0:0:0:0:
192,192,16416,128,0,16485:0:0:0:0:
448,192,16416,128,0,16519:0:0:0:0:
192,192,17034,128,0,17102:0:0:0:0:
448,192,17239,128,0,17342:0:0:0:0:
64,192,17342,1,0,0:0:0:0:
320,192,17445,128,0,17514:0:0:0:0:
192,192,17651,128,0,17720:0:0:0:0:
192,192,17857,1,0,0:0:0:0:
448,192,18063,128,0,18166:0:0:0:0:
64,192,18166,1,0,0:0:0:0:
192,192,18269,128,0,18337:0:0:0:0:
192,192,18474,128,0,18543:0:0:0:0:
320,192,18680,1,0,0:0:0:0:
192,192,18886,128,0,18955:0:0:0:0:
448,192,18886,128,0,18989:0:0:0:0:
448,192,19092,1,0,0:0:0:0:
192,192,19298,128,0,19366:0:0:0:0:
64,192,19401,1,0,0:0:0:0:
320,192,19504,128,0,19572:0:0:0:0:
192,192,19710,1,0,0:0:0:0:
448,192,19710,128,0,19812:0:0:0:0:
192,192,19812,1,0,0:0:0:0:
64,192,19984,1,0,0:0:0:0:
64,192,20121,1,0,0:0:0:0:
320,192,20224,1,0,0:0:0:0:
192,192,20327,128,0,20396:0:0:0:0:
448,192,20533,128,0,20636:0:0:0:0:
192,192,20739,128,0,20807:0:0:0:0:
320,192,20945,128,0,21013:0:0:0:0:
320,192,21150,1,0,0:0:0:0:
448,192,21356,128,0,21459:0:0:0:0:
64,192,21459,1,0,0:0:0:0:
192,192,21562,128,0,21631:0:0:0:0:
320,192,21768,128,0,21837:0:0:0:0:
192,192,22180,128,0,22248:0:0:0:0:
448,192,22180,128,0,22283:0:0:0:0:
64,192,22386,1,0,0:0:0:0:
192,192,22591,128,0,22660:0:0:0:0:
448,192,22694,1,0,0:0:0:0:
320,192,22797,128,0,22866:0:0:0:0:
192,192,23003,128,0,23072:0:0:0:0:
448,192,23003,128,0,23106:0:0:0:0:
64,192,23209,1,0,0:0:0:0:
320,192,23415,1,0,0:0:0:0:
448,192,23518,1,0,0:0:0:0:
192,192,23621,128,0,23689:0:0:0:0:
448,192,23826,128,0,23929:0:0:0:0:
192,192,24032,128,0,24101:0:0:0:0:
320,192,24238,128,0,24307:0:0:0:0:
64,192,24341,1,0,0:0:0:0:
192,192,24444,1,0,0:0:0:0:
448,192,24650,128,0,24753:0:0:0:0:
64,192,24732,1,0,0:0:0:0:
448,192,24815,1,0,0:0:0:0:
192,192,24856,128,0,24924:0:0:0:0:
64,192,24897,1,0,0:0:0:0:
448,192,24979,1,0,0:0:0:0:
320,192,25062,128,0,25130:0:0:0:0:
192,192,25267,128,0,25336:0:0:0:0:
192,192,25473,128,0,25542:0:0:0:0:
448,192,25473,128,0,25576:0:0:0:0:
192,192,25679,128,0,25748:0:0:0:0:
320,192,25885,128,0,25954:0:0:0:0:
64,192,25988,1,0,0:0:0:0:
192,192,26091,128,0,26159:0:0:0:0:
320,192,26297,1,0,0:0:0:0:
192,192,26355,1,0,0:0:0:0:
320,192,26414,1,0,0:0:0:0:
448,192,26640,128,0,26743:0:0:0:0:
192,192,26914,128,0,26983:0:0:0:0:
64,192,27120,128,0,27223:0:0:0:0:
192,192,27326,1,0,0:0:0:0:
448,192,27463,128,0,27566:0:0:0:0:
320,192,27532,128,0,27600:0:0:0:0:
448,192,27738,1,0,0:0:0:0:
192,192,27943,1,0,0:0:0:0:
64,192,27943,1,0,0:0:0:0:
192,192,28081,1,0,0:0:0:0:
448,192,28149,1,0,0:0:0:0:
320,192,28218,1,0,0:0:0:0:
192,192,28286,1,0,0:0:0:0:
448,192,28355,1,0,0:0:0:0:
64,192,28424,1,0,0:0:0:0:
192,192,28492,1,0,0:0:0:0:
448,192,28561,1,0,0:0:0:0:
320,192,28630,1,0,0:0:0:0:
192,192,28698,1,0,0:0:0:0:
448,192,28767,1,0,0:0:0:0:
64,192,28835,1,0,0:0:0:0:
192,192,28904,1,0,0:0:0:0:
448,192,28973,1,0,0:0:0:0:
320,192,29041,1,0,0:0:0:0:
192,192,29110,1,0,0:0:0:0:
320,192,29178,1,0,0:0:0:0:
448,192,29213,1,0,0:0:0:0:
192,192,29247,1,0,0:0:0:0:
320,192,29384,128,0,29453:0:0:0:0:
320,192,29590,128,0,29659:0:0:0:0:
64,192,29590,128,0,29693:0:0:0:0:
320,192,30208,128,0,30276:0:0:0:0:
64,192,30414,128,0,30516:0:0:0:0:
320,192,30619,128,0,30688:0:0:0:0:
192,192,30825,128,0,30894:0:0:0:0:
448,192,30928,1,0,0:0:0:0:
192,192,31031,1,0,0:0:0:0:
192,192,31237,1,0,0:0:0:0:
64,192,31237,128,0,31340:0:0:0:0:
320,192,31319,1,0,0:0:0:0:
448,192,31402,1,0,0:0:0:0:
192,192,31443,128,0,31511:0:0:0:0:
320,192,31484,1,0,0:0:0:0:
448,192,31566,1,0,0:0:0:0:
192,192,31649,128,0,31717:0:0:0:0:
192,192,31854,1,0,0:0:0:0:
64,192,32060,128,0,32129:0:0:0:0:
192,192,32086,128,0,32189:0:0:0:0:
320,192,32163,1,0,0:0:0:0:
448,192,32266,1,0,0:0:0:0:
192,192,32472,128,0,32541:0:0:0:0:
448,192,32575,1,0,0:0:0:0:
320,192,32678,128,0,32746:0:0:0:0:
64,192,32781,1,0,0:0:0:0:
192,192,32884,128,0,32952:0:0:0:0:
64,192,32909,128,0,33012:0:0:0:0:
448,192,32987,1,0,0:0:0:0:
192,192,33090,1,0,0:0:0:0:
64,192,33192,1,0,0:0:0:0:
192,192,33295,1,0,0:0:0:0:
448,192,33398,1,0,0:0:0:0:
192,192,33501,128,0,33570:0:0:0:0:
64,192,33707,128,0,33810:0:0:0:0:
192,192,33707,1,0,0:0:0:0:
192,192,33913,128,0,33982:0:0:0:0:
192,192,34119,128,0,34187:0:0:0:0:
448,192,34222,1,0,0:0:0:0:
192,192,34325,1,0,0:0:0:0:
192,192,34530,1,0,0:0:0:0:
64,192,34530,128,0,34633:0:0:0:0:
448,192,34613,1,0,0:0:0:0:
320,192,34695,1,0,0:0:0:0:
192,192,34736,128,0,34805:0:0:0:0:
64,192,34778,1,0,0:0:0:0:
320,192,34942,128,0,35011:0:0:0:0:
192,192,34942,1,0,0:0:0:0:
448,192,35045,1,0,0:0:0:0:
192,192,35148,128,0,35217:0:0:0:0:
192,192,35354,128,0,35422:0:0:0:0:
64,192,35354,128,0,35457:0:0:0:0:
192,192,35560,1,0,0:0:0:0:
192,192,35766,128,0,35834:0:0:0:0:
64,192,35868,1,0,0:0:0:0:
320,192,35971,128,0,36040:0:0:0:0:
192,192,35971,1,0,0:0:0:0:
448,192,36074,1,0,0:0:0:0:
192,192,36177,128,0,36246:0:0:0:0:
64,192,36177,128,0,36280:0:0:0:0:
192,192,36589,1,0,0:0:0:0:
64,192,36692,1,0,0:0:0:0:
320,192,36795,1,0,0:0:0:0:
320,192,37001,1,0,0:0:0:0:
448,192,37001,1,0,0:0:0:0:
64,192,37206,1,0,0:0:0:0:
320,192,37412,1,0,0:0:0:0:
448,192,37515,1,0,0:0:0:0:
192,192,37618,1,0,0:0:0:0:
192,192,37824,1,0,0:0:0:0:
448,192,37906,1,0,0:0:0:0:
64,192,37989,1,0,0:0:0:0:
448,192,38071,1,0,0:0:0:0:
192,192,38236,1,0,0:0:0:0:
192,192,38442,1,0,0:0:0:0:
64,192,38647,1,0,0:0:0:0:
448,192,38647,1,0,0:0:0:0:
192,192,38853,1,0,0:0:0:0:
320,192,38853,1,0,0:0:0:0:
64,192,39059,1,0,0:0:0:0:
448,192,39059,1,0,0:0:0:0:
192,192,39128,1,0,0:0:0:0:
320,192,39196,1,0,0:0:0:0:
192,192,39265,1,0,0:0:0:0:
64,192,39353,1,0,0:0:0:0:
320,192,39471,1,0,0:0:0:0:
448,192,39471,1,0,0:0:0:0:
448,192,39574,1,0,0:0:0:0:
192,192,39574,1,0,0:0:0:0:
64,192,39677,1,0,0:0:0:0:
448,192,39780,1,0,0:0:0:0:
320,192,39882,1,0,0:0:0:0:
64,192,39985,1,0,0:0:0:0:
64,192,40088,1,0,0:0:0:0:
448,192,40088,1,0,0:0:0:0:
192,192,40123,1,0,0:0:0:0:
192,192,40294,1,0,0:0:0:0:
320,192,40294,1,0,0:0:0:0:
448,192,40346,1,0,0:0:0:0:
320,192,40397,1,0,0:0:0:0:
64,192,40500,1,0,0:0:0:0:
192,192,40569,1,0,0:0:0:0:
320,192,40637,1,0,0:0:0:0:
192,192,40706,1,0,0:0:0:0:
64,192,40706,1,0,0:0:0:0:
448,192,40912,1,0,0:0:0:0:
64,192,40912,1,0,0:0:0:0:
320,192,40946,1,0,0:0:0:0:
192,192,41118,1,0,0:0:0:0:
64,192,41186,1,0,0:0:0:0:
320,192,41255,1,0,0:0:0:0:
448,192,41358,1,0,0:0:0:0:
320,192,41529,1,0,0:0:0:0:
448,192,41529,1,0,0:0:0:0:
64,192,41735,1,0,0:0:0:0:
192,192,41769,1,0,0:0:0:0:
192,192,41941,1,0,0:0:0:0:
320,192,41941,1,0,0:0:0:0:
448,192,41992,1,0,0:0:0:0:
320,192,42044,1,0,0:0:0:0:
192,192,42147,1,0,0:0:0:0:
64,192,42147,1,0,0:0:0:0:
448,192,42215,1,0,0:0:0:0:
320,192,42284,1,0,0:0:0:0:
64,192,42353,1,0,0:0:0:0:
448,192,42558,1,0,0:0:0:0:
320,192,42647,1,0,0:0:0:0:
448,192,42764,1,0,0:0:0:0:
64,192,42764,1,0,0:0:0:0:
192,192,42833,1,0,0:0:0:0:
320,192,42902,1,0,0:0:0:0:
192,192,42970,1,0,0:0:0:0:
448,192,43073,1,0,0:0:0:0:
320,192,43176,1,0,0:0:0:0:
448,192,43382,1,0,0:0:0:0:
192,192,43382,1,0,0:0:0:0:
64,192,43588,1,0,0:0:0:0:
448,192,43588,1,0,0:0:0:0:
320,192,43639,1,0,0:0:0:0:
64,192,43691,1,0,0:0:0:0:
192,192,43794,1,0,0:0:0:0:
320,192,43896,1,0,0:0:0:0:
192,192,43999,1,0,0:0:0:0:
64,192,43999,1,0,0:0:0:0:
320,192,44205,1,0,0:0:0:0:
64,192,44205,1,0,0:0:0:0:
320,192,44308,1,0,0:0:0:0:
448,192,44411,1,0,0:0:0:0:
192,192,44463,1,0,0:0:0:0:
64,192,44514,1,0,0:0:0:0:
320,192,44617,1,0,0:0:0:0:
64,192,44720,1,0,0:0:0:0:
192,192,44823,1,0,0:0:0:0:
448,192,44823,1,0,0:0:0:0:
448,192,44926,1,0,0:0:0:0:
64,192,45029,1,0,0:0:0:0:
320,192,45080,1,0,0:0:0:0:
448,192,45132,1,0,0:0:0:0:
448,192,45234,1,0,0:0:0:0:
64,192,45234,1,0,0:0:0:0:
192,192,45440,1,0,0:0:0:0:
64,192,45440,1,0,0:0:0:0:
192,192,45543,1,0,0:0:0:0:
320,192,45646,1,0,0:0:0:0:
320,192,45749,1,0,0:0:0:0:
320,192,45852,1,0,0:0:0:0:
320,192,45955,1,0,0:0:0:0:
64,192,46058,1,0,0:0:0:0:
448,192,46058,1,0,0:0:0:0:
192,192,46109,1,0,0:0:0:0:
320,192,46161,1,0,0:0:0:0:
64,192,46264,1,0,0:0:0:0:
64,192,46367,1,0,0:0:0:0:
320,192,46470,1,0,0:0:0:0:
320,192,46607,1,0,0:0:0:0:
448,192,46675,1,0,0:0:0:0:
64,192,46675,1,0,0:0:0:0:
192,192,46734,1,0,0:0:0:0:
320,192,46793,1,0,0:0:0:0:
64,192,46851,1,0,0:0:0:0:
448,192,46881,1,0,0:0:0:0:
192,192,46910,1,0,0:0:0:0:
320,192,46969,1,0,0:0:0:0:
64,192,47087,1,0,0:0:0:0:
64,192,47190,1,0,0:0:0:0:
448,192,47293,1,0,0:0:0:0:
320,192,47293,1,0,0:0:0:0:
448,192,47396,1,0,0:0:0:0:
64,192,47499,1,0,0:0:0:0:
320,192,47499,1,0,0:0:0:0:
192,192,47533,1,0,0:0:0:0:
320,192,47705,1,0,0:0:0:0:
320,192,47808,1,0,0:0:0:0:
320,192,47910,1,0,0:0:0:0:
320,192,48013,1,0,0:0:0:0:
64,192,48116,1,0,0:0:0:0:
448,192,48116,1,0,0:0:0:0:
64,192,48219,1,0,0:0:0:0:
192,192,48254,1,0,0:0:0:0:
448,192,48322,1,0,0:0:0:0:
320,192,48380,1,0,0:0:0:0:
192,192,48439,1,0,0:0:0:0:
448,192,48498,1,0,0:0:0:0:
64,192,48528,1,0,0:0:0:0:
320,192,48557,1,0,0:0:0:0:
192,192,48616,1,0,0:0:0:0:
320,192,48734,1,0,0:0:0:0:
448,192,48734,1,0,0:0:0:0:
448,192,48837,1,0,0:0:0:0:
64,192,48940,1,0,0:0:0:0:
320,192,49008,1,0,0:0:0:0:
192,192,49077,1,0,0:0:0:0:
192,192,49214,1,0,0:0:0:0:
192,192,49300,1,0,0:0:0:0:
64,192,49351,1,0,0:0:0:0:
448,192,49351,1,0,0:0:0:0:
320,192,49506,1,0,0:0:0:0:
320,192,49609,1,0,0:0:0:0:
320,192,49712,1,0,0:0:0:0:
64,192,49763,1,0,0:0:0:0:
192,192,49815,1,0,0:0:0:0:
448,192,49969,1,0,0:0:0:0:
320,192,49969,1,0,0:0:0:0:
192,192,50028,1,0,0:0:0:0:
64,192,50087,1,0,0:0:0:0:
320,192,50146,1,0,0:0:0:0:
448,192,50175,1,0,0:0:0:0:
192,192,50205,1,0,0:0:0:0:
64,192,50263,1,0,0:0:0:0:
320,192,50381,1,0,0:0:0:0:
448,192,50432,1,0,0:0:0:0:
192,192,50484,1,0,0:0:0:0:
320,192,50535,1,0,0:0:0:0:
448,192,50586,1,0,0:0:0:0:
64,192,50586,1,0,0:0:0:0:
64,192,50689,1,0,0:0:0:0:
448,192,50792,1,0,0:0:0:0:
320,192,50792,1,0,0:0:0:0:
192,192,50895,1,0,0:0:0:0:
320,192,50998,1,0,0:0:0:0:
64,192,51032,1,0,0:0:0:0:
192,192,51204,1,0,0:0:0:0:
192,192,51307,1,0,0:0:0:0:
64,192,51410,1,0,0:0:0:0:
448,192,51410,1,0,0:0:0:0:
448,192,51513,1,0,0:0:0:0:
192,192,51616,1,0,0:0:0:0:
320,192,51675,1,0,0:0:0:0:
448,192,51734,1,0,0:0:0:0:
192,192,51793,1,0,0:0:0:0:
64,192,51822,1,0,0:0:0:0:
320,192,51851,1,0,0:0:0:0:
448,192,51910,1,0,0:0:0:0:
320,192,52027,1,0,0:0:0:0:
64,192,52027,1,0,0:0:0:0:
192,192,52130,1,0,0:0:0:0:
448,192,52233,1,0,0:0:0:0:
448,192,52336,1,0,0:0:0:0:
192,192,52388,1,0,0:0:0:0:
64,192,52439,1,0,0:0:0:0:
64,192,52545,1,0,0:0:0:0:
448,192,52648,1,0,0:0:0:0:
320,192,52648,1,0,0:0:0:0:
192,192,52696,1,0,0:0:0:0:
448,192,52748,1,0,0:0:0:0:
64,192,52851,1,0,0:0:0:0:
192,192,52919,1,0,0:0:0:0:
320,192,52988,1,0,0:0:0:0:
64,192,53057,1,0,0:0:0:0:
448,192,53160,1,0,0:0:0:0:
64,192,53262,1,0,0:0:0:0:
192,192,53262,1,0,0:0:0:0:
320,192,53331,1,0,0:0:0:0:
64,192,53400,1,0,0:0:0:0:
192,192,53468,1,0,0:0:0:0:
448,192,53468,1,0,0:0:0:0:
320,192,53674,1,0,0:0:0:0:
320,192,53880,1,0,0:0:0:0:
448,192,53880,1,0,0:0:0:0:
64,192,53949,1,0,0:0:0:0:
192,192,54086,1,0,0:0:0:0:
448,192,54086,1,0,0:0:0:0:
192,192,54189,1,0,0:0:0:0:
64,192,54292,1,0,0:0:0:0:
448,192,54343,1,0,0:0:0:0:
64,192,54395,1,0,0:0:0:0:
320,192,54498,1,0,0:0:0:0:
192,192,54549,1,0,0:0:0:0:
320,192,54600,1,0,0:0:0:0:
64,192,54703,1,0,0:0:0:0:
192,192,54703,1,0,0:0:0:0:
448,192,54755,1,0,0:0:0:0:
64,192,54806,1,0,0:0:0:0:
320,192,54909,1,0,0:0:0:0:
192,192,54961,1,0,0:0:0:0:
320,192,55012,1,0,0:0:0:0:
64,192,55115,1,0,0:0:0:0:
448,192,55115,1,0,0:0:0:0:
192,192,55167,1,0,0:0:0:0:
64,192,55218,1,0,0:0:0:0:
448,192,55269,1,0,0:0:0:0:
320,192,55321,1,0,0:0:0:0:
192,192,55321,1,0,0:0:0:0:
64,192,55527,1,0,0:0:0:0:
192,192,55578,1,0,0:0:0:0:
320,192,55664,1,0,0:0:0:0:
192,192,55733,1,0,0:0:0:0:
448,192,55801,1,0,0:0:0:0:
320,192,55836,1,0,0:0:0:0:
64,192,55938,1,0,0:0:0:0:
192,192,55938,1,0,0:0:0:0:
320,192,55990,1,0,0:0:0:0:
448,192,56041,1,0,0:0:0:0:
192,192,56144,1,0,0:0:0:0:
64,192,56213,1,0,0:0:0:0:
320,192,56265,1,0,0:0:0:0:
448,192,56316,1,0,0:0:0:0:
192,192,56350,1,0,0:0:0:0:
64,192,56487,1,0,0:0:0:0:
320,192,56539,1,0,0:0:0:0:
192,192,56556,1,0,0:0:0:0:
448,192,56590,1,0,0:0:0:0:
64,192,56762,1,0,0:0:0:0:
448,192,56762,1,0,0:0:0:0:
192,192,56813,1,0,0:0:0:0:
320,192,56865,1,0,0:0:0:0:
64,192,56968,1,0,0:0:0:0:
192,192,57071,1,0,0:0:0:0:
320,192,57174,1,0,0:0:0:0:
448,192,57174,1,0,0:0:0:0:
448,192,57276,1,0,0:0:0:0:
192,192,57379,1,0,0:0:0:0:
64,192,57379,1,0,0:0:0:0:
64,192,57482,1,0,0:0:0:0:
448,192,57585,1,0,0:0:0:0:
320,192,57620,1,0,0:0:0:0:
320,192,57791,1,0,0:0:0:0:
448,192,57825,1,0,0:0:0:0:
448,192,57997,1,0,0:0:0:0:
320,192,58031,1,0,0:0:0:0:
320,192,58203,1,0,0:0:0:0:
448,192,58237,1,0,0:0:0:0:
448,192,58409,1,0,0:0:0:0:
192,192,58409,1,0,0:0:0:0:
64,192,58409,1,0,0:0:0:0:
320,192,58443,1,0,0:0:0:0:
192,192,58512,1,0,0:0:0:0:
320,192,58614,1,0,0:0:0:0:
64,192,58614,1,0,0:0:0:0:
448,192,58717,1,0,0:0:0:0:
192,192,58820,1,0,0:0:0:0:
192,192,58923,1,0,0:0:0:0:
320,192,59026,1,0,0:0:0:0:
320,192,59232,1,0,0:0:0:0:
448,192,59232,1,0,0:0:0:0:
64,192,59301,1,0,0:0:0:0:
448,192,59369,1,0,0:0:0:0:
192,192,59438,1,0,0:0:0:0:
192,192,59541,1,0,0:0:0:0:
64,192,59644,1,0,0:0:0:0:
320,192,59703,1,0,0:0:0:0:
448,192,59761,1,0,0:0:0:0:
192,192,59820,1,0,0:0:0:0:
320,192,59879,1,0,0:0:0:0:
64,192,60055,1,0,0:0:0:0:
192,192,60055,1,0,0:0:0:0:
448,192,60107,1,0,0:0:0:0:
64,192,60158,1,0,0:0:0:0:
64,192,60261,1,0,0:0:0:0:
192,192,60364,1,0,0:0:0:0:
320,192,60467,1,0,0:0:0:0:
448,192,60467,1,0,0:0:0:0:
448,192,60570,1,0,0:0:0:0:
64,192,60673,1,0,0:0:0:0:
192,192,60673,1,0,0:0:0:0:
192,192,60776,1,0,0:0:0:0:
448,192,60879,1,0,0:0:0:0:
64,192,60930,1,0,0:0:0:0:
320,192,60982,1,0,0:0:0:0:
448,192,61085,1,0,0:0:0:0:
192,192,61188,1,0,0:0:0:0:
320,192,61239,1,0,0:0:0:0:
448,192,61290,1,0,0:0:0:0:
64,192,61290,1,0,0:0:0:0:
192,192,61359,1,0,0:0:0:0:
64,192,61496,1,0,0:0:0:0:
320,192,61565,1,0,0:0:0:0:
192,192,61634,1,0,0:0:0:0:
64,192,61702,1,0,0:0:0:0:
448,192,61702,1,0,0:0:0:0:
320,192,61771,1,0,0:0:0:0:
448,192,61839,1,0,0:0:0:0:
64,192,61908,1,0,0:0:0:0:
192,192,61908,1,0,0:0:0:0:
64,192,62011,1,0,0:0:0:0:
192,192,62114,1,0,0:0:0:0:
448,192,62217,1,0,0:0:0:0:
192,192,62290,1,0,0:0:0:0:
320,192,62354,1,0,0:0:0:0:
320,192,62526,1,0,0:0:0:0:
448,192,62526,1,0,0:0:0:0:
192,192,62577,1,0,0:0:0:0:
64,192,62628,1,0,0:0:0:0:
320,192,62731,1,0,0:0:0:0:
192,192,62800,1,0,0:0:0:0:
320,192,62937,1,0,0:0:0:0:
448,192,63006,1,0,0:0:0:0:
192,192,63074,1,0,0:0:0:0:
320,192,63143,1,0,0:0:0:0:
64,192,63143,1,0,0:0:0:0:
448,192,63246,1,0,0:0:0:0:
64,192,63349,1,0,0:0:0:0:
192,192,63349,1,0,0:0:0:0:
320,192,63418,1,0,0:0:0:0:
64,192,63520,1,0,0:0:0:0:
192,192,63555,1,0,0:0:0:0:
192,192,63658,1,0,0:0:0:0:
320,192,63761,1,0,0:0:0:0:
448,192,63761,1,0,0:0:0:0:
64,192,63829,1,0,0:0:0:0:
448,192,63898,1,0,0:0:0:0:
64,192,63966,1,0,0:0:0:0:
192,192,63966,1,0,0:0:0:0:
320,192,64018,1,0,0:0:0:0:
64,192,64069,1,0,0:0:0:0:
192,192,64172,1,0,0:0:0:0:
320,192,64224,1,0,0:0:0:0:
448,192,64275,1,0,0:0:0:0:
64,192,64378,1,0,0:0:0:0:
320,192,64447,1,0,0:0:0:0:
192,192,64498,1,0,0:0:0:0:
64,192,64550,1,0,0:0:0:0:
320,192,64584,1,0,0:0:0:0:
448,192,64584,1,0,0:0:0:0:
192,192,64687,1,0,0:0:0:0:
448,192,64790,1,0,0:0:0:0:
192,192,64893,1,0,0:0:0:0:
64,192,64944,1,0,0:0:0:0:
320,192,64996,1,0,0:0:0:0:
448,192,64996,1,0,0:0:0:0:
192,192,65055,1,0,0:0:0:0:
448,192,65113,1,0,0:0:0:0:
64,192,65202,1,0,0:0:0:0:
320,192,65202,1,0,0:0:0:0:
192,192,65261,1,0,0:0:0:0:
320,192,65320,1,0,0:0:0:0:
64,192,65407,1,0,0:0:0:0:
192,192,65459,1,0,0:0:0:0:
64,192,65510,1,0,0:0:0:0:
448,192,65613,1,0,0:0:0:0:
320,192,65665,1,0,0:0:0:0:
448,192,65716,1,0,0:0:0:0:
192,192,65819,1,0,0:0:0:0:
64,192,65819,1,0,0:0:0:0:
320,192,65865,1,0,0:0:0:0:
192,192,65911,1,0,0:0:0:0:
64,192,65956,1,0,0:0:0:0:
320,192,65996,1,0,0:0:0:0:
192,192,66054,1,0,0:0:0:0:
64,192,66113,1,0,0:0:0:0:
320,192,66231,1,0,0:0:0:0:
320,192,66437,1,0,0:0:0:0:
448,192,66437,1,0,0:0:0:0:
448,192,66642,1,0,0:0:0:0:
64,192,66642,1,0,0:0:0:0:
192,192,66848,1,0,0:0:0:0:
192,192,67054,1,0,0:0:0:0:
64,192,67054,1,0,0:0:0:0:
192,192,67260,1,0,0:0:0:0:
64,192,67260,1,0,0:0:0:0:
320,192,67466,1,0,0:0:0:0:
320,192,67672,1,0,0:0:0:0:
320,192,67878,1,0,0:0:0:0:
448,192,67878,1,0,0:0:0:0:
192,192,68083,1,0,0:0:0:0:
192,192,68289,1,0,0:0:0:0:
64,192,68289,1,0,0:0:0:0:
320,192,68348,1,0,0:0:0:0:
64,192,68407,1,0,0:0:0:0:
448,192,68495,1,0,0:0:0:0:
192,192,68495,1,0,0:0:0:0:
320,192,68553,1,0,0:0:0:0:
192,192,68612,1,0,0:0:0:0:
448,192,68701,1,0,0:0:0:0:
320,192,68752,1,0,0:0:0:0:
448,192,68804,1,0,0:0:0:0:
64,192,68907,1,0,0:0:0:0:
192,192,68958,1,0,0:0:0:0:
64,192,69010,1,0,0:0:0:0:
320,192,69113,1,0,0:0:0:0:
448,192,69113,1,0,0:0:0:0:
192,192,69158,1,0,0:0:0:0:
320,192,69204,1,0,0:0:0:0:
448,192,69250,1,0,0:0:0:0:
192,192,69289,1,0,0:0:0:0:
320,192,69348,1,0,0:0:0:0:
448,192,69407,1,0,0:0:0:0:
192,192,69524,1,0,0:0:0:0:
192,192,69730,1,0,0:0:0:0:
64,192,69730,1,0,0:0:0:0:
64,192,69936,1,0,0:0:0:0:
448,192,69936,1,0,0:0:0:0:
320,192,70142,1,0,0:0:0:0:
320,192,70348,1,0,0:0:0:0:
448,192,70348,1,0,0:0:0:0:
320,192,70554,1,0,0:0:0:0:
448,192,70554,1,0,0:0:0:0:
192,192,70759,1,0,0:0:0:0:
192,192,70965,1,0,0:0:0:0:
192,192,71171,1,0,0:0:0:0:
64,192,71171,1,0,0:0:0:0:
320,192,71377,1,0,0:0:0:0:
64,192,71583,1,0,0:0:0:0:
448,192,71583,1,0,0:0:0:0:
192,192,71651,1,0,0:0:0:0:
320,192,71720,1,0,0:0:0:0:
192,192,71789,1,0,0:0:0:0:
64,192,71789,1,0,0:0:0:0:
448,192,71857,1,0,0:0:0:0:
320,192,71926,1,0,0:0:0:0:
64,192,71994,1,0,0:0:0:0:
448,192,72077,1,0,0:0:0:0:
192,192,72159,1,0,0:0:0:0:
320,192,72177,1,0,0:0:0:0:
448,192,72241,1,0,0:0:0:0:
192,192,72406,1,0,0:0:0:0:
64,192,72406,1,0,0:0:0:0:
448,192,72465,1,0,0:0:0:0:
320,192,72524,1,0,0:0:0:0:
192,192,72583,1,0,0:0:0:0:
448,192,72641,1,0,0:0:0:0:
64,192,72700,1,0,0:0:0:0:
192,192,72759,1,0,0:0:0:0:
448,192,72818,1,0,0:0:0:0:
320,192,72844,1,0,0:0:0:0:
320,192,73024,1,0,0:0:0:0:
448,192,73024,1,0,0:0:0:0:
192,192,73127,1,0,0:0:0:0:
64,192,73230,1,0,0:0:0:0:
448,192,73230,1,0,0:0:0:0:
64,192,73332,1,0,0:0:0:0:
320,192,73435,1,0,0:0:0:0:
320,192,73538,1,0,0:0:0:0:
448,192,73641,1,0,0:0:0:0:
64,192,73641,1,0,0:0:0:0:
320,192,73693,1,0,0:0:0:0:
192,192,73744,1,0,0:0:0:0:
320,192,73847,1,0,0:0:0:0:
64,192,73847,1,0,0:0:0:0:
192,192,74053,1,0,0:0:0:0:
448,192,74112,1,0,0:0:0:0:
320,192,74171,1,0,0:0:0:0:
192,192,74229,1,0,0:0:0:0:
448,192,74288,1,0,0:0:0:0:
64,192,74347,1,0,0:0:0:0:
192,192,74406,1,0,0:0:0:0:
448,192,74465,1,0,0:0:0:0:
64,192,74465,1,0,0:0:0:0:
320,192,74490,1,0,0:0:0:0:
320,192,74670,1,0,0:0:0:0:
192,192,74773,1,0,0:0:0:0:
64,192,74876,1,0,0:0:0:0:
448,192,74876,1,0,0:0:0:0:
64,192,74979,1,0,0:0:0:0:
320,192,75082,1,0,0:0:0:0:
448,192,75082,1,0,0:0:0:0:
448,192,75185,1,0,0:0:0:0:
64,192,75288,1,0,0:0:0:0:
320,192,75339,1,0,0:0:0:0:
192,192,75391,1,0,0:0:0:0:
448,192,75494,1,0,0:0:0:0:
192,192,75700,1,0,0:0:0:0:
64,192,75700,1,0,0:0:0:0:
448,192,75759,1,0,0:0:0:0:
320,192,75817,1,0,0:0:0:0:
192,192,75876,1,0,0:0:0:0:
448,192,75935,1,0,0:0:0:0:
64,192,75994,1,0,0:0:0:0:
192,192,76053,1,0,0:0:0:0:
448,192,76111,1,0,0:0:0:0:
320,192,76137,1,0,0:0:0:0:
320,192,76317,1,0,0:0:0:0:
448,192,76317,1,0,0:0:0:0:
192,192,76420,1,0,0:0:0:0:
64,192,76523,1,0,0:0:0:0:
448,192,76523,1,0,0:0:0:0:
64,192,76626,1,0,0:0:0:0:
320,192,76729,1,0,0:0:0:0:
320,192,76832,1,0,0:0:0:0:
192,192,76935,1,0,0:0:0:0:
64,192,76935,1,0,0:0:0:0:
64,192,77038,1,0,0:0:0:0:
320,192,77141,1,0,0:0:0:0:
448,192,77141,1,0,0:0:0:0:
192,192,77209,1,0,0:0:0:0:
320,192,77278,1,0,0:0:0:0:
448,192,77346,1,0,0:0:0:0:
320,192,77552,1,0,0:0:0:0:
192,192,77621,1,0,0:0:0:0:
64,192,77690,1,0,0:0:0:0:
320,192,77758,1,0,0:0:0:0:
448,192,77758,1,0,0:0:0:0:
192,192,77827,1,0,0:0:0:0:
64,192,77895,1,0,0:0:0:0:
448,192,77964,1,0,0:0:0:0:
192,192,78033,1,0,0:0:0:0:
64,192,78101,1,0,0:0:0:0:
320,192,78170,1,0,0:0:0:0:
448,192,78170,1,0,0:0:0:0:
192,192,78229,1,0,0:0:0:0:
448,192,78287,1,0,0:0:0:0:
64,192,78376,1,0,0:0:0:0:
320,192,78376,1,0,0:0:0:0:
192,192,78435,1,0,0:0:0:0:
320,192,78494,1,0,0:0:0:0:
64,192,78582,1,0,0:0:0:0:
192,192,78633,1,0,0:0:0:0:
64,192,78684,1,0,0:0:0:0:
448,192,78787,1,0,0:0:0:0:
320,192,78839,1,0,0:0:0:0:
448,192,78890,1,0,0:0:0:0:
192,192,78993,1,0,0:0:0:0:
64,192,78993,1,0,0:0:0:0:
320,192,79039,1,0,0:0:0:0:
192,192,79085,1,0,0:0:0:0:
64,192,79130,1,0,0:0:0:0:
320,192,79170,1,0,0:0:0:0:
192,192,79228,1,0,0:0:0:0:
64,192,79287,1,0,0:0:0:0:
320,192,79405,1,0,0:0:0:0:
320,192,79611,1,0,0:0:0:0:
448,192,79611,1,0,0:0:0:0:
448,192,79817,1,0,0:0:0:0:
64,192,79817,1,0,0:0:0:0:
192,192,80022,1,0,0:0:0:0:
192,192,80228,1,0,0:0:0:0:
64,192,80228,1,0,0:0:0:0:
192,192,80434,1,0,0:0:0:0:
64,192,80434,1,0,0:0:0:0:
320,192,80640,1,0,0:0:0:0:
320,192,80846,1,0,0:0:0:0:
320,192,81052,1,0,0:0:0:0:
448,192,81052,1,0,0:0:0:0:
192,192,81258,1,0,0:0:0:0:
192,192,81463,1,0,0:0:0:0:
64,192,81463,1,0,0:0:0:0:
320,192,81522,1,0,0:0:0:0:
64,192,81581,1,0,0:0:0:0:
448,192,81669,1,0,0:0:0:0:
192,192,81669,1,0,0:0:0:0:
320,192,81727,1,0,0:0:0:0:
192,192,81786,1,0,0:0:0:0:
448,192,81875,1,0,0:0:0:0:
320,192,81927,1,0,0:0:0:0:
448,192,81978,1,0,0:0:0:0:
64,192,82081,1,0,0:0:0:0:
192,192,82132,1,0,0:0:0:0:
64,192,82184,1,0,0:0:0:0:
320,192,82287,1,0,0:0:0:0:
448,192,82287,1,0,0:0:0:0:
192,192,82333,1,0,0:0:0:0:
320,192,82378,1,0,0:0:0:0:
448,192,82424,1,0,0:0:0:0:
192,192,82463,1,0,0:0:0:0:
320,192,82522,1,0,0:0:0:0:
448,192,82581,1,0,0:0:0:0:
192,192,82698,1,0,0:0:0:0:
192,192,82904,1,0,0:0:0:0:
64,192,82904,1,0,0:0:0:0:
64,192,83110,1,0,0:0:0:0:
448,192,83110,1,0,0:0:0:0:
320,192,83316,1,0,0:0:0:0:
320,192,83522,1,0,0:0:0:0:
448,192,83522,1,0,0:0:0:0:
320,192,83728,1,0,0:0:0:0:
448,192,83728,1,0,0:0:0:0:
192,192,83934,1,0,0:0:0:0:
192,192,84139,1,0,0:0:0:0:
192,192,84345,1,0,0:0:0:0:
64,192,84345,1,0,0:0:0:0:
320,192,84551,1,0,0:0:0:0:
64,192,84757,1,0,0:0:0:0:
448,192,84757,1,0,0:0:0:0:
192,192,84826,1,0,0:0:0:0:
320,192,84894,1,0,0:0:0:0:
192,192,84963,1,0,0:0:0:0:
64,192,84963,1,0,0:0:0:0:
448,192,85031,1,0,0:0:0:0:
320,192,85100,1,0,0:0:0:0:
64,192,85169,1,0,0:0:0:0:
448,192,85251,1,0,0:0:0:0:
192,192,85333,1,0,0:0:0:0:
320,192,85352,1,0,0:0:0:0:
448,192,85416,1,0,0:0:0:0:
192,192,85580,1,0,0:0:0:0:
64,192,85580,1,0,0:0:0:0:
448,192,85639,1,0,0:0:0:0:
320,192,85698,1,0,0:0:0:0:
192,192,85757,1,0,0:0:0:0:
448,192,85816,1,0,0:0:0:0:
64,192,85874,1,0,0:0:0:0:
192,192,85933,1,0,0:0:0:0:
448,192,85992,1,0,0:0:0:0:
320,192,86018,1,0,0:0:0:0:
64,192,86198,1,0,0:0:0:0:
448,192,86198,1,0,0:0:0:0:
320,192,86301,1,0,0:0:0:0:
192,192,86404,1,0,0:0:0:0:
64,192,86404,1,0,0:0:0:0:
64,192,86507,1,0,0:0:0:0:
320,192,86610,1,0,0:0:0:0:
320,192,86712,1,0,0:0:0:0:
64,192,86815,1,0,0:0:0:0:
448,192,86815,1,0,0:0:0:0:
320,192,86867,1,0,0:0:0:0:
192,192,86918,1,0,0:0:0:0:
64,192,87021,1,0,0:0:0:0:
320,192,87021,1,0,0:0:0:0:
192,192,87227,1,0,0:0:0:0:
448,192,87286,1,0,0:0:0:0:
320,192,87345,1,0,0:0:0:0:
192,192,87404,1,0,0:0:0:0:
448,192,87462,1,0,0:0:0:0:
64,192,87521,1,0,0:0:0:0:
192,192,87580,1,0,0:0:0:0:
64,192,87639,1,0,0:0:0:0:
448,192,87639,1,0,0:0:0:0:
320,192,87664,1,0,0:0:0:0:
320,192,87845,1,0,0:0:0:0:
448,192,87948,1,0,0:0:0:0:
192,192,88050,1,0,0:0:0:0:
64,192,88050,1,0,0:0:0:0:
64,192,88153,1,0,0:0:0:0:
320,192,88256,1,0,0:0:0:0:
448,192,88256,1,0,0:0:0:0:
448,192,88359,1,0,0:0:0:0:
64,192,88462,1,0,0:0:0:0:
320,192,88514,1,0,0:0:0:0:
192,192,88565,1,0,0:0:0:0:
448,192,88668,1,0,0:0:0:0:
192,192,88874,1,0,0:0:0:0:
64,192,88874,1,0,0:0:0:0:
448,192,88933,1,0,0:0:0:0:
320,192,88991,1,0,0:0:0:0:
192,192,89050,1,0,0:0:0:0:
448,192,89109,1,0,0:0:0:0:
64,192,89168,1,0,0:0:0:0:
192,192,89227,1,0,0:0:0:0:
448,192,89286,1,0,0:0:0:0:
320,192,89311,1,0,0:0:0:0:
448,192,89491,1,0,0:0:0:0:
64,192,89491,1,0,0:0:0:0:
320,192,89594,1,0,0:0:0:0:
192,192,89697,1,0,0:0:0:0:
64,192,89697,1,0,0:0:0:0:
64,192,89800,1,0,0:0:0:0:
320,192,89903,1,0,0:0:0:0:
320,192,90006,1,0,0:0:0:0:
192,192,90109,1,0,0:0:0:0:
64,192,90109,1,0,0:0:0:0:
64,192,90212,1,0,0:0:0:0:
320,192,90315,1,0,0:0:0:0:
448,192,90315,1,0,0:0:0:0:
192,192,90383,1,0,0:0:0:0:
320,192,90452,1,0,0:0:0:0:
448,192,90521,1,0,0:0:0:0:
320,192,90726,1,0,0:0:0:0:
192,192,90795,1,0,0:0:0:0:
64,192,90864,1,0,0:0:0:0:
320,192,90932,1,0,0:0:0:0:
448,192,90932,1,0,0:0:0:0:
192,192,91001,1,0,0:0:0:0:
64,192,91070,1,0,0:0:0:0:
448,192,91138,1,0,0:0:0:0:
192,192,91207,1,0,0:0:0:0:
64,192,91275,1,0,0:0:0:0:
320,192,91344,1,0,0:0:0:0:
448,192,91344,1,0,0:0:0:0:
448,192,91550,1,0,0:0:0:0:
64,192,91550,1,0,0:0:0:0:
192,192,91627,1,0,0:0:0:0:
320,192,91653,1,0,0:0:0:0:
64,192,91756,1,0,0:0:0:0:
448,192,91884,1,0,0:0:0:0:
320,192,91893,1,0,0:0:0:0:
192,192,91962,1,0,0:0:0:0:
64,192,92167,1,0,0:0:0:0:
320,192,92579,1,0,0:0:0:0:
320,192,92785,1,0,0:0:0:0:
192,192,92991,1,0,0:0:0:0:
448,192,93094,1,0,0:0:0:0:
320,192,93197,1,0,0:0:0:0:
64,192,93402,1,0,0:0:0:0:
64,192,93608,1,0,0:0:0:0:
192,192,93814,1,0,0:0:0:0:
192,192,93951,1,0,0:0:0:0:
64,192,94020,1,0,0:0:0:0:
448,192,94089,1,0,0:0:0:0:
320,192,94157,1,0,0:0:0:0:
192,192,94226,1,0,0:0:0:0:
320,192,94294,1,0,0:0:0:0:
448,192,94363,1,0,0:0:0:0:
64,192,94432,1,0,0:0:0:0:
192,192,94500,1,0,0:0:0:0:
320,192,94569,1,0,0:0:0:0:
192,192,94638,1,0,0:0:0:0:
64,192,94706,1,0,0:0:0:0:
448,192,94775,1,0,0:0:0:0:
320,192,94843,1,0,0:0:0:0:
192,192,94912,1,0,0:0:0:0:
320,192,94981,1,0,0:0:0:0:
448,192,95049,1,0,0:0:0:0:
192,192,95101,1,0,0:0:0:0:
320,192,95152,1,0,0:0:0:0:
192,192,96284,1,0,0:0:0:0:
320,192,96387,1,0,0:0:0:0:
192,192,96490,1,0,0:0:0:0:
192,192,96696,1,0,0:0:0:0:
448,192,96902,1,0,0:0:0:0:
64,192,97005,1,0,0:0:0:0:
320,192,97108,1,0,0:0:0:0:
192,192,97211,1,0,0:0:0:0:
320,192,97314,1,0,0:0:0:0:
448,192,97416,1,0,0:0:0:0:
64,192,97519,1,0,0:0:0:0:
448,192,97725,1,0,0:0:0:0:
192,192,97931,1,0,0:0:0:0:
192,192,98137,1,0,0:0:0:0:
320,192,98343,1,0,0:0:0:0:
192,192,98446,1,0,0:0:0:0:
320,192,98549,1,0,0:0:0:0:
448,192,98754,1,0,0:0:0:0:
192,192,98857,1,0,0:0:0:0:
64,192,98960,1,0,0:0:0:0:
320,192,99063,1,0,0:0:0:0:
320,192,99166,1,0,0:0:0:0:
192,192,99578,1,0,0:0:0:0:
320,192,99681,1,0,0:0:0:0:
192,192,99784,1,0,0:0:0:0:
64,192,99990,1,0,0:0:0:0:
64,192,100195,1,0,0:0:0:0:
448,192,100401,1,0,0:0:0:0:
192,192,100504,1,0,0:0:0:0:
320,192,100607,1,0,0:0:0:0:
448,192,100710,1,0,0:0:0:0:
448,192,100813,1,0,0:0:0:0:
192,192,101225,1,0,0:0:0:0:
192,192,101430,1,0,0:0:0:0:
192,192,101636,1,0,0:0:0:0:
320,192,101739,1,0,0:0:0:0:
64,192,101842,1,0,0:0:0:0:
192,192,101945,1,0,0:0:0:0:
64,192,102048,1,0,0:0:0:0:
320,192,102151,1,0,0:0:0:0:
448,192,102254,1,0,0:0:0:0:
448,192,102460,1,0,0:0:0:0:
192,192,102871,1,0,0:0:0:0:
192,192,103077,1,0,0:0:0:0:
320,192,103283,1,0,0:0:0:0:
64,192,103386,1,0,0:0:0:0:
192,192,103489,1,0,0:0:0:0:
192,192,103695,1,0,0:0:0:0:
192,192,103901,1,0,0:0:0:0:
320,192,104106,1,0,0:0:0:0:
64,192,104312,1,0,0:0:0:0:
448,192,104518,1,0,0:0:0:0:
192,192,104827,1,0,0:0:0:0:
192,192,104930,1,0,0:0:0:0:
448,192,105033,1,0,0:0:0:0:
320,192,105136,1,0,0:0:0:0:
192,192,105342,1,0,0:0:0:0:
192,192,105547,1,0,0:0:0:0:
192,192,105753,1,0,0:0:0:0:
192,192,105959,1,0,0:0:0:0:
64,192,106165,1,0,0:0:0:0:
448,192,106165,1,0,0:0:0:0:
320,192,106371,1,0,0:0:0:0:
320,192,106474,1,0,0:0:0:0:
192,192,106577,1,0,0:0:0:0:
448,192,106714,1,0,0:0:0:0:
320,192,106782,1,0,0:0:0:0:
448,192,106851,1,0,0:0:0:0:
192,192,106920,1,0,0:0:0:0:
64,192,106988,1,0,0:0:0:0:
64,192,107194,1,0,0:0:0:0:
64,192,107400,1,0,0:0:0:0:
64,192,107606,1,0,0:0:0:0:
64,192,107812,1,0,0:0:0:0:
448,192,107812,1,0,0:0:0:0:
448,192,108018,1,0,0:0:0:0:
320,192,108223,1,0,0:0:0:0:
448,192,108269,1,0,0:0:0:0:
192,192,108429,1,0,0:0:0:0:
448,192,108474,1,0,0:0:0:0:
64,192,108635,1,0,0:0:0:0:
320,192,108680,1,0,0:0:0:0:
64,192,108841,1,0,0:0:0:0:
192,192,108887,1,0,0:0:0:0:
64,192,109047,1,0,0:0:0:0:
320,192,109098,1,0,0:0:0:0:
448,192,109164,1,0,0:0:0:0:
192,192,109223,1,0,0:0:0:0:
320,192,109282,1,0,0:0:0:0:
192,192,109341,1,0,0:0:0:0:
448,192,109458,1,0,0:0:0:0:
64,192,109458,1,0,0:0:0:0:
448,192,109561,1,0,0:0:0:0:
192,192,109664,1,0,0:0:0:0:
320,192,109870,1,0,0:0:0:0:
320,192,110076,1,0,0:0:0:0:
64,192,110282,1,0,0:0:0:0:
448,192,110333,1,0,0:0:0:0:
192,192,110385,1,0,0:0:0:0:
320,192,110576,1,0,0:0:0:0:
192,192,110635,1,0,0:0:0:0:
64,192,110694,1,0,0:0:0:0:
448,192,110899,1,0,0:0:0:0:
192,192,110968,1,0,0:0:0:0:
320,192,111037,1,0,0:0:0:0:
448,192,111105,1,0,0:0:0:0:
64,192,111105,1,0,0:0:0:0:
192,192,111311,1,0,0:0:0:0:
192,192,111414,1,0,0:0:0:0:
448,192,111517,1,0,0:0:0:0:
320,192,111620,1,0,0:0:0:0:
448,192,111723,1,0,0:0:0:0:
192,192,111929,1,0,0:0:0:0:
320,192,112134,1,0,0:0:0:0:
64,192,112203,1,0,0:0:0:0:
192,192,112272,1,0,0:0:0:0:
448,192,112340,1,0,0:0:0:0:
192,192,112546,1,0,0:0:0:0:
320,192,112605,1,0,0:0:0:0:
192,192,112664,1,0,0:0:0:0:
320,192,112752,1,0,0:0:0:0:
448,192,112752,1,0,0:0:0:0:
64,192,112958,1,0,0:0:0:0:
192,192,113164,1,0,0:0:0:0:
64,192,113267,1,0,0:0:0:0:
320,192,113370,1,0,0:0:0:0:
320,192,113472,1,0,0:0:0:0:
192,192,113575,1,0,0:0:0:0:
320,192,113781,1,0,0:0:0:0:
64,192,113884,1,0,0:0:0:0:
448,192,113987,1,0,0:0:0:0:
320,192,114090,1,0,0:0:0:0:
192,192,114193,1,0,0:0:0:0:
320,192,114262,1,0,0:0:0:0:
64,192,114330,1,0,0:0:0:0:
192,192,114399,1,0,0:0:0:0:
448,192,114399,1,0,0:0:0:0:
64,192,114605,1,0,0:0:0:0:
320,192,114810,1,0,0:0:0:0:
192,192,114913,1,0,0:0:0:0:
448,192,115016,1,0,0:0:0:0:
448,192,115222,1,0,0:0:0:0:
192,192,115325,1,0,0:0:0:0:
320,192,115428,1,0,0:0:0:0:
64,192,115497,1,0,0:0:0:0:
192,192,115531,1,0,0:0:0:0:
64,192,115840,1,0,0:0:0:0:
320,192,115943,1,0,0:0:0:0:
192,192,116046,1,0,0:0:0:0:
64,192,116046,1,0,0:0:0:0:
192,192,116457,1,0,0:0:0:0:
64,192,116516,1,0,0:0:0:0:
448,192,116575,1,0,0:0:0:0:
448,192,116663,1,0,0:0:0:0:
192,192,116766,1,0,0:0:0:0:
448,192,116869,1,0,0:0:0:0:
64,192,116869,1,0,0:0:0:0:
320,192,116928,1,0,0:0:0:0:
192,192,116928,1,0,0:0:0:0:
320,192,117178,1,0,0:0:0:0:
192,192,117246,1,0,0:0:0:0:
448,192,117315,1,0,0:0:0:0:
64,192,117486,1,0,0:0:0:0:
448,192,117486,1,0,0:0:0:0:
192,192,117538,1,0,0:0:0:0:
320,192,117589,1,0,0:0:0:0:
192,192,117658,1,0,0:0:0:0:
64,192,117727,1,0,0:0:0:0:
448,192,118104,5,0,0:0:0:0:
192,192,118155,1,0,0:0:0:0:
64,192,118207,1,0,0:0:0:0:
320,192,118258,1,0,0:0:0:0:
192,192,118310,1,0,0:0:0:0:
448,192,118378,1,0,0:0:0:0:
320,192,118447,1,0,0:0:0:0:
192,192,118516,1,0,0:0:0:0:
64,192,118516,1,0,0:0:0:0:
320,192,118773,1,0,0:0:0:0:
192,192,118859,1,0,0:0:0:0:
192,192,118927,1,0,0:0:0:0:
448,192,118986,1,0,0:0:0:0:
64,192,119045,1,0,0:0:0:0:
320,192,119133,1,0,0:0:0:0:
448,192,119133,1,0,0:0:0:0:
448,192,119236,1,0,0:0:0:0:
448,192,119339,1,0,0:0:0:0:
192,192,119339,1,0,0:0:0:0:
64,192,119398,1,0,0:0:0:0:
320,192,119457,1,0,0:0:0:0:
64,192,119545,1,0,0:0:0:0:
64,192,119648,1,0,0:0:0:0:
64,192,119751,1,0,0:0:0:0:
448,192,119751,1,0,0:0:0:0:
192,192,119819,1,0,0:0:0:0:
320,192,119888,1,0,0:0:0:0:
192,192,119957,1,0,0:0:0:0:
64,192,119957,1,0,0:0:0:0:
320,192,120060,1,0,0:0:0:0:
320,192,120162,1,0,0:0:0:0:
192,192,120368,1,0,0:0:0:0:
192,192,120471,1,0,0:0:0:0:
192,192,120574,1,0,0:0:0:0:
448,192,120574,1,0,0:0:0:0:
320,192,120780,1,0,0:0:0:0:
448,192,120814,1,0,0:0:0:0:
320,192,120883,1,0,0:0:0:0:
320,192,120986,1,0,0:0:0:0:
192,192,120986,1,0,0:0:0:0:
64,192,121192,1,0,0:0:0:0:
448,192,121192,1,0,0:0:0:0:
64,192,121295,1,0,0:0:0:0:
64,192,121398,1,0,0:0:0:0:
320,192,121603,1,0,0:0:0:0:
320,192,121706,1,0,0:0:0:0:
320,192,121809,1,0,0:0:0:0:
64,192,121809,1,0,0:0:0:0:
192,192,122015,1,0,0:0:0:0:
192,192,122118,1,0,0:0:0:0:
192,192,122221,1,0,0:0:0:0:
320,192,122427,1,0,0:0:0:0:
448,192,122427,1,0,0:0:0:0:
448,192,122633,1,0,0:0:0:0:
64,192,122633,1,0,0:0:0:0:
320,192,122691,1,0,0:0:0:0:
64,192,122750,1,0,0:0:0:0:
448,192,122809,1,0,0:0:0:0:
192,192,122838,1,0,0:0:0:0:
320,192,122907,1,0,0:0:0:0:
192,192,122976,1,0,0:0:0:0:
64,192,123044,1,0,0:0:0:0:
448,192,123044,1,0,0:0:0:0:
192,192,123250,1,0,0:0:0:0:
64,192,123250,1,0,0:0:0:0:
320,192,123456,1,0,0:0:0:0:
320,192,123559,1,0,0:0:0:0:
64,192,123662,1,0,0:0:0:0:
64,192,123765,1,0,0:0:0:0:
192,192,123868,1,0,0:0:0:0:
448,192,123868,1,0,0:0:0:0:
448,192,123971,1,0,0:0:0:0:
64,192,124074,1,0,0:0:0:0:
192,192,124176,1,0,0:0:0:0:
64,192,124279,1,0,0:0:0:0:
448,192,124279,1,0,0:0:0:0:
320,192,124331,1,0,0:0:0:0:
448,192,124382,1,0,0:0:0:0:
192,192,124485,1,0,0:0:0:0:
64,192,124485,1,0,0:0:0:0:
448,192,124554,1,0,0:0:0:0:
192,192,124622,1,0,0:0:0:0:
64,192,124691,1,0,0:0:0:0:
320,192,124725,1,0,0:0:0:0:
320,192,124897,1,0,0:0:0:0:
320,192,125103,1,0,0:0:0:0:
448,192,125103,1,0,0:0:0:0:
64,192,125171,1,0,0:0:0:0:
320,192,125240,1,0,0:0:0:0:
448,192,125309,1,0,0:0:0:0:
192,192,125343,1,0,0:0:0:0:
320,192,125514,1,0,0:0:0:0:
192,192,125583,1,0,0:0:0:0:
64,192,125669,1,0,0:0:0:0:
320,192,125720,1,0,0:0:0:0:
448,192,125720,1,0,0:0:0:0:
448,192,125926,1,0,0:0:0:0:
64,192,125926,1,0,0:0:0:0:
192,192,125985,1,0,0:0:0:0:
320,192,126044,1,0,0:0:0:0:
64,192,126103,1,0,0:0:0:0:
192,192,126161,1,0,0:0:0:0:
448,192,126338,1,0,0:0:0:0:
64,192,126544,1,0,0:0:0:0:
320,192,126750,1,0,0:0:0:0:
192,192,126852,1,0,0:0:0:0:
448,192,126955,1,0,0:0:0:0:
64,192,127161,1,0,0:0:0:0:
64,192,127367,1,0,0:0:0:0:
320,192,127573,1,0,0:0:0:0:
448,192,127573,1,0,0:0:0:0:
192,192,127655,1,0,0:0:0:0:
320,192,127738,1,0,0:0:0:0:
192,192,127820,1,0,0:0:0:0:
320,192,127902,1,0,0:0:0:0:
64,192,127985,1,0,0:0:0:0:
320,192,128396,1,0,0:0:0:0:
64,192,128499,1,0,0:0:0:0:
192,192,128602,1,0,0:0:0:0:
320,192,128808,1,0,0:0:0:0:
64,192,129082,1,0,0:0:0:0:
64,192,129220,1,0,0:0:0:0:
192,192,129220,1,0,0:0:0:0:
320,192,129288,1,0,0:0:0:0:
448,192,129357,1,0,0:0:0:0:
192,192,129528,1,0,0:0:0:0:
192,192,129631,1,0,0:0:0:0:
320,192,129837,1,0,0:0:0:0:
320,192,130043,1,0,0:0:0:0:
64,192,130125,1,0,0:0:0:0:
320,192,130208,1,0,0:0:0:0:
448,192,130290,1,0,0:0:0:0:
192,192,130372,1,0,0:0:0:0:
320,192,130455,1,0,0:0:0:0:
192,192,130506,1,0,0:0:0:0:
64,192,130558,1,0,0:0:0:0:
320,192,130661,1,0,0:0:0:0:
64,192,130866,1,0,0:0:0:0:
448,192,130866,1,0,0:0:0:0:
192,192,130925,1,0,0:0:0:0:
320,192,130984,1,0,0:0:0:0:
64,192,131043,1,0,0:0:0:0:
192,192,131102,1,0,0:0:0:0:
320,192,131160,1,0,0:0:0:0:
448,192,131278,1,0,0:0:0:0:
192,192,131484,1,0,0:0:0:0:
64,192,131587,1,0,0:0:0:0:
448,192,131690,1,0,0:0:0:0:
320,192,131690,1,0,0:0:0:0:
64,192,131749,1,0,0:0:0:0:
448,192,131807,1,0,0:0:0:0:
192,192,131854,1,0,0:0:0:0:
64,192,131937,1,0,0:0:0:0:
448,192,132019,1,0,0:0:0:0:
320,192,132102,1,0,0:0:0:0:
448,192,132184,1,0,0:0:0:0:
64,192,132266,1,0,0:0:0:0:
320,192,132307,1,0,0:0:0:0:
192,192,132342,1,0,0:0:0:0:
64,192,132513,1,0,0:0:0:0:
192,192,132513,1,0,0:0:0:0:
320,192,132513,1,0,0:0:0:0:
448,192,132513,1,0,0:0:0:0:
192,192,133131,1,0,0:0:0:0:
192,192,133337,1,0,0:0:0:0:
64,192,133419,1,0,0:0:0:0:
320,192,133501,1,0,0:0:0:0:
192,192,133584,1,0,0:0:0:0:
448,192,133748,1,0,0:0:0:0:
64,192,133748,1,0,0:0:0:0:
192,192,133807,1,0,0:0:0:0:
320,192,133866,1,0,0:0:0:0:
64,192,133954,1,0,0:0:0:0:
64,192,134160,1,0,0:0:0:0:
448,192,134160,1,0,0:0:0:0:
192,192,134160,1,0,0:0:0:0:
320,192,134160,1,0,0:0:0:0:
320,192,134572,1,0,0:0:0:0:
320,192,134778,1,0,0:0:0:0:
192,192,134983,1,0,0:0:0:0:
64,192,134983,1,0,0:0:0:0:
64,192,135086,1,0,0:0:0:0:
320,192,135189,1,0,0:0:0:0:
320,192,135292,1,0,0:0:0:0:
64,192,135395,1,0,0:0:0:0:
192,192,135429,1,0,0:0:0:0:
64,192,135601,1,0,0:0:0:0:
448,192,135601,1,0,0:0:0:0:
320,192,135807,1,0,0:0:0:0:
448,192,135807,1,0,0:0:0:0:
64,192,135866,1,0,0:0:0:0:
320,192,135924,1,0,0:0:0:0:
192,192,135983,1,0,0:0:0:0:
320,192,136042,1,0,0:0:0:0:
448,192,136101,1,0,0:0:0:0:
192,192,136218,1,0,0:0:0:0:
64,192,136218,1,0,0:0:0:0:
192,192,136321,1,0,0:0:0:0:
320,192,136424,1,0,0:0:0:0:
448,192,136424,1,0,0:0:0:0:
320,192,136527,1,0,0:0:0:0:
192,192,136630,128,0,136905:0:0:0:0:
448,192,137042,128,0,137179:0:0:0:0:
320,192,137248,128,0,137316:0:0:0:0:
64,192,137454,128,0,137762:0:0:0:0:
320,192,137865,1,0,0:0:0:0:
320,192,138071,1,0,0:0:0:0:
64,192,138277,1,0,0:0:0:0:
448,192,138483,1,0,0:0:0:0:
448,192,138689,1,0,0:0:0:0:
192,192,138894,1,0,0:0:0:0:
64,192,138997,1,0,0:0:0:0:
320,192,139100,1,0,0:0:0:0:
448,192,139100,1,0,0:0:0:0:
192,192,139512,1,0,0:0:0:0:
320,192,139615,1,0,0:0:0:0:
192,192,139718,1,0,0:0:0:0:
64,192,139924,1,0,0:0:0:0:
448,192,140232,1,0,0:0:0:0:
64,192,140541,1,0,0:0:0:0:
192,192,140644,1,0,0:0:0:0:
320,192,140747,1,0,0:0:0:0:
448,192,140747,1,0,0:0:0:0:
192,192,140953,1,0,0:0:0:0:
192,192,141056,1,0,0:0:0:0:
320,192,141159,1,0,0:0:0:0:
448,192,141570,1,0,0:0:0:0:
64,192,141673,1,0,0:0:0:0:
320,192,141776,1,0,0:0:0:0:
192,192,141982,1,0,0:0:0:0:
448,192,142085,1,0,0:0:0:0:
320,192,142188,1,0,0:0:0:0:
192,192,142394,1,0,0:0:0:0:
448,192,142476,1,0,0:0:0:0:
64,192,142558,1,0,0:0:0:0:
192,192,142600,1,0,0:0:0:0:
192,192,142703,1,0,0:0:0:0:
448,192,142805,1,0,0:0:0:0:
320,192,142874,5,0,0:0:0:0:
448,192,142943,1,0,0:0:0:0:
64,192,143011,1,0,0:0:0:0:
320,192,143063,1,0,0:0:0:0:
64,192,143114,1,0,0:0:0:0:
192,192,143217,1,0,0:0:0:0:
320,192,143269,1,0,0:0:0:0:
448,192,143320,1,0,0:0:0:0:
64,192,143423,1,0,0:0:0:0:
320,192,143492,1,0,0:0:0:0:
192,192,143543,1,0,0:0:0:0:
64,192,143594,1,0,0:0:0:0:
448,192,143835,1,0,0:0:0:0:
64,192,143886,1,0,0:0:0:0:
320,192,143938,1,0,0:0:0:0:
192,192,143989,1,0,0:0:0:0:
448,192,144041,1,0,0:0:0:0:
64,192,144099,1,0,0:0:0:0:
448,192,144158,1,0,0:0:0:0:
320,192,144246,1,0,0:0:0:0:
192,192,144305,1,0,0:0:0:0:
320,192,144364,1,0,0:0:0:0:
64,192,144452,1,0,0:0:0:0:
192,192,144504,1,0,0:0:0:0:
64,192,144555,1,0,0:0:0:0:
448,192,144658,1,0,0:0:0:0:
320,192,144710,1,0,0:0:0:0:
448,192,144761,1,0,0:0:0:0:
192,192,144864,1,0,0:0:0:0:
64,192,144864,1,0,0:0:0:0:
320,192,144910,1,0,0:0:0:0:
192,192,144955,1,0,0:0:0:0:
64,192,145001,1,0,0:0:0:0:
448,192,145040,1,0,0:0:0:0:
320,192,145099,1,0,0:0:0:0:
192,192,145158,1,0,0:0:0:0:
64,192,145217,1,0,0:0:0:0:
448,192,145276,1,0,0:0:0:0:
192,192,145481,1,0,0:0:0:0:
64,192,145481,1,0,0:0:0:0:
64,192,145687,1,0,0:0:0:0:
448,192,145687,1,0,0:0:0:0:
320,192,145893,1,0,0:0:0:0:
320,192,146099,1,0,0:0:0:0:
448,192,146099,1,0,0:0:0:0:
320,192,146305,1,0,0:0:0:0:
448,192,146305,1,0,0:0:0:0:
64,192,146511,1,0,0:0:0:0:
192,192,146570,1,0,0:0:0:0:
320,192,146628,1,0,0:0:0:0:
448,192,146687,1,0,0:0:0:0:
64,192,146746,1,0,0:0:0:0:
192,192,146805,1,0,0:0:0:0:
320,192,146864,1,0,0:0:0:0:
448,192,146922,1,0,0:0:0:0:
64,192,146922,1,0,0:0:0:0:
64,192,147128,1,0,0:0:0:0:
320,192,147334,1,0,0:0:0:0:
448,192,147334,1,0,0:0:0:0:
192,192,147393,1,0,0:0:0:0:
448,192,147452,1,0,0:0:0:0:
320,192,147540,1,0,0:0:0:0:
64,192,147540,1,0,0:0:0:0:
192,192,147598,1,0,0:0:0:0:
320,192,147657,1,0,0:0:0:0:
64,192,147746,1,0,0:0:0:0:
192,192,147797,1,0,0:0:0:0:
64,192,147849,1,0,0:0:0:0:
448,192,147952,1,0,0:0:0:0:
320,192,148003,1,0,0:0:0:0:
448,192,148055,1,0,0:0:0:0:
192,192,148157,1,0,0:0:0:0:
64,192,148157,1,0,0:0:0:0:
320,192,148203,1,0,0:0:0:0:
192,192,148249,1,0,0:0:0:0:
64,192,148295,1,0,0:0:0:0:
448,192,148334,1,0,0:0:0:0:
320,192,148393,1,0,0:0:0:0:
192,192,148452,1,0,0:0:0:0:
64,192,148510,1,0,0:0:0:0:
448,192,148569,1,0,0:0:0:0:
192,192,148775,128,0,148844:0:0:0:0:
64,192,148775,1,0,0:0:0:0:
64,192,148981,128,0,149049:0:0:0:0:
448,192,148981,1,0,0:0:0:0:
320,192,149187,128,0,149255:0:0:0:0:
320,192,149393,1,0,0:0:0:0:
448,192,149393,1,0,0:0:0:0:
320,192,149598,128,0,149667:0:0:0:0:
448,192,149598,1,0,0:0:0:0:
448,192,149804,128,0,149873:0:0:0:0:
192,192,150010,128,0,150079:0:0:0:0:
64,192,150216,1,0,0:0:0:0:
192,192,150216,1,0,0:0:0:0:
192,192,150422,128,0,150490:0:0:0:0:
64,192,150628,1,0,0:0:0:0:
448,192,150628,1,0,0:0:0:0:
192,192,150696,1,0,0:0:0:0:
320,192,150765,1,0,0:0:0:0:
192,192,150833,1,0,0:0:0:0:
64,192,150833,1,0,0:0:0:0:
448,192,150902,1,0,0:0:0:0:
320,192,150971,1,0,0:0:0:0:
64,192,151039,1,0,0:0:0:0:
448,192,151122,1,0,0:0:0:0:
192,192,151204,1,0,0:0:0:0:
320,192,151268,1,0,0:0:0:0:
448,192,151286,1,0,0:0:0:0:
64,192,151451,1,0,0:0:0:0:
192,192,151451,1,0,0:0:0:0:
448,192,151510,1,0,0:0:0:0:
320,192,151569,1,0,0:0:0:0:
192,192,151627,1,0,0:0:0:0:
448,192,151686,1,0,0:0:0:0:
64,192,151745,1,0,0:0:0:0:
192,192,151804,1,0,0:0:0:0:
448,192,151863,1,0,0:0:0:0:
320,192,151922,1,0,0:0:0:0:
192,192,151980,1,0,0:0:0:0:
448,192,152039,1,0,0:0:0:0:
320,192,152069,1,0,0:0:0:0:
64,192,152098,1,0,0:0:0:0:
192,192,152157,1,0,0:0:0:0:
448,192,152216,1,0,0:0:0:0:
320,192,152274,1,0,0:0:0:0:
64,192,152274,1,0,0:0:0:0:
192,192,152333,1,0,0:0:0:0:
448,192,152392,1,0,0:0:0:0:
64,192,152451,1,0,0:0:0:0:
192,192,152510,1,0,0:0:0:0:
448,192,152568,1,0,0:0:0:0:
320,192,152627,1,0,0:0:0:0:
64,192,152686,1,0,0:0:0:0:
192,192,152686,1,0,0:0:0:0:
448,192,152892,1,0,0:0:0:0:
64,192,152892,1,0,0:0:0:0:
320,192,153098,1,0,0:0:0:0:
64,192,153157,1,0,0:0:0:0:
192,192,153215,1,0,0:0:0:0:
320,192,153274,1,0,0:0:0:0:
64,192,153333,1,0,0:0:0:0:
448,192,153392,1,0,0:0:0:0:
320,192,153451,1,0,0:0:0:0:
448,192,153509,1,0,0:0:0:0:
64,192,153509,1,0,0:0:0:0:
192,192,153568,1,0,0:0:0:0:
320,192,153627,1,0,0:0:0:0:
64,192,153686,1,0,0:0:0:0:
448,192,153745,1,0,0:0:0:0:
320,192,153804,1,0,0:0:0:0:
64,192,153862,1,0,0:0:0:0:
192,192,153921,1,0,0:0:0:0:
448,192,153921,1,0,0:0:0:0:
320,192,153980,1,0,0:0:0:0:
64,192,154039,1,0,0:0:0:0:
448,192,154098,1,0,0:0:0:0:
192,192,154127,1,0,0:0:0:0:
320,192,154156,1,0,0:0:0:0:
64,192,154215,1,0,0:0:0:0:
192,192,154274,1,0,0:0:0:0:
320,192,154333,1,0,0:0:0:0:
64,192,154539,1,0,0:0:0:0:
192,192,154745,1,0,0:0:0:0:
64,192,154745,1,0,0:0:0:0:
448,192,154803,1,0,0:0:0:0:
320,192,154862,1,0,0:0:0:0:
192,192,154921,1,0,0:0:0:0:
448,192,154980,1,0,0:0:0:0:
64,192,155039,1,0,0:0:0:0:
192,192,155097,1,0,0:0:0:0:
448,192,155156,1,0,0:0:0:0:
320,192,155191,1,0,0:0:0:0:
320,192,155362,1,0,0:0:0:0:
448,192,155362,1,0,0:0:0:0:
192,192,155465,1,0,0:0:0:0:
64,192,155568,1,0,0:0:0:0:
448,192,155568,1,0,0:0:0:0:
64,192,155671,1,0,0:0:0:0:
320,192,155774,1,0,0:0:0:0:
320,192,155877,1,0,0:0:0:0:
64,192,155980,1,0,0:0:0:0:
192,192,155980,1,0,0:0:0:0:
64,192,156083,1,0,0:0:0:0:
320,192,156185,1,0,0:0:0:0:
448,192,156185,1,0,0:0:0:0:
192,192,156254,1,0,0:0:0:0:
320,192,156323,1,0,0:0:0:0:
448,192,156391,1,0,0:0:0:0:
320,192,156597,1,0,0:0:0:0:
192,192,156666,1,0,0:0:0:0:
64,192,156734,1,0,0:0:0:0:
320,192,156803,1,0,0:0:0:0:
448,192,156803,1,0,0:0:0:0:
192,192,156872,1,0,0:0:0:0:
64,192,156940,1,0,0:0:0:0:
320,192,157009,1,0,0:0:0:0:
192,192,157077,1,0,0:0:0:0:
64,192,157146,1,0,0:0:0:0:
320,192,157215,1,0,0:0:0:0:
448,192,157215,1,0,0:0:0:0:
448,192,157421,1,0,0:0:0:0:
64,192,157421,1,0,0:0:0:0:
320,192,157498,1,0,0:0:0:0:
192,192,157523,1,0,0:0:0:0:
64,192,157626,1,0,0:0:0:0:
320,192,157755,1,0,0:0:0:0:
192,192,157764,1,0,0:0:0:0:
448,192,157803,1,0,0:0:0:0:
192,192,164625,5,0,0:0:0:0:
192,192,164831,1,0,0:0:0:0:
192,192,165037,1,0,0:0:0:0:
192,192,165243,1,0,0:0:0:0:
192,192,165449,1,0,0:0:0:0:
192,192,165654,1,0,0:0:0:0:
192,192,165860,1,0,0:0:0:0:
192,192,166066,1,0,0:0:0:0:
320,192,166272,1,0,0:0:0:0:
320,192,166478,1,0,0:0:0:0:
320,192,166684,1,0,0:0:0:0:
320,192,166889,1,0,0:0:0:0:
320,192,167095,1,0,0:0:0:0:
320,192,167301,1,0,0:0:0:0:
320,192,167507,1,0,0:0:0:0:
320,192,167713,1,0,0:0:0:0:
192,192,167919,1,0,0:0:0:0:
192,192,168125,1,0,0:0:0:0:
192,192,168330,1,0,0:0:0:0:
192,192,168536,1,0,0:0:0:0:
192,192,168742,1,0,0:0:0:0:
192,192,168948,1,0,0:0:0:0:
192,192,169154,1,0,0:0:0:0:
192,192,169360,1,0,0:0:0:0:
320,192,169565,1,0,0:0:0:0:
320,192,169771,1,0,0:0:0:0:
320,192,169977,1,0,0:0:0:0:
320,192,170183,1,0,0:0:0:0:
320,192,170389,1,0,0:0:0:0:
64,192,171212,1,0,0:0:0:0:
448,192,171212,1,0,0:0:0:0:
320,192,171418,1,0,0:0:0:0:
320,192,171624,1,0,0:0:0:0:
192,192,171830,1,0,0:0:0:0:
64,192,171830,1,0,0:0:0:0:
64,192,172036,1,0,0:0:0:0:
448,192,172036,1,0,0:0:0:0:
320,192,172241,1,0,0:0:0:0:
320,192,172447,1,0,0:0:0:0:
448,192,172447,1,0,0:0:0:0:
320,192,172653,1,0,0:0:0:0:
448,192,172653,1,0,0:0:0:0:
192,192,172859,1,0,0:0:0:0:
192,192,173065,1,0,0:0:0:0:
192,192,173271,1,0,0:0:0:0:
64,192,173271,1,0,0:0:0:0:
192,192,173477,1,0,0:0:0:0:
64,192,173682,1,0,0:0:0:0:
448,192,173682,1,0,0:0:0:0:
320,192,173888,1,0,0:0:0:0:
448,192,173888,1,0,0:0:0:0:
320,192,174094,1,0,0:0:0:0:
320,192,174300,1,0,0:0:0:0:
192,192,174506,1,0,0:0:0:0:
64,192,174506,1,0,0:0:0:0:
192,192,174712,1,0,0:0:0:0:
192,192,174917,1,0,0:0:0:0:
64,192,175123,128,0,175192:0:0:0:0:
192,192,175123,1,0,0:0:0:0:
448,192,175329,128,0,175398:0:0:0:0:
64,192,175329,1,0,0:0:0:0:
320,192,175535,128,0,175604:0:0:0:0:
320,192,175741,1,0,0:0:0:0:
448,192,175741,1,0,0:0:0:0:
320,192,175947,1,0,0:0:0:0:
448,192,175947,1,0,0:0:0:0:
448,192,176153,1,0,0:0:0:0:
192,192,176358,1,0,0:0:0:0:
192,192,176564,1,0,0:0:0:0:
64,192,176564,1,0,0:0:0:0:
192,192,176770,1,0,0:0:0:0:
64,192,176976,1,0,0:0:0:0:
448,192,176976,1,0,0:0:0:0:
320,192,177182,1,0,0:0:0:0:
448,192,177182,1,0,0:0:0:0:
320,192,177388,1,0,0:0:0:0:
320,192,177593,1,0,0:0:0:0:
64,192,177799,1,0,0:0:0:0:
192,192,177799,1,0,0:0:0:0:
192,192,178005,1,0,0:0:0:0:
192,192,178211,1,0,0:0:0:0:
192,192,178417,1,0,0:0:0:0:
64,192,178417,1,0,0:0:0:0:
64,192,178623,1,0,0:0:0:0:
448,192,178623,1,0,0:0:0:0:
320,192,178829,1,0,0:0:0:0:
320,192,179034,1,0,0:0:0:0:
448,192,179034,1,0,0:0:0:0:
320,192,179240,1,0,0:0:0:0:
448,192,179240,1,0,0:0:0:0:
192,192,179446,1,0,0:0:0:0:
192,192,179652,1,0,0:0:0:0:
192,192,179858,1,0,0:0:0:0:
64,192,179858,1,0,0:0:0:0:
192,192,180064,1,0,0:0:0:0:
64,192,180269,1,0,0:0:0:0:
448,192,180269,1,0,0:0:0:0:
320,192,180475,1,0,0:0:0:0:
448,192,180475,1,0,0:0:0:0:
320,192,180681,1,0,0:0:0:0:
320,192,180887,1,0,0:0:0:0:
192,192,181093,1,0,0:0:0:0:
64,192,181093,1,0,0:0:0:0:
192,192,181299,1,0,0:0:0:0:
192,192,181505,1,0,0:0:0:0:
192,192,181710,1,0,0:0:0:0:
64,192,181710,1,0,0:0:0:0:
64,192,181916,1,0,0:0:0:0:
448,192,181916,1,0,0:0:0:0:
320,192,182122,1,0,0:0:0:0:
320,192,182328,1,0,0:0:0:0:
448,192,182328,1,0,0:0:0:0:
192,192,182387,1,0,0:0:0:0:
320,192,182446,1,0,0:0:0:0:
192,192,182534,1,0,0:0:0:0:
64,192,182534,1,0,0:0:0:0:
64,192,182637,1,0,0:0:0:0:
448,192,182740,1,0,0:0:0:0:
320,192,182785,1,0,0:0:0:0:
192,192,182831,1,0,0:0:0:0:
64,192,183014,1,0,0:0:0:0:
320,192,183083,1,0,0:0:0:0:
64,192,183151,1,0,0:0:0:0:
192,192,183151,1,0,0:0:0:0:
320,192,183357,1,0,0:0:0:0:
192,192,183416,1,0,0:0:0:0:
320,192,183474,1,0,0:0:0:0:
192,192,183533,1,0,0:0:0:0:
448,192,183563,1,0,0:0:0:0:
64,192,183563,1,0,0:0:0:0:
192,192,183769,1,0,0:0:0:0:
64,192,183769,1,0,0:0:0:0:
320,192,183837,1,0,0:0:0:0:
192,192,183975,1,0,0:0:0:0:
448,192,184112,1,0,0:0:0:0:
320,192,184146,1,0,0:0:0:0:
64,192,184181,1,0,0:0:0:0:
320,192,184386,5,0,0:0:0:0:
448,192,184386,1,0,0:0:0:0:
192,192,184798,1,0,0:0:0:0:
320,192,185004,1,0,0:0:0:0:
448,192,185004,1,0,0:0:0:0:
448,192,185210,1,0,0:0:0:0:
64,192,185210,1,0,0:0:0:0:
192,192,185621,1,0,0:0:0:0:
64,192,185621,1,0,0:0:0:0:
192,192,185827,1,0,0:0:0:0:
64,192,185827,1,0,0:0:0:0:
320,192,186033,1,0,0:0:0:0:
448,192,186239,1,0,0:0:0:0:
192,192,186445,1,0,0:0:0:0:
64,192,186445,1,0,0:0:0:0:
64,192,186857,1,0,0:0:0:0:
448,192,186857,1,0,0:0:0:0:
320,192,187062,1,0,0:0:0:0:
448,192,187062,1,0,0:0:0:0:
64,192,187268,1,0,0:0:0:0:
448,192,187474,1,0,0:0:0:0:
192,192,187680,1,0,0:0:0:0:
64,192,187680,1,0,0:0:0:0:
320,192,188092,1,0,0:0:0:0:
64,192,188297,1,0,0:0:0:0:
192,192,188297,1,0,0:0:0:0:
64,192,188503,1,0,0:0:0:0:
448,192,188503,1,0,0:0:0:0:
320,192,188915,1,0,0:0:0:0:
448,192,188915,1,0,0:0:0:0:
320,192,189121,1,0,0:0:0:0:
448,192,189121,1,0,0:0:0:0:
192,192,189327,1,0,0:0:0:0:
64,192,189533,1,0,0:0:0:0:
320,192,189738,1,0,0:0:0:0:
448,192,189738,1,0,0:0:0:0:
192,192,189944,1,0,0:0:0:0:
64,192,190150,1,0,0:0:0:0:
448,192,190150,1,0,0:0:0:0:
192,192,190356,1,0,0:0:0:0:
64,192,190356,1,0,0:0:0:0:
320,192,190562,1,0,0:0:0:0:
320,192,190768,1,0,0:0:0:0:
64,192,190973,1,0,0:0:0:0:
448,192,191385,1,0,0:0:0:0:
64,192,191591,1,0,0:0:0:0:
320,192,191797,1,0,0:0:0:0:
64,192,192209,1,0,0:0:0:0:
320,192,192620,1,0,0:0:0:0:
64,192,192826,1,0,0:0:0:0:
448,192,193032,1,0,0:0:0:0:
64,192,193444,1,0,0:0:0:0:
192,192,193855,128,0,195888:0:0:0:0:
