osu file format v14

[General]
AudioFilename: audio.mp3
AudioLeadIn: 0
PreviewTime: 98324
Countdown: 1
SampleSet: Normal
StackLeniency: 0.7
Mode: 0
LetterboxInBreaks: 0
WidescreenStoryboard: 0

[Editor]
DistanceSpacing: 0.9
BeatDivisor: 4
GridSize: 8
TimelineZoom: 1.4

[Metadata]
Title:Infinite
TitleUnicode:Infinite
Artist:Tyler Smyth and Andy Bane
ArtistUnicode:Tyler Smyth and Andy Bane
Creator:Num5119
Version:DANGEROUS WEAPON
Source:Sonic Forces
Tags:
BeatmapID:1744757
BeatmapSetID:832898

[Difficulty]
HPDrainRate:5
CircleSize:4
OverallDifficulty:9
ApproachRate:9.5
SliderMultiplier:2.5
SliderTickRate:1

[Events]
//Background and Video events
0,0,"Big_brain_mathi_despacito_ringtone_size.png",0,0
//Break Periods
//Storyboard Layer 0 (Background)
//Storyboard Layer 1 (Fail)
//Storyboard Layer 2 (Pass)
//Storyboard Layer 3 (Foreground)
//Storyboard Sound Samples

[TimingPoints]
610,428.571428571429,4,1,0,100,1,0
14252,-80,4,1,0,100,0,0
15610,-133.333333333333,4,1,0,100,0,0
17252,-66.6666666666667,4,1,0,100,0,0
17610,-80,4,1,0,100,0,0
18324,-57.1428571428571,4,1,0,100,0,0
19395,-80,4,1,0,100,0,0
20699,-57.1428571428571,4,1,0,100,0,0
21074,-80,4,1,0,100,0,0
22395,-133.333333333333,4,1,0,100,0,0
25360,-57.1428571428571,4,1,0,100,0,0
26198,-133.333333333333,4,1,0,100,0,0
27931,-79.9999999999999,4,1,0,100,0,0
34824,-57.1428571428571,4,1,0,100,0,0
40574,-80,4,1,0,100,0,0
45074,-50,4,1,0,100,0,0
45502,-80,4,1,0,100,0,0
48502,-57.1428571428571,4,1,0,100,0,0
70895,-57.1428571428571,4,1,0,100,0,1
84610,-57.1428571428571,4,1,0,100,0,0
98324,-57.1428571428571,4,1,0,100,0,1
112038,-57.1428571428571,4,1,0,100,0,0
196038,-57.1428571428571,4,1,0,100,0,1
209752,-57.1428571428571,4,1,0,100,0,0
223467,-57.1428571428571,4,1,0,100,0,1
250895,-57.1428571428571,4,1,0,100,0,0

[HitObjects]
290,74,12610,5,4,0:0:0:0:
171,98,12752,1,0,0:0:0:0:
145,209,12895,1,0,0:0:0:0:
329,286,13038,5,4,0:0:0:0:
264,191,13181,1,0,0:0:0:0:
145,209,13323,1,0,0:0:0:0:
145,209,13395,1,0,0:0:0:0:
145,209,13467,1,4,0:0:0:0:
290,74,13610,5,0,0:0:0:0:
329,286,13752,1,0,0:0:0:0:
171,98,13895,2,0,P|145:91|133:98,4,41.6666666666667
66,278,14324,6,0,B|102:327|102:327|226:326,2,156.25
464,176,14967,2,0,B|428:127|428:127|312:127,1,165,0|4,0:0|0:0,0:0:0:0:
362,304,15395,6,0,L|469:303,1,104.166666666667
206,68,15610,2,0,B|87:69|87:69|34:123,1,187.500007152558
289,153,16467,6,0,B|331:120|331:120|313:53,1,93.7500035762788
205,182,16895,2,0,B|156:161|156:161|107:211,1,93.7500035762788,4|0,0:0|0:0,0:0:0:0:
273,240,17324,2,0,P|276:286|283:232,1,187.500007152558
446,106,17752,6,0,B|410:57|410:57|286:58,2,156.25
155,304,18395,6,0,L|82:304,1,72.9166673620542
364,110,18610,6,0,L|437:110,1,72.9166673620542
127,69,18824,6,0,L|54:69,1,72.9166673620542
383,314,19038,6,0,L|456:314,1,72.9166673620542
109,196,19252,6,0,L|36:196,1,72.9166673620542
328,144,19467,2,0,B|380:80|380:80|340:12,2,156.25,0|0|4,0:0|0:0|0:0,0:0:0:0:
248,216,20002,5,0,0:0:0:0:
216,200,20110,1,0,0:0:0:0:
248,184,20217,1,0,0:0:0:0:
194,256,20324,5,4,0:0:0:0:
218,144,20431,1,0,0:0:0:0:
298,224,20538,1,0,0:0:0:0:
235,200,20645,1,0,0:0:0:0:
408,192,20752,6,0,B|368:328|368:328|256:368,1,218.750002086163,4|0,0:0|0:0,0:0:0:0:
107,124,21181,6,0,B|124:65|124:65|240:24,2,156.25
332,301,21824,2,0,B|361:236|361:236|307:163,1,156.25,0|4,0:0|0:0,0:0:0:0:
88,304,22252,6,0,L|184:304,1,78.125
448,176,22467,6,0,L|256:176,1,187.500007152558
408,336,23324,6,0,P|464:288|456:256,1,93.7500035762788
104,40,23752,2,0,P|48:88|56:120,1,93.7500035762788,4|0,0:0|0:0,0:0:0:0:
440,80,24181,2,0,P|439:38|431:70,1,140.625005364418
429,65,24610,5,0,0:0:0:0:
144,184,24931,1,0,0:0:0:0:
384,352,25252,1,0,0:0:0:0:
64,296,25467,6,0,L|168:296,1,72.9166673620542
448,208,25681,6,0,L|344:208,1,72.9166673620542
112,80,25895,6,0,L|216:80,1,72.9166673620542
456,48,26110,6,0,L|352:48,1,72.9166673620542
64,256,26324,6,0,B|96:312|96:312|208:312,1,140.625005364418
184,312,26752,1,0,0:0:0:0:
384,16,26967,1,0,0:0:0:0:
400,296,27181,5,4,0:0:0:0:
184,16,27395,1,0,0:0:0:0:
448,160,27610,1,4,0:0:0:0:
448,160,27717,1,0,0:0:0:0:
448,160,27824,1,0,0:0:0:0:
120,352,28038,6,0,B|43:352|43:352|0:280,1,156.25
184,200,28467,1,0,0:0:0:0:
328,352,28681,2,0,L|168:352,1,156.25,0|4,0:0|0:0,0:0:0:0:
16,216,29110,5,0,0:0:0:0:
112,376,29324,1,0,0:0:0:0:
184,200,29538,1,0,0:0:0:0:
352,352,29752,6,0,B|248:352|248:352|200:288,1,156.25
296,248,30038,2,0,L|400:248,1,104.166666666667
480,360,30395,1,0,0:0:0:0:
480,360,30502,1,0,0:0:0:0:
480,360,30610,1,4,0:0:0:0:
360,96,30824,1,0,0:0:0:0:
296,256,31038,5,0,0:0:0:0:
480,128,31252,1,0,0:0:0:0:
400,280,31467,2,0,B|328:352|328:352|240:336,1,156.25
96,160,31895,1,0,0:0:0:0:
288,192,32110,2,0,L|152:280,1,156.25,0|4,0:0|0:0,0:0:0:0:
192,96,32538,5,0,0:0:0:0:
96,328,32752,1,0,0:0:0:0:
352,280,32967,1,0,0:0:0:0:
192,200,33181,2,0,B|91:226|91:226|61:301,1,156.25
164,314,33467,2,0,L|264:287,1,104.166666666667
408,176,33824,5,0,0:0:0:0:
408,176,33931,1,0,0:0:0:0:
408,176,34038,1,4,0:0:0:0:
248,344,34252,1,0,0:0:0:0:
224,48,34467,5,12,0:0:0:0:
147,58,34574,1,8,0:0:0:0:
91,110,34681,1,8,0:0:0:0:
77,186,34788,1,8,0:0:0:0:
110,256,34895,6,0,B|136:288|136:288|208:288,1,109.375001043081
400,200,35217,2,0,B|376:176|376:176|272:176,1,109.375001043081
320,352,35538,1,0,0:0:0:0:
320,352,35645,1,0,0:0:0:0:
320,352,35752,5,4,0:0:0:0:
192,48,35967,1,0,0:0:0:0:
167,288,36181,5,0,0:0:0:0:
344,16,36395,1,0,0:0:0:0:
392,296,36610,6,0,B|405:236|405:236|339:183,1,109.375001043081
120,8,36931,2,0,B|106:67|106:67|172:120,1,109.375001043081
96,344,37252,1,0,0:0:0:0:
96,344,37360,1,0,0:0:0:0:
96,344,37467,5,4,0:0:0:0:
344,72,37681,1,0,0:0:0:0:
328,320,37895,5,0,0:0:0:0:
128,24,38110,1,0,0:0:0:0:
368,248,38324,6,0,B|440:248|440:248|488:200,1,109.375001043081
144,136,38645,2,0,B|72:136|72:136|24:184,1,109.375001043081
408,56,38967,1,0,0:0:0:0:
408,56,39074,1,0,0:0:0:0:
408,56,39181,5,4,0:0:0:0:
160,304,39395,1,0,0:0:0:0:
240,40,39610,1,0,0:0:0:0:
416,304,39824,1,0,0:0:0:0:
45,162,40038,6,0,B|72:136|72:136|144:136,1,109.375001043081
466,221,40359,2,0,B|440:248|440:248|368:248,1,109.375001043081
80,320,40681,1,0,0:0:0:0:
80,320,40788,1,0,0:0:0:0:
80,320,40895,5,4,0:0:0:0:
304,16,41110,1,0,0:0:0:0:
312,304,41324,5,0,0:0:0:0:
88,16,41538,1,0,0:0:0:0:
112,296,41752,6,0,B|190:247|190:247|194:177,2,156.25
288,240,42395,1,0,0:0:0:0:
119,137,42610,1,4,0:0:0:0:
192,296,42824,6,0,B|240:352|240:352|328:352,1,156.25
456,240,43252,1,0,0:0:0:0:
192,224,43467,6,0,B|88:224|88:224|48:280,1,156.25
136,312,43752,2,0,L|240:312,1,104.166666666667
360,192,44110,1,0,0:0:0:0:
360,192,44217,1,0,0:0:0:0:
360,192,44324,1,4,0:0:0:0:
112,192,44538,5,0,0:0:0:0:
240,368,44752,1,0,0:0:0:0:
360,192,44967,1,0,0:0:0:0:
202,221,45181,6,0,B|240:104|240:104|288:232,1,250
120,136,45610,1,0,0:0:0:0:
352,136,45824,1,0,0:0:0:0:
240,304,46038,1,4,0:0:0:0:
72,352,46252,6,0,B|16:320|16:320|16:224,1,156.25
240,304,46681,1,0,0:0:0:0:
432,200,46895,2,0,B|328:209|328:209|293:268,1,156.25
392,296,47180,2,0,L|495:286,1,104.166666666667
208,160,47538,1,0,0:0:0:0:
208,160,47645,1,0,0:0:0:0:
208,160,47752,5,4,0:0:0:0:
328,336,47967,1,0,0:0:0:0:
416,168,48181,1,8,0:0:0:0:
373,90,48288,1,8,0:0:0:0:
297,44,48395,1,8,0:0:0:0:
208,44,48502,1,8,0:0:0:0:
132,89,48610,6,0,B|104:120|104:120|112:208,1,109.375001043081
272,352,48931,2,0,B|299:320|299:320|291:232,1,109.375001043081
80,120,49252,5,0,0:0:0:0:
80,120,49360,1,0,0:0:0:0:
80,120,49467,5,4,0:0:0:0:
448,216,49681,1,0,0:0:0:0:
64,264,49895,1,0,0:0:0:0:
456,88,50110,1,0,0:0:0:0:
152,344,50324,6,0,B|208:328|208:328|232:216,1,109.375001043081
360,40,50645,2,0,B|304:56|304:56|280:168,1,109.375001043081
360,320,50967,1,0,0:0:0:0:
360,320,51074,1,0,0:0:0:0:
360,320,51181,5,4,0:0:0:0:
176,32,51395,1,0,0:0:0:0:
448,224,51610,1,0,0:0:0:0:
64,160,51824,1,0,0:0:0:0:
354,119,52038,6,0,B|425:112|425:112|477:148,1,109.375001043081
157,264,52360,2,0,B|86:271|86:271|34:235,1,109.375001043081
416,224,52681,1,0,0:0:0:0:
416,224,52788,1,0,0:0:0:0:
416,224,52895,5,4,0:0:0:0:
104,160,53110,1,0,0:0:0:0:
288,344,53324,1,0,0:0:0:0:
248,40,53538,1,0,0:0:0:0:
168,336,53752,6,0,B|160:264|160:264|192:224,1,109.375001043081
336,40,54074,2,0,B|344:112|344:112|312:152,1,109.375001043081
136,88,54395,1,0,0:0:0:0:
136,88,54502,1,0,0:0:0:0:
136,88,54610,5,4,0:0:0:0:
440,288,54824,1,0,0:0:0:0:
64,256,55038,1,0,0:0:0:0:
440,40,55252,1,0,0:0:0:0:
