osu file format v14

[General]
AudioFilename: audio.mp3
AudioLeadIn: 0
PreviewTime: 70746
Countdown: 0
SampleSet: Soft
StackLeniency: 0.7
Mode: 2
LetterboxInBreaks: 0
WidescreenStoryboard: 1

[Editor]
Bookmarks: 92604
DistanceSpacing: 1
BeatDivisor: 8
GridSize: 4
TimelineZoom: 3.999999

[Metadata]
Title:Infinite
TitleUnicode:Infinite
Artist:Tyler Smyth and Andy Bane (Dangerkids)
ArtistUnicode:Tyler Smyth and Andy Bane (Dangerkids)
Creator:rew0825
Version:Infinity
Source:Sonic force
Tags:sonic vocal traxx on the edge sega jun senoue Tomoya Ohtani
BeatmapID:1662694
BeatmapSetID:792722

[Difficulty]
HPDrainRate:7
CircleSize:4.2
OverallDifficulty:9.7
ApproachRate:9.7
SliderMultiplier:2.76
SliderTickRate:2

[Events]
//Background and Video events
0,0,"infinite.png",0,0
//Break Periods
//Storyboard Layer 0 (Background)
//Storyboard Layer 1 (Fail)
//Storyboard Layer 2 (Pass)
//Storyboard Layer 3 (Foreground)
//Storyboard Sound Samples

[TimingPoints]
1104,428.571428571429,4,2,1,50,1,0
14389,-100,4,2,1,50,0,0
14711,-100,4,2,1,5,0,0
14746,-100,4,2,1,5,0,0
14818,-100,4,2,1,80,0,0
21247,-100,4,2,1,80,0,0
21568,-100,4,2,1,5,0,0
21675,-100,4,2,1,80,0,0
26818,-100,4,2,1,80,0,0
27139,-100,4,2,1,80,0,0
28532,-100,4,2,1,60,0,0
31104,-100,4,2,1,60,0,0
31318,-100,4,2,1,60,0,0
32818,-100,4,2,1,60,0,0
33247,-100,4,2,1,60,0,0
34532,-100,4,2,1,60,0,0
35389,-66.6666666666667,4,2,1,80,0,1
38282,-66.6666666666667,4,2,1,80,0,1
38711,-66.6666666666667,4,2,1,80,0,0
38818,-66.6666666666667,4,2,1,80,0,1
42246,-100,4,2,1,80,0,0
42247,-100,4,2,1,60,0,0
44818,-100,4,2,1,60,0,0
45032,-100,4,2,1,60,0,0
48247,-100,4,2,1,60,0,0
49104,-66.6666666666667,4,2,1,80,0,1
50389,-66.6666666666667,4,2,1,80,0,1
50818,-66.6666666666667,4,2,1,80,0,1
52425,-66.6666666666667,4,2,1,80,0,0
52532,-66.6666666666667,4,2,1,80,0,1
55961,-100,4,2,1,80,0,0
56175,-100,4,2,1,70,0,0
56818,-100,4,2,1,70,0,0
57675,-100,4,2,1,70,0,0
58532,-100,4,2,1,70,0,0
59711,-100,4,2,1,70,0,0
60247,-100,4,2,1,70,0,0
62389,-100,4,2,1,70,0,0
62818,-100,4,2,1,70,0,0
63247,-100,4,2,1,70,0,0
65389,-100,4,2,1,70,0,0
66675,-100,4,2,1,70,0,0
67104,-100,4,2,1,70,0,0
70747,-100,4,2,1,70,0,0
71389,-100,4,2,1,80,0,0
72247,-100,4,2,1,80,0,0
72568,-100,4,2,1,5,0,0
72675,-100,4,2,1,80,0,0
73961,-100,4,2,1,80,0,0
75997,-100,4,2,1,5,0,0
76104,-100,4,2,1,80,0,0
79104,-100,4,2,1,80,0,0
79425,-100,4,2,1,5,0,0
79532,-100,4,2,1,80,0,0
79854,-100,4,2,1,5,0,0
79961,-100,4,2,1,80,0,0
80818,-100,4,2,1,80,0,0
81139,-100,4,2,1,5,0,0
81247,-100,4,2,1,80,0,0
81568,-100,4,2,1,5,0,0
81675,-100,4,2,1,80,0,0
82532,-100,4,2,1,80,0,0
82854,-100,4,2,1,5,0,0
82961,-100,4,2,1,80,0,0
85961,-100,4,2,1,80,0,0
86282,-100,4,2,1,5,0,0
86389,-100,4,2,1,80,0,0
87675,-100,4,2,1,80,0,0
89711,-100,4,2,1,5,0,0
89818,-100,4,2,1,80,0,0
91961,-100,4,2,1,80,0,0
92068,-100,4,2,1,5,0,0
92175,-100,4,2,1,80,0,0
92282,-100,4,2,1,5,0,0
92389,-100,4,2,1,80,0,0
92497,-100,4,2,1,5,0,0
92604,-100,4,2,1,80,0,0
92711,-100,4,2,1,5,0,0
92818,-100,4,2,1,80,0,0
93139,-100,4,2,1,5,0,0
93247,-100,4,2,1,80,0,0
93675,-100,4,2,1,80,0,0
93782,-100,4,2,1,5,0,0
93889,-100,4,2,1,80,0,0
93997,-100,4,2,1,5,0,0
94104,-100,4,2,1,80,0,0
94211,-100,4,2,1,5,0,0
94318,-100,4,2,1,80,0,0
94425,-100,4,2,1,5,0,0
94532,-100,4,2,1,80,0,0
95389,-100,4,2,1,80,0,0
95497,-100,4,2,1,5,0,0
95604,-100,4,2,1,80,0,0
95711,-100,4,2,1,5,0,0
95818,-100,4,2,1,80,0,0
95925,-100,4,2,1,5,0,0
96032,-100,4,2,1,80,0,0
96139,-100,4,2,1,5,0,0
96246,-100,4,2,1,80,0,0
96568,-100,4,2,1,5,0,0
96675,-100,4,2,1,80,0,0
97104,-100,4,2,1,80,0,0
98818,-96.1538461538461,4,2,1,87,0,1
112425,-96.1538461538461,4,2,1,87,0,0
112532,-96.1538461538461,4,2,1,87,0,1
126247,-100,4,2,1,80,0,0
131389,-100,4,2,1,15,0,0

[HitObjects]
256,192,1104,6,0,L|118:192,1,138,4|0,1:3|3:0,0:0:0:0:
394,192,1532,2,0,L|462:192,2,69,0|0|4,3:0|3:0|0:3,0:0:0:0:
118,192,1961,2,0,B|32:192|32:192|152:192,1,207,8|0,0:0|3:0,0:0:0:0:
256,192,2389,2,0,L|116:192,1,138,4|0,0:3|3:0,0:0:0:0:
396,192,2818,6,0,B|464:192|464:192|392:192,1,138,4|0,0:3|3:0,0:0:0:0:
224,192,3139,2,0,B|156:192|156:192|232:192,1,138,4|0,0:3|3:0,0:0:0:0:
396,192,3461,1,4,0:3:0:0:
120,192,3675,1,8,0:0:0:0:
328,192,3889,2,0,L|396:192,1,69,2|0,3:2|3:0,0:0:0:0:
224,192,4104,2,0,L|292:192,1,69,2|0,3:2|0:0,0:0:0:0:
464,192,4318,5,0,3:0:0:0:
484,200,4354,1,0,0:0:0:0:
496,216,4389,1,0,0:0:0:0:
496,240,4425,1,0,3:0:0:0:
484,260,4461,1,0,0:0:0:0:
464,266,4496,1,0,0:0:0:0:
256,192,4532,6,0,L|118:192,1,138,4|0,1:3|3:0,0:0:0:0:
394,192,4960,2,0,L|462:192,2,69,0|0|4,3:0|3:0|0:3,0:0:0:0:
118,192,5389,2,0,B|32:192|32:192|152:192,1,207,8|0,0:0|0:0,0:0:0:0:
256,192,5817,2,0,L|396:192,1,138,0|0,3:0|3:0,0:0:0:0:
116,192,6246,6,0,B|48:192|48:192|120:192,1,138,4|0,0:3|3:0,0:0:0:0:
288,192,6567,2,0,B|356:192|356:192|280:192,1,138,4|0,0:3|3:0,0:0:0:0:
116,192,6889,1,4,0:3:0:0:
392,192,7103,1,8,0:0:0:0:
184,192,7317,2,0,L|116:192,1,69,2|0,3:2|3:0,0:0:0:0:
288,192,7532,2,0,L|220:192,1,69,2|0,3:2|0:0,0:0:0:0:
48,192,7746,5,0,3:0:0:0:
28,200,7782,1,0,0:0:0:0:
16,216,7817,1,0,0:0:0:0:
16,240,7853,1,0,0:0:0:0:
28,260,7889,1,0,0:0:0:0:
48,266,7924,1,0,0:0:0:0:
256,192,7961,6,0,L|394:192,1,138,4|0,1:3|0:0,0:0:0:0:
118,192,8389,2,0,L|50:192,2,69,0|0|4,3:0|3:0|0:3,0:0:0:0:
394,192,8818,2,0,B|480:192|480:192|360:192,1,207,8|0,0:0|0:0,0:0:0:0:
256,192,9246,2,0,L|396:192,1,138,0|0,3:0|3:0,0:0:0:0:
116,192,9675,6,0,B|48:192|48:192|120:192,1,138,4|0,0:3|0:3,0:0:0:0:
288,192,9996,2,0,B|356:192|356:192|280:192,1,138,4|0,0:3|0:3,0:0:0:0:
116,192,10318,1,4,0:3:0:0:
392,192,10532,1,8,0:0:0:0:
184,192,10746,2,0,L|116:192,1,69,2|0,3:2|3:0,0:0:0:0:
288,192,10961,2,0,L|220:192,1,69,2|0,3:2|0:0,0:0:0:0:
48,192,11175,5,2,3:2:0:0:
28,200,11211,1,0,0:0:0:0:
16,216,11246,1,0,0:0:0:0:
16,240,11282,1,0,0:0:0:0:
28,260,11318,1,0,0:0:0:0:
48,266,11353,1,0,0:0:0:0:
256,192,11389,6,0,L|500:320,1,276,4|2,1:3|0:0,0:0:0:0:
292,320,12032,1,4,0:3:0:0:
500,320,12246,2,0,L|256:192,1,276,2|2,0:0|0:0,0:0:0:0:
464,192,12889,1,0,0:0:0:0:
188,192,13104,6,0,L|96:192,2,92,2|0|0,3:2|3:0|3:0,0:0:0:0:
395,192,13532,2,0,L|395:288,1,92,0|0,3:0|3:0,0:0:0:0:
188,192,13818,1,0,3:0:0:0:
164,192,13854,1,0,0:0:0:0:
164,192,13889,1,0,3:0:0:0:
188,192,13925,1,0,0:0:0:0:
324,192,13961,6,0,L|416:192,2,92,2|0|0,3:2|3:0|3:0,0:0:0:0:
116,192,14389,1,10,3:0:0:0:
70,192,14461,1,0,0:0:0:0:
70,192,14532,1,0,0:0:0:0:
116,192,14604,2,0,L|216:192,1,92,0|0,0:0|0:0,0:0:0:0:
416,192,14818,6,0,B|484:192|484:192|412:192,1,138,4|0,0:3|3:0,0:0:0:0:
244,192,15139,2,0,B|176:192|176:192|252:192,1,138,4|0,0:3|3:0,0:0:0:0:
416,192,15461,1,4,0:3:0:0:
140,192,15675,1,0,1:0:0:0:
348,192,15889,1,0,3:0:0:0:
416,192,15996,1,0,3:0:0:0:
244,272,16104,5,0,3:0:0:0:
210,264,16157,1,0,3:0:0:0:
183,243,16211,1,0,3:0:0:0:
168,212,16265,1,0,3:0:0:0:
167,177,16318,1,0,3:0:0:0:
182,146,16372,1,0,3:0:0:0:
209,124,16425,1,0,3:0:0:0:
243,116,16479,1,0,0:0:0:0:
448,192,16532,6,0,L|304:192,1,138,4|0,0:3|0:0,0:0:0:0:
136,192,16854,2,0,L|276:192,1,138,4|0,0:3|3:0,0:0:0:0:
447,192,17175,2,0,L|376:192,1,69,4|4,0:3|0:3,0:0:0:0:
204,192,17389,2,0,L|60:192,1,138,0|0,1:0|3:0,0:0:0:0:
136,192,17711,1,0,3:0:0:0:
308,272,17818,5,0,3:0:0:0:
342,264,17871,1,0,3:0:0:0:
369,243,17925,1,0,3:0:0:0:
384,212,17979,1,0,3:0:0:0:
385,177,18032,1,2,3:2:0:0:
370,146,18086,1,2,3:2:0:0:
343,124,18139,1,2,3:2:0:0:
309,116,18193,1,0,0:0:0:0:
137,116,18246,6,0,B|68:116|68:116|140:116,1,138,4|0,0:3|0:0,0:0:0:0:
204,116,18568,1,0,0:0:0:0:
377,116,18675,2,0,L|377:184,1,69,2|2,3:2|3:2,0:0:0:0:
204,184,18889,2,0,L|136:184,1,69,4|0,0:3|0:0,0:0:0:0:
308,184,19104,6,0,L|376:184,1,69,2|0,1:2|0:0,0:0:0:0:
168,184,19318,2,0,L|132:244,1,69,2|0,0:0|0:0,0:0:0:0:
344,184,19532,2,0,L|376:244,1,69,2|0,3:2|0:0,0:0:0:0:
132,184,19746,2,0,L|132:252,1,69,2|0,3:2|0:0,0:0:0:0:
376,184,19961,6,0,B|444:184|444:184|372:184,1,138,4|0,0:3|0:0,0:0:0:0:
204,184,20282,1,4,0:3:0:0:
84,184,20389,2,0,L|84:116,1,69,0|0,3:0|3:0,0:0:0:0:
257,115,20604,2,0,L|332:116,1,69,4|4,0:3|0:3,0:0:0:0:
152,116,20818,2,0,B|84:116|84:116|160:116,1,138,0|0,1:0|3:0,0:0:0:0:
220,116,21139,1,0,3:0:0:0:
392,116,21246,5,2,0:1:0:0:
426,124,21299,1,0,0:0:0:0:
453,145,21353,1,0,0:0:0:0:
468,176,21407,1,0,0:0:0:0:
469,211,21460,1,0,0:0:0:0:
454,242,21514,1,0,0:0:0:0:
427,264,21567,1,0,0:0:0:0:
393,272,21621,1,0,0:0:0:0:
152,192,21675,6,0,B|84:192|84:192|156:192,1,138,4|0,0:3|3:0,0:0:0:0:
324,192,21996,2,0,B|392:192|392:192|316:192,1,138,4|0,0:3|3:0,0:0:0:0:
152,192,22318,1,4,0:3:0:0:
428,192,22532,1,0,1:0:0:0:
220,192,22746,1,0,3:0:0:0:
152,192,22853,1,0,0:0:0:0:
324,272,22961,5,0,3:0:0:0:
358,264,23014,1,0,3:0:0:0:
385,243,23068,1,0,3:0:0:0:
400,212,23122,1,0,3:0:0:0:
401,177,23175,1,0,3:0:0:0:
386,146,23229,1,0,3:0:0:0:
359,124,23282,1,0,3:0:0:0:
325,116,23336,1,0,0:0:0:0:
152,116,23389,6,0,B|84:116|84:116|160:116,1,138,4|0,0:3|0:0,0:0:0:0:
325,116,23711,2,0,B|392:116|392:116|320:116,1,138,4|0,0:3|3:0,0:0:0:0:
152,116,24032,2,0,L|84:116,1,69,4|4,0:3|0:3,0:0:0:0:
256,116,24246,2,0,L|400:116,1,138,0|0,1:0|3:0,0:0:0:0:
324,116,24568,1,0,3:0:0:0:
152,116,24675,5,0,3:0:0:0:
118,124,24728,1,0,3:0:0:0:
91,145,24782,1,0,3:0:0:0:
76,176,24836,1,0,3:0:0:0:
75,211,24889,1,2,3:2:0:0:
90,242,24943,1,2,3:2:0:0:
117,264,24996,1,2,3:2:0:0:
151,272,25050,1,0,0:0:0:0:
324,272,25104,6,0,L|464:272,1,138,4|0,0:3|0:0,0:0:0:0:
289,272,25425,2,0,L|152:272,1,138,4|0,0:3|0:0,0:0:0:0:
323,272,25746,2,0,L|392:272,1,69,4|0,0:3|0:0,0:0:0:0:
220,272,25961,6,0,L|152:272,1,69,2|0,1:2|0:0,0:0:0:0:
360,272,26175,2,0,L|392:212,1,69,2|4,0:0|0:3,0:0:0:0:
184,272,26389,2,0,L|152:212,1,69,2|0,0:0|0:0,0:0:0:0:
392,272,26604,2,0,L|392:200,1,69,4|0,0:3|0:0,0:0:0:0:
152,204,26818,6,0,B|84:204|84:204|156:204,1,138,4|0,0:3|0:0,0:0:0:0:
220,204,27139,1,4,0:3:0:0:
392,204,27246,2,0,L|392:136,1,69,2|0,3:1|0:0,0:0:0:0:
220,136,27461,2,0,L|152:136,1,69,4|0,0:3|0:0,0:0:0:0:
324,136,27675,6,0,L|468:136,1,138,0|4,1:0|0:3,0:0:0:0:
393,136,27996,1,0,3:0:0:0:
220,136,28104,2,0,L|152:136,1,69,0|0,1:0|1:0,0:0:0:0:
32,136,28318,2,0,L|104:136,1,69,4|4,3:0|3:0,0:0:0:0:
344,136,28532,6,0,B|412:136|412:136|336:136,1,138,4|0,3:2|0:0,0:0:0:0:
276,136,28854,1,0,0:0:0:0:
156,136,28961,2,0,L|156:204,1,69,0|0,3:0|3:0,0:0:0:0:
328,204,29175,2,0,L|396:204,1,69,4|0,0:3|0:0,0:0:0:0:
228,204,29389,2,0,B|88:204,1,138,0|0,1:0|3:0,0:0:0:0:
156,204,29711,1,0,3:0:0:0:
328,128,29818,5,0,3:0:0:0:
362,136,29871,1,0,3:0:0:0:
389,157,29925,1,0,3:0:0:0:
404,188,29979,1,0,3:0:0:0:
405,223,30032,1,0,3:0:0:0:
390,254,30086,1,0,3:0:0:0:
363,276,30139,1,0,3:0:0:0:
329,284,30193,1,0,0:0:0:0:
156,284,30246,6,0,B|88:284|88:284|160:284,1,138,4|0,0:3|0:0,0:0:0:0:
328,284,30568,2,0,B|396:284|396:284|320:284,1,138,4|0,0:3|0:0,0:0:0:0:
156,284,30889,2,0,L|88:284,1,69,4|4,0:3|0:3,0:0:0:0:
260,284,31104,2,0,L|400:284,1,138,0|0,1:0|0:0,0:0:0:0:
328,284,31425,1,0,0:0:0:0:
156,284,31532,5,0,3:0:0:0:
122,276,31585,1,0,3:0:0:0:
95,255,31639,1,0,3:0:0:0:
80,224,31693,1,0,3:0:0:0:
79,189,31746,1,0,3:0:0:0:
94,158,31800,1,0,3:0:0:0:
121,136,31853,1,0,3:0:0:0:
155,128,31907,1,0,0:0:0:0:
328,128,31961,6,0,L|468:128,1,138,4|0,0:3|0:0,0:0:0:0:
396,128,32282,1,0,3:0:0:0:
276,128,32389,2,0,L|208:128,1,69,0|0,3:0|3:0,0:0:0:0:
380,128,32604,2,0,L|380:196,1,69,4|0,0:3|0:0,0:0:0:0:
208,200,32818,2,0,L|68:200,1,138,0|0,1:0|0:0,0:0:0:0:
140,200,33139,1,0,0:0:0:0:
312,120,33246,5,0,3:0:0:0:
346,128,33299,1,0,0:0:0:0:
373,149,33353,1,0,0:0:0:0:
388,180,33407,1,0,3:0:0:0:
389,215,33460,1,0,0:0:0:0:
374,246,33514,1,0,3:0:0:0:
347,268,33567,1,0,0:0:0:0:
313,276,33621,1,0,0:0:0:0:
140,276,33675,6,0,B|72:276|72:276|144:276,1,138,4|0,0:3|0:0,0:0:0:0:
208,276,33996,1,4,0:3:0:0:
328,276,34104,2,0,L|256:276,1,69,0|0,3:0|3:0,0:0:0:0:
88,276,34318,2,0,L|88:204,1,69,4|4,0:3|0:3,0:0:0:0:
260,208,34532,6,0,L|400:208,1,138,0|4,1:0|0:3,0:0:0:0:
120,208,34961,2,0,L|192:208,1,69,8|8,3:0|3:0,0:0:0:0:
360,208,35175,2,0,L|432:208,1,69,4|4,3:0|3:0,0:0:0:0:
256,208,35389,6,0,L|44:208,1,207.000007896424,4|0,1:0|0:0,0:0:0:0:
256,208,35711,2,0,L|468:208,1,207.000007896424,4|0,1:0|0:0,0:0:0:0:
256,208,36032,2,0,L|152:208,1,103.500003948212,4|4,3:0|3:0,0:0:0:0:
360,208,36246,2,0,B|464:208|464:208|48:208|48:208|256:208,1,724.500027637483,4|0,1:0|0:0,0:0:0:0:
464,208,37104,6,0,L|256:208,1,207.000007896424,4|0,1:0|0:0,0:0:0:0:
48,208,37425,2,0,L|255:208,1,207.000007896424,4|0,1:0|0:0,0:0:0:0:
464,208,37746,2,0,L|356:208,1,103.500003948212,4|4,3:0|3:0,0:0:0:0:
156,208,37961,2,0,B|52:208|52:208|464:208|464:208|256:208,1,724.500027637483,4|0,1:0|0:0,0:0:0:0:
48,208,38818,6,0,B|48:312|48:312|48:204,1,207.000007896424,4|0,1:0|3:0,0:0:0:0:
255,208,39139,2,0,B|256:312|256:312|256:204,1,207.000007896424,4|0,1:0|0:0,0:0:0:0:
464,208,39461,2,0,L|464:316,1,103.500003948212,4|4,3:0|3:0,0:0:0:0:
257,311,39675,2,0,B|48:312|48:312|464:312|464:312|324:312,1,724.500027637483,4|0,1:0|0:0,0:0:0:0:
157,312,40532,6,0,B|52:312|52:312|168:312,1,207.000007896424,4|0,1:0|0:0,0:0:0:0:
364,312,40854,2,0,B|468:312|468:312|336:312,1,207.000007896424,4|0,1:0|0:0,0:0:0:0:
157,312,41175,2,0,L|52:312,1,103.500003948212,4|4,3:0|3:0,0:0:0:0:
260,312,41389,2,0,B|468:312|468:312|52:312|52:312|152:312,1,724.500027637483,4|0,1:0|0:0,0:0:0:0:
324,312,42246,6,0,L|464:312,1,138,4|0,0:3|0:0,0:0:0:0:
392,312,42568,1,0,3:0:0:0:
272,312,42675,2,0,L|272:240,1,69,0|0,3:0|3:0,0:0:0:0:
444,244,42889,2,0,L|444:176,1,69,4|0,0:3|0:0,0:0:0:0:
272,176,43104,2,0,L|124:176,1,138,0|0,1:0|3:0,0:0:0:0:
204,176,43425,1,0,3:0:0:0:
376,176,43532,5,0,3:0:0:0:
410,184,43585,1,0,3:0:0:0:
437,205,43639,1,0,3:0:0:0:
452,236,43693,1,0,3:0:0:0:
453,271,43746,1,0,3:0:0:0:
438,302,43800,1,0,3:0:0:0:
411,324,43853,1,0,3:0:0:0:
377,332,43907,1,0,0:0:0:0:
136,332,43961,6,0,B|68:332|68:332|140:332,1,138,4|0,0:3|0:0,0:0:0:0:
308,332,44282,2,0,B|376:332|376:332|300:332,1,138,4|0,0:3|0:0,0:0:0:0:
136,332,44604,2,0,L|68:332,1,69,4|4,0:3|0:3,0:0:0:0:
240,332,44818,2,0,L|384:332,1,138,0|2,1:0|0:0,0:0:0:0:
104,332,45246,5,0,3:0:0:0:
70,324,45299,1,0,0:0:0:0:
43,303,45353,1,0,0:0:0:0:
28,272,45407,1,0,3:0:0:0:
27,237,45460,1,0,0:0:0:0:
42,206,45514,1,0,3:0:0:0:
69,184,45567,1,0,0:0:0:0:
103,176,45621,1,0,0:0:0:0:
344,176,45675,6,0,L|484:176,1,138,4|0,0:3|0:0,0:0:0:0:
412,176,45996,1,0,3:0:0:0:
292,176,46104,2,0,L|220:176,1,69,0|0,3:0|3:0,0:0:0:0:
396,176,46318,2,0,L|396:248,1,69,4|0,0:3|0:0,0:0:0:0:
224,244,46532,2,0,L|80:244,1,138,0|0,1:0|3:0,0:0:0:0:
156,244,46854,1,0,3:0:0:0:
328,164,46961,5,0,3:0:0:0:
362,172,47014,1,0,3:0:0:0:
389,193,47068,1,0,3:0:0:0:
404,224,47122,1,0,3:0:0:0:
405,259,47175,1,0,3:0:0:0:
390,290,47229,1,0,3:0:0:0:
363,312,47282,1,0,3:0:0:0:
329,320,47336,1,0,0:0:0:0:
120,320,47389,6,0,B|52:320|52:320|128:320,1,138,4|0,0:3|0:0,0:0:0:0:
188,320,47711,1,4,0:3:0:0:
308,320,47818,2,0,L|240:320,1,69,0|0,3:0|0:0,0:0:0:0:
68,320,48032,2,0,L|68:248,1,69,4|4,0:3|0:3,0:0:0:0:
240,252,48246,6,0,L|88:252,1,138,0|2,1:0|0:0,0:0:0:0:
380,252,48675,2,0,L|308:252,1,69,8|8,3:0|3:0,0:0:0:0:
140,252,48889,2,0,L|68:252,1,69,4|8,3:0|3:0,0:0:0:0:
256,208,49104,6,0,L|468:208,1,207.000007896424,4|0,1:0|0:0,0:0:0:0:
256,208,49426,2,0,L|44:208,1,207.000007896424,4|0,1:0|0:0,0:0:0:0:
256,208,49747,2,0,L|360:208,1,103.500003948212,4|4,3:0|3:0,0:0:0:0:
152,208,49961,2,0,B|48:208|48:208|464:208|464:208|256:208,1,724.500027637483,4|0,1:0|0:0,0:0:0:0:
48,208,50819,6,0,L|256:208,1,207.000007896424,4|0,1:0|0:0,0:0:0:0:
464,208,51140,2,0,L|257:208,1,207.000007896424,4|0,1:0|0:0,0:0:0:0:
48,208,51461,2,0,L|156:208,1,103.500003948212,4|4,3:0|3:0,0:0:0:0:
356,208,51676,2,0,B|460:208|460:208|48:208|48:208|256:208,1,724.500027637483,4|0,1:0|0:0,0:0:0:0:
464,208,52533,6,0,B|464:312|464:312|464:204,1,207.000007896424,4|0,1:0|0:0,0:0:0:0:
257,208,52854,2,0,B|256:312|256:312|256:204,1,207.000007896424,4|0,1:0|0:0,0:0:0:0:
48,208,53176,2,0,L|48:316,1,103.500003948212,4|0,3:0|0:0,0:0:0:0:
255,311,53390,2,0,B|464:312|464:312|48:312|48:312|188:312,1,724.500027637483,4|0,1:0|0:0,0:0:0:0:
355,312,54247,6,0,B|460:312|460:312|344:312,1,207.000007896424,4|0,1:0|0:0,0:0:0:0:
148,312,54569,2,0,B|44:312|44:312|176:312,1,207.000007896424,4|0,1:0|0:0,0:0:0:0:
355,312,54890,2,0,L|460:312,1,103.500003948212,4|4,3:0|3:0,0:0:0:0:
252,312,55104,2,0,B|44:312|44:312|460:312|460:312|360:312,1,724.500027637483,4|0,1:0|0:0,0:0:0:0:
188,312,55961,6,0,L|48:312,1,138,4|0,1:0|3:0,0:0:0:0:
120,312,56282,1,0,3:0:0:0:
240,312,56389,2,0,L|312:312,1,69,0|0,3:0|3:0,0:0:0:0:
136,312,56604,2,0,L|68:312,1,69,4|0,0:3|0:0,0:0:0:0:
239,312,56818,5,0,1:0:0:0:
32,312,57032,1,4,0:3:0:0:
308,312,57246,2,0,L|376:312,1,69,0|4,3:0|0:3,0:0:0:0:
168,312,57568,1,4,0:3:0:0:
340,312,57675,6,0,B|444:312|444:312|336:312,1,207,4|0,0:3|3:0,0:0:0:0:
168,312,58104,2,0,L|168:244,1,69,0|0,3:0|3:0,0:0:0:0:
340,243,58318,2,0,L|340:312,1,69,4|0,0:3|0:0,0:0:0:0:
167,311,58532,6,0,B|96:312|96:312|168:312,1,138,0|4,1:0|0:3,0:0:0:0:
340,312,58854,2,0,B|408:312|408:312|336:312,1,138,0|4,1:0|0:3,0:0:0:0:
168,312,59175,2,0,L|96:312,1,69,0|0,1:0|3:0,0:0:0:0:
340,312,59389,6,0,L|480:312,1,138,4|0,0:3|3:0,0:0:0:0:
408,312,59711,1,0,3:0:0:0:
236,312,59818,2,0,L|168:312,1,69,0|0,3:0|3:0,0:0:0:0:
339,312,60032,2,0,L|408:312,1,69,4|0,0:3|0:0,0:0:0:0:
235,312,60246,6,0,L|304:312,1,69,0|0,1:0|0:0,0:0:0:0:
64,312,60461,2,0,L|64:244,1,69,0|0,3:0|3:0,0:0:0:0:
236,244,60675,2,0,L|304:244,1,69,0|0,3:0|3:0,0:0:0:0:
184,244,60889,2,0,L|264:244,1,69,0|0,3:0|3:0,0:0:0:0:
428,244,61104,6,0,L|428:176,1,69,4|4,0:3|0:3,0:0:0:0:
256,172,61318,1,4,0:3:0:0:
48,244,61532,2,0,L|48:176,1,69,4|4,0:3|0:3,0:0:0:0:
220,172,61746,1,4,0:3:0:0:
428,172,61961,1,0,1:0:0:0:
152,172,62175,1,4,0:3:0:0:
428,172,62389,5,0,3:0:0:0:
462,180,62442,1,0,3:0:0:0:
489,201,62496,1,0,3:0:0:0:
504,232,62550,1,0,3:0:0:0:
505,267,62603,1,0,3:0:0:0:
490,298,62657,1,0,3:0:0:0:
463,320,62710,1,0,3:0:0:0:
429,328,62764,1,0,0:0:0:0:
188,328,62818,6,0,B|120:328|120:328|192:328,1,138,4|0,1:1|0:0,0:0:0:0:
256,328,63139,1,0,3:0:0:0:
376,328,63246,2,0,L|376:256,1,69,0|0,3:0|3:0,0:0:0:0:
204,259,63461,2,0,L|136:259,1,69,4|0,0:3|0:0,0:0:0:0:
308,259,63675,5,0,1:0:0:0:
100,259,63889,1,4,0:3:0:0:
376,259,64104,2,0,L|304:259,1,69,0|4,3:0|0:3,0:0:0:0:
100,259,64425,1,4,0:3:0:0:
272,256,64532,6,0,B|376:256|376:256|268:256,1,207,4|0,0:3|3:0,0:0:0:0:
100,259,64961,2,0,L|100:188,1,69,0|0,3:0|0:0,0:0:0:0:
272,191,65175,2,0,L|200:192,1,69,4|0,0:3|0:0,0:0:0:0:
376,192,65389,6,0,B|444:192|444:192|368:192,1,138,0|4,1:0|0:3,0:0:0:0:
203,192,65711,2,0,B|132:192|132:192|204:192,1,138,0|4,1:0|0:3,0:0:0:0:
376,192,66032,2,0,L|448:192,1,69,0|0,1:0|3:0,0:0:0:0:
200,312,66246,6,0,L|60:312,1,138,4|0,0:3|3:0,0:0:0:0:
132,312,66568,1,0,3:0:0:0:
304,312,66675,2,0,L|372:312,1,69,0|0,3:0|3:0,0:0:0:0:
201,312,66889,2,0,L|132:312,1,69,4|0,0:3|0:0,0:0:0:0:
305,312,67103,6,0,L|236:312,1,69,0|0,1:0|0:0,0:0:0:0:
444,312,67318,2,0,L|444:244,1,69,0|0,3:0|3:0,0:0:0:0:
272,244,67532,2,0,L|204:244,1,69,0|0,3:0|3:0,0:0:0:0:
324,244,67746,2,0,L|244:244,1,69,0|0,3:0|3:0,0:0:0:0:
80,244,67961,6,0,L|80:176,1,69,4|4,0:3|0:3,0:0:0:0:
252,172,68175,1,4,0:3:0:0:
460,244,68389,2,0,L|460:176,1,69,4|4,0:3|0:3,0:0:0:0:
288,172,68603,1,4,0:3:0:0:
80,172,68818,5,0,1:0:0:0:
356,172,69032,1,4,0:3:0:0:
80,172,69246,2,0,L|148:172,1,69,0|0,1:0|1:0,0:0:0:0:
356,172,69461,2,0,L|280:172,1,69,4|4,3:0|3:0,0:0:0:0:
80,172,69675,1,0,3:0:0:0:
256,192,69782,12,0,70961,0:0:0:0:
172,260,71389,6,0,L|164:192,1,69,4|0,1:0|0:0,0:0:0:0:
340,260,71604,2,0,L|347:191,1,69,4|0,0:3|0:0,0:0:0:0:
172,260,71818,2,0,L|164:192,1,69,4|0,0:3|0:0,0:0:0:0:
340,260,72033,2,0,L|347:191,1,69,4|0,0:3|0:0,0:0:0:0:
128,192,72246,6,0,P|80:132|164:64,1,207,0|0,1:0|0:0,0:0:0:0:
384,192,72675,2,0,P|432:132|348:64,1,207,2|0,0:0|0:0,0:0:0:0:
172,260,73104,6,0,L|164:192,1,69,4|0,0:3|0:0,0:0:0:0:
340,260,73319,2,0,L|348:191,1,69,4|0,0:3|0:0,0:0:0:0:
172,260,73532,2,0,L|164:192,1,69,4|0,0:3|0:0,0:0:0:0:
340,260,73748,2,0,L|348:191,1,69,4|0,0:3|0:0,0:0:0:0:
128,192,73961,6,0,P|52:136|164:64,1,276,0|0,1:0|0:0,0:0:0:0:
372,64,74604,1,2,0:0:0:0:
96,64,74818,6,0,L|164:64,1,69,4|0,1:0|0:0,0:0:0:0:
336,64,75032,2,0,L|336:136,1,69,4|0,0:3|0:0,0:0:0:0:
164,132,75246,2,0,L|96:132,1,69,4|0,0:3|0:0,0:0:0:0:
267,132,75461,2,0,L|268:204,1,69,4|0,0:3|0:0,0:0:0:0:
60,200,75675,6,0,P|96:272|212:304,1,207,0|0,1:0|0:0,0:0:0:0:
384,200,76104,2,0,P|348:272|232:304,1,207,2|0,0:0|0:0,0:0:0:0:
416,64,76532,6,0,L|348:64,1,69,4|0,0:3|0:0,0:0:0:0:
176,64,76746,2,0,L|176:136,1,69,4|0,0:3|0:0,0:0:0:0:
348,132,76960,2,0,L|416:132,1,69,4|0,0:3|0:0,0:0:0:0:
245,132,77175,2,0,L|244:204,1,69,4|0,0:3|0:0,0:0:0:0:
416,200,77389,6,0,L|344:200,1,69,0|0,1:0|1:0,0:0:0:0:
176,200,77604,1,4,0:3:0:0:
348,200,77818,1,4,0:3:0:0:
176,200,78032,1,4,0:3:0:0:
452,200,78246,6,0,L|460:132,1,69,4|0,1:0|0:0,0:0:0:0:
288,132,78461,2,0,L|216:132,1,69,4|0,0:3|0:0,0:0:0:0:
48,132,78675,2,0,L|40:64,1,69,4|0,0:3|0:0,0:0:0:0:
212,63,78889,2,0,L|284:64,1,69,4|0,0:3|0:0,0:0:0:0:
452,64,79104,6,0,P|496:156|420:188,1,207,0|0,1:0|0:0,0:0:0:0:
248,188,79532,2,0,P|204:280|280:312,1,207,2|0,0:0|0:0,0:0:0:0:
488,312,79961,6,0,L|496:244,1,69,4|0,0:3|0:0,0:0:0:0:
324,244,80175,2,0,L|396:244,1,69,4|0,0:3|0:0,0:0:0:0:
220,244,80389,2,0,L|212:176,1,69,4|0,0:3|0:0,0:0:0:0:
384,176,80604,2,0,L|312:176,1,69,4|0,0:3|0:0,0:0:0:0:
144,52,80818,6,0,P|100:144|176:176,1,207,0|0,1:0|0:0,0:0:0:0:
348,176,81246,2,0,P|392:268|316:300,1,207,2|0,0:0|0:0,0:0:0:0:
108,300,81675,6,0,L|40:300,1,69,4|0,1:0|0:0,0:0:0:0:
212,300,81889,2,0,L|288:300,1,69,4|0,0:3|0:0,0:0:0:0:
108,300,82104,2,0,L|100:232,1,69,4|0,0:3|0:0,0:0:0:0:
272,232,82318,2,0,L|280:164,1,69,4|0,0:3|0:0,0:0:0:0:
108,164,82532,6,0,P|60:92|144:40,1,207,0|0,1:0|0:0,0:0:0:0:
352,40,82961,2,0,L|144:40,1,207,2|0,0:0|0:0,0:0:0:0:
352,40,83389,5,0,1:0:0:0:
435,100,83496,1,0,1:0:0:0:
403,199,83604,1,8,0:3:0:0:
300,199,83711,1,8,0:3:0:0:
92,200,83818,1,4,0:3:0:0:
195,200,83925,1,4,0:3:0:0:
403,199,84032,1,0,1:0:0:0:
320,259,84139,1,0,1:0:0:0:
352,358,84247,5,8,0:3:0:0:
455,358,84354,1,8,0:3:0:0:
248,360,84461,1,4,3:0:0:0:
145,360,84568,1,4,3:0:0:0:
388,360,84675,2,0,L|404:292,1,69,4|0,0:3|3:0,0:0:0:0:
160,296,84889,2,0,L|144:228,1,69,0|0,3:0|3:0,0:0:0:0:
352,228,85104,6,0,L|420:228,1,69,4|0,1:0|0:0,0:0:0:0:
248,228,85318,2,0,L|320:228,1,69,4|0,0:3|0:0,0:0:0:0:
144,228,85532,2,0,L|76:228,1,69,4|0,0:3|0:0,0:0:0:0:
248,228,85746,2,0,L|176:228,1,69,4|0,0:3|0:0,0:0:0:0:
352,228,85961,6,0,P|432:176|388:92,1,207,0|0,1:0|0:0,0:0:0:0:
216,228,86389,2,0,P|136:176|180:92,1,207,2|0,0:0|0:0,0:0:0:0:
352,92,86818,6,0,L|280:92,1,69,4|0,0:3|0:0,0:0:0:0:
108,92,87032,2,0,L|184:92,1,69,4|0,0:3|0:0,0:0:0:0:
352,92,87246,2,0,L|428:92,1,69,4|0,0:3|0:0,0:0:0:0:
248,92,87461,2,0,L|176:92,1,69,4|0,0:3|0:0,0:0:0:0:
388,92,87675,6,0,P|464:148|352:220,1,276,0|0,1:0|0:0,0:0:0:0:
144,220,88318,1,2,0:0:0:0:
420,220,88532,6,0,L|488:220,1,69,4|0,1:0|0:0,0:0:0:0:
316,220,88746,2,0,L|316:296,1,69,4|0,0:3|0:0,0:0:0:0:
488,287,88961,2,0,L|412:288,1,69,4|0,0:3|0:0,0:0:0:0:
248,288,89175,2,0,L|328:288,1,69,4|0,0:3|0:0,0:0:0:0:
144,288,89389,6,0,P|64:236|108:152,1,207,0|0,1:0|0:0,0:0:0:0:
280,288,89817,2,0,P|360:236|316:152,1,207,2|0,0:0|0:0,0:0:0:0:
108,152,90246,6,0,L|176:152,1,69,4|0,0:3|0:0,0:0:0:0:
348,152,90461,2,0,L|416:152,1,69,4|0,0:3|0:0,0:0:0:0:
244,152,90675,2,0,L|176:152,1,69,4|0,0:3|0:0,0:0:0:0:
347,152,90889,2,0,L|356:220,1,69,4|0,0:3|0:0,0:0:0:0:
148,220,91104,5,0,1:0:0:0:
216,220,91211,1,0,1:0:0:0:
424,220,91318,1,4,0:3:0:0:
216,220,91532,2,0,L|72:220,1,138,4|4,0:3|0:3,0:0:0:0:
356,220,91961,6,0,L|428:220,1,69,4|0,0:3|0:0,0:0:0:0:
252,220,92175,2,0,L|176:220,1,69,4|0,0:3|0:0,0:0:0:0:
390,159,92389,2,0,L|424:219,1,69,4|0,0:3|0:0,0:0:0:0:
217,159,92604,2,0,L|183:219,1,69,4|0,0:3|0:0,0:0:0:0:
424,220,92818,6,0,P|468:312|392:344,1,207,0|0,1:0|0:0,0:0:0:0:
220,344,93246,2,0,P|288:272|392:264,1,207,2|0,0:0|0:0,0:0:0:0:
184,344,93675,6,0,L|112:344,1,69,4|0,0:3|0:0,0:0:0:0:
288,344,93889,2,0,L|364:344,1,69,4|0,0:3|0:0,0:0:0:0:
150,283,94103,2,0,L|116:343,1,69,4|0,0:3|0:0,0:0:0:0:
323,283,94318,2,0,L|357:343,1,69,4|0,0:3|0:0,0:0:0:0:
116,344,94532,6,0,P|72:252|148:220,1,207,0|0,1:0|0:0,0:0:0:0:
320,220,94960,2,0,P|252:292|148:300,1,207,0|0,0:0|0:0,0:0:0:0:
356,300,95389,6,0,L|424:300,1,69,8|0,0:3|0:0,0:0:0:0:
216,300,95604,2,0,L|148:300,1,69,8|0,0:3|0:0,0:0:0:0:
388,300,95818,2,0,L|424:240,1,69,8|0,0:3|0:0,0:0:0:0:
180,300,96032,2,0,L|144:240,1,69,8|0,0:3|0:0,0:0:0:0:
388,300,96246,6,0,P|464:244|352:172,1,276,0|2,1:0|0:0,0:0:0:0:
144,172,96889,1,2,0:0:0:0:
420,172,97104,5,0,1:0:0:0:
480,256,97211,1,0,1:0:0:0:
420,340,97318,1,8,0:3:0:0:
320,340,97425,1,8,0:3:0:0:
112,340,97532,1,4,0:3:0:0:
212,340,97639,1,4,0:3:0:0:
420,340,97746,1,0,1:0:0:0:
336,340,97853,1,0,1:0:0:0:
336,172,97961,5,4,0:3:0:0:
420,172,98067,1,4,0:3:0:0:
212,172,98175,1,4,0:3:0:0:
112,172,98282,1,4,0:3:0:0:
320,172,98389,1,8,0:3:0:0:
212,172,98496,1,8,0:3:0:0:
320,172,98604,1,4,0:3:0:0:
212,172,98711,1,4,0:3:0:0:
428,172,98818,6,0,L|428:244,1,71.7599995620117,4|0,1:0|0:0,0:0:0:0:
212,244,99032,2,0,L|140:244,1,71.7599995620117,4|0,0:3|0:0,0:0:0:0:
356,244,99246,2,0,L|428:244,1,71.7599995620117,4|0,0:3|0:0,0:0:0:0:
212,244,99461,2,0,L|212:172,1,71.7599995620117,4|0,0:3|0:0,0:0:0:0:
428,172,99675,6,0,P|472:116|428:76,1,143.519999124023,0|0,1:0|0:0,0:0:0:0:
320,76,99996,1,2,0:0:0:0:
104,76,100104,2,0,P|60:132|104:172,1,143.519999124023,0|2,0:0|0:0,0:0:0:0:
212,172,100425,1,0,0:0:0:0:
464,172,100532,6,0,L|316:172,1,143.519999124023,4|4,0:3|0:3,0:0:0:0:
104,172,100854,2,0,L|276:172,1,143.519999124023,4|4,0:3|0:3,0:0:0:0:
464,172,101175,1,4,0:3:0:0:
176,172,101389,6,0,L|32:172,1,143.519999124023,0|2,1:0|0:0,0:0:0:0:
320,172,101818,2,0,P|396:224|320:276,1,215.279998686035,2|0,0:0|0:0,0:0:0:0:
108,276,102246,6,0,L|108:204,1,71.7599995620117,4|0,0:3|0:0,0:0:0:0:
324,204,102461,2,0,L|396:204,1,71.7599995620117,4|0,0:3|0:0,0:0:0:0:
180,204,102675,2,0,L|108:204,1,71.7599995620117,4|0,0:3|0:0,0:0:0:0:
324,204,102889,2,0,L|324:120,1,71.7599995620117,4|0,0:3|0:0,0:0:0:0:
108,204,103104,6,0,P|64:260|108:300,1,143.519999124023,0|2,1:0|0:0,0:0:0:0:
216,300,103425,1,0,0:0:0:0:
432,300,103533,2,0,P|476:244|432:204,1,143.519999124023,2|2,0:0|0:0,0:0:0:0:
324,204,103854,1,0,0:0:0:0:
72,204,103961,6,0,P|28:152|72:108,1,143.519999124023,4|4,1:0|0:3,0:0:0:0:
288,108,104282,2,0,L|144:108,1,143.519999124023,4|4,0:3|0:3,0:0:0:0:
360,108,104604,1,4,0:3:0:0:
72,108,104818,6,0,L|144:108,2,71.7599995620117,0|0|4,1:0|1:0|0:3,0:0:0:0:
360,108,105246,2,0,L|488:172,1,143.519999124023,4|4,0:3|0:3,0:0:0:0:
144,108,105675,6,0,L|72:108,1,71.7599995620117,4|0,1:0|0:0,0:0:0:0:
287,108,105889,2,0,L|360:108,1,71.7599995620117,4|0,0:3|0:0,0:0:0:0:
144,108,106104,2,0,L|144:188,1,71.7599995620117,4|0,0:3|0:0,0:0:0:0:
360,108,106318,2,0,L|360:180,1,71.7599995620117,4|0,0:3|0:0,0:0:0:0:
108,180,106532,6,0,P|64:236|108:276,1,143.519999124023,0|2,1:0|0:0,0:0:0:0:
216,276,106853,1,0,0:0:0:0:
432,276,106961,2,0,P|476:220|432:180,1,143.519999124023,2|2,0:0|0:0,0:0:0:0:
324,180,107282,1,0,0:0:0:0:
108,180,107389,6,0,L|284:180,1,143.519999124023,4|4,0:3|0:3,0:0:0:0:
468,180,107711,2,0,L|320:180,1,143.519999124023,4|4,0:3|0:3,0:0:0:0:
108,180,108032,1,4,0:3:0:0:
396,180,108246,6,0,L|468:304,1,143.519999124023,0|0,1:0|0:0,0:0:0:0:
180,304,108675,2,0,P|108:232|180:184,1,215.279998686035,2|0,0:0|0:0,0:0:0:0:
396,184,109104,6,0,L|396:112,1,71.7599995620117,4|0,0:3|0:0,0:0:0:0:
180,112,109318,2,0,L|260:112,1,71.7599995620117,4|0,0:3|0:0,0:0:0:0:
468,112,109532,2,0,L|392:112,1,71.7599995620117,4|0,0:3|0:0,0:0:0:0:
180,112,109746,2,0,L|180:184,1,71.7599995620117,4|0,0:3|0:0,0:0:0:0:
395,183,109961,6,0,B|468:184|468:184|392:184,1,143.519999124023,0|2,1:0|0:0,0:0:0:0:
108,184,110389,2,0,B|36:184|36:184|112:184,1,143.519999124023,2|4,0:0|3:0,0:0:0:0:
216,184,110711,1,4,3:0:0:0:
432,184,110818,5,0,1:0:0:0:
504,240,110925,1,0,1:0:0:0:
432,240,111032,1,8,0:3:0:0:
324,240,111139,1,8,0:3:0:0:
108,240,111246,2,0,L|36:240,1,71.7599995620117,4|4,0:3|0:3,0:0:0:0:
252,240,111461,2,0,L|324:240,1,71.7599995620117,0|0,1:0|1:0,0:0:0:0:
108,240,111675,5,8,0:3:0:0:
36,296,111782,1,8,0:3:0:0:
107,296,111889,1,4,0:3:0:0:
216,296,111996,1,0,0:0:0:0:
431,296,112104,1,4,3:3:0:0:
324,296,112211,1,0,3:0:0:0:
432,296,112318,1,0,3:0:0:0:
324,296,112425,1,0,3:0:0:0:
84,172,112532,6,0,L|84:244,1,71.7599995620117,4|0,1:0|0:0,0:0:0:0:
300,244,112746,2,0,L|372:244,1,71.7599995620117,4|0,0:3|0:0,0:0:0:0:
156,244,112960,2,0,L|84:244,1,71.7599995620117,4|0,0:3|0:0,0:0:0:0:
300,244,113175,2,0,L|300:172,1,71.7599995620117,4|0,0:3|0:0,0:0:0:0:
84,172,113389,6,0,P|40:116|84:76,1,143.519999124023,0|0,1:0|0:0,0:0:0:0:
192,76,113710,1,2,0:0:0:0:
408,76,113818,2,0,P|452:132|408:172,1,143.519999124023,0|2,0:0|0:0,0:0:0:0:
300,172,114139,1,0,0:0:0:0:
48,172,114246,6,0,L|196:172,1,143.519999124023,4|4,1:0|0:3,0:0:0:0:
408,172,114568,2,0,L|236:172,1,143.519999124023,4|4,0:3|0:3,0:0:0:0:
48,172,114889,1,4,0:3:0:0:
336,172,115103,6,0,L|480:172,1,143.519999124023,0|2,1:0|0:0,0:0:0:0:
192,172,115532,2,0,P|116:224|192:276,1,215.279998686035,2|0,0:0|0:0,0:0:0:0:
404,276,115960,6,0,L|404:204,1,71.7599995620117,4|0,1:0|0:0,0:0:0:0:
188,204,116175,2,0,L|116:204,1,71.7599995620117,4|0,0:3|0:0,0:0:0:0:
332,204,116389,2,0,L|404:204,1,71.7599995620117,4|0,0:3|0:0,0:0:0:0:
188,204,116603,2,0,L|188:120,1,71.7599995620117,4|0,0:3|0:0,0:0:0:0:
404,204,116818,6,0,P|448:260|404:300,1,143.519999124023,0|2,1:0|0:0,0:0:0:0:
296,300,117139,1,0,0:0:0:0:
80,300,117247,2,0,P|36:244|80:204,1,143.519999124023,2|2,0:0|0:0,0:0:0:0:
188,204,117568,1,0,0:0:0:0:
440,204,117675,6,0,P|484:152|440:108,1,143.519999124023,4|4,1:0|0:3,0:0:0:0:
224,108,117996,2,0,L|368:108,1,143.519999124023,4|4,0:3|0:3,0:0:0:0:
152,108,118318,1,4,0:3:0:0:
440,108,118532,6,0,L|368:108,2,71.7599995620117,0|0|4,1:0|1:0|0:3,0:0:0:0:
152,108,118960,2,0,L|24:172,1,143.519999124023,4|4,0:3|0:3,0:0:0:0:
368,108,119389,6,0,L|440:108,1,71.7599995620117,4|0,1:0|0:0,0:0:0:0:
225,108,119603,2,0,L|152:108,1,71.7599995620117,4|0,0:3|0:0,0:0:0:0:
368,108,119818,2,0,L|368:188,1,71.7599995620117,4|0,0:3|0:0,0:0:0:0:
152,108,120032,2,0,L|152:180,1,71.7599995620117,4|0,0:3|0:0,0:0:0:0:
404,180,120246,6,0,P|448:236|404:276,1,143.519999124023,0|2,1:0|0:0,0:0:0:0:
296,276,120567,1,0,0:0:0:0:
80,276,120675,2,0,P|36:220|80:180,1,143.519999124023,2|2,0:0|0:0,0:0:0:0:
188,180,120996,1,0,0:0:0:0:
404,180,121103,6,0,L|228:180,1,143.519999124023,4|4,0:3|0:3,0:0:0:0:
44,180,121425,2,0,L|192:180,1,143.519999124023,4|4,0:3|0:3,0:0:0:0:
404,180,121746,1,4,0:3:0:0:
116,180,121960,6,0,L|44:304,1,143.519999124023,0|2,1:0|0:0,0:0:0:0:
332,304,122389,2,0,P|404:232|332:184,1,215.279998686035,2|0,0:0|0:0,0:0:0:0:
116,184,122818,6,0,L|116:112,1,71.7599995620117,4|0,1:0|0:0,0:0:0:0:
332,112,123032,2,0,L|252:112,1,71.7599995620117,4|0,0:3|0:0,0:0:0:0:
44,112,123246,2,0,L|120:112,1,71.7599995620117,4|0,0:3|0:0,0:0:0:0:
332,112,123460,2,0,L|332:184,1,71.7599995620117,4|0,0:3|0:0,0:0:0:0:
117,183,123675,6,0,B|44:184|44:184|120:184,1,143.519999124023,0|2,1:0|0:0,0:0:0:0:
404,184,124103,2,0,B|476:184|476:184|400:184,1,143.519999124023,2|4,0:0|0:3,0:0:0:0:
296,184,124425,1,4,0:3:0:0:
80,184,124532,5,0,1:0:0:0:
188,184,124639,1,0,1:0:0:0:
403,184,124746,2,0,L|488:184,1,71.7599995620117,8|8,0:3|0:3,0:0:0:0:
259,184,124961,1,4,0:3:0:0:
152,184,125068,1,4,0:3:0:0:
367,184,125175,2,0,L|404:248,1,71.7599995620117,0|0,1:0|1:0,0:0:0:0:
188,248,125389,5,8,0:3:0:0:
80,248,125496,1,8,0:3:0:0:
324,248,125604,1,4,0:3:0:0:
432,248,125711,1,4,0:3:0:0:
188,248,125818,1,4,3:0:0:0:
368,248,125925,1,0,3:0:0:0:
188,248,126032,1,0,3:0:0:0:
368,248,126139,1,0,3:0:0:0:
116,248,126246,1,4,3:1:0:0:
256,192,126354,12,0,131389,0:0:0:0:
