osu file format v14

[General]
AudioFilename: audio.mp3
AudioLeadIn: 0
PreviewTime: 70532
Countdown: 0
SampleSet: Soft
StackLeniency: 0.7
Mode: 0
LetterboxInBreaks: 0
EpilepsyWarning: 1
WidescreenStoryboard: 1

[Editor]
DistanceSpacing: 1.2
BeatDivisor: 2
GridSize: 32
TimelineZoom: 2.4

[Metadata]
Title:Infinite
TitleUnicode:Infinite
Artist:Tyler Smyth and Andy Bane (Dangerkids)
ArtistUnicode:Tyler Smyth and Andy Bane (Dangerkids)
Creator:Voli
Version:Normal
Source:Sonic Forces
Tags:seni sonic vocal traxx on the edge sega jun senoue Tomoya Ohtani
BeatmapID:1429071
BeatmapSetID:663863

[Difficulty]
HPDrainRate:3
CircleSize:3
OverallDifficulty:3
ApproachRate:4.5
SliderMultiplier:1.4
SliderTickRate:1

[Events]
//Background and Video events
0,0,"infinite.png",0,0
//Break Periods
//Storyboard Layer 0 (Background)
//Storyboard Layer 1 (Fail)
//Storyboard Layer 2 (Pass)
//Storyboard Layer 3 (Foreground)
//Storyboard Sound Samples

[TimingPoints]
1104.24795253083,428.571428571429,4,2,1,80,1,0
28532,-100,4,2,1,60,0,0
35389,-100,4,2,1,80,0,1
38711,-100,4,2,1,80,0,0
38818,-100,4,2,1,80,0,1
42247,-100,4,2,1,60,0,0
49104,-100,4,2,1,80,0,1
52425,-100,4,2,1,80,0,0
52532,-100,4,2,1,80,0,1
55961,-100,4,2,1,80,0,0
56068,-100,4,2,1,70,0,0
71389,-100,4,2,1,80,0,0
98818,-100,4,2,1,87,0,1
126247,-100,4,2,1,87,0,0
131389,-100,4,2,1,5,0,0

[Colours]
Combo1 : 192,192,192
Combo2 : 166,0,0
Combo3 : 96,96,96
Combo4 : 242,24,57
SliderBorder : 242,24,57

[HitObjects]
62,117,1104,6,0,B|102:145|102:145|154:133|178:133|178:133|185:145,1,140,8|0,1:3|3:0,0:0:0:0:
326,145,1961,2,0,B|333:132|333:132|357:132|409:144|409:144|449:116,1,140,8|4,0:0|0:3,0:0:0:0:
449,267,2818,2,0,B|409:239|409:239|357:251|333:251|333:251|326:239,1,140,4|0,0:3|0:0,0:0:0:0:
186,239,3675,2,0,B|178:251|178:251|154:251|102:239|102:239|62:267,1,140,8|2,0:0|3:2,0:0:0:0:
63,126,4532,6,0,B|47:17|47:17|92:9,1,140,4|0,1:3|3:0,0:0:0:0:
198,81,5389,2,0,B|214:190|214:190|184:195,1,140,8|0,0:0|3:0,0:0:0:0:
327,195,6247,2,0,B|298:190|298:190|314:81,1,140,4|0,0:3|0:0,0:0:0:0:
435,11,7104,2,0,B|465:17|465:17|449:126,1,140,8|2,0:0|3:2,0:0:0:0:
422,263,7961,6,0,B|376:299|319:288|319:288|327:337,1,140,4|0,1:3|3:0,0:0:0:0:
188,318,8818,2,0,B|193:288|193:288|136:299|90:263,1,140,8|0,0:0|3:0,0:0:0:0:
90,121,9675,2,0,B|136:85|193:96|193:96|188:65,1,140,4|0,0:3|0:0,0:0:0:0:
323,65,10532,2,0,B|319:96|319:96|376:85|422:121,1,140,8|2,0:0|3:2,0:0:0:0:
450,257,11389,5,4,1:3:0:0:
419,118,13104,6,0,B|365:37|365:37|254:72|254:72|143:37|143:37|88:120,1,420,2|10,3:2|3:0,0:0:0:0:
165,265,14818,6,0,P|117:287|65:284,2,105,4|4|4,0:3|0:3|0:3,0:0:0:0:
225,206,15675,2,0,L|313:212,1,70,0|0,1:0|3:0,0:0:0:0:
361,262,16104,1,0,3:0:0:0:
500,168,16532,1,4,0:3:0:0:
406,31,16961,2,0,L|336:40,1,70,0|4,3:0|0:3,0:0:0:0:
280,102,17389,2,0,L|210:92,1,70,0|0,1:0|3:0,0:0:0:0:
150,33,17818,1,0,3:0:0:0:
54,172,18247,6,0,P|39:221|56:270,2,105,4|0|4,0:3|0:0|0:3,0:0:0:0:
124,219,19104,2,0,L|199:228,1,70,2|2,1:2|0:0,0:0:0:0:
256,171,19532,1,2,3:2:0:0:
424,173,19961,1,4,0:3:0:0:
380,334,20389,2,0,P|344:340|309:331,1,70,0|4,3:0|0:3,0:0:0:0:
238,291,20818,2,0,P|204:283|169:289,1,70,0|0,1:0|3:0,0:0:0:0:
98,333,21247,1,2,0:1:0:0:
37,176,21675,6,0,L|48:71,2,105,4|4|4,0:3|0:3|0:3,0:0:0:0:
120,186,22532,2,0,L|189:178,1,70,0|0,1:0|3:0,0:0:0:0:
256,229,22961,1,0,3:0:0:0:
410,294,23389,1,4,0:3:0:0:
428,126,23818,2,0,L|354:117,1,70,0|4,3:0|0:3,0:0:0:0:
299,57,24247,2,0,L|229:65,1,70,0|0,1:0|3:0,0:0:0:0:
163,117,24675,1,0,3:0:0:0:
56,241,25104,6,0,B|112:233|112:233|168:249|208:297|208:297|232:289|232:289|256:297|256:297|280:289|280:289|304:297|304:297|328:289|328:289|360:313|408:313|440:273,1,420,4|2,0:3|0:0,0:0:0:0:
436,106,26818,2,0,B|408:71|360:71|328:95|328:95|304:87|304:87|280:95|280:95|256:87|256:87|232:95|232:95|208:87|208:87|168:135|112:151|112:151|56:143,1,420,4|0,0:3|1:0,0:0:0:0:
59,311,28532,6,0,L|196:336,1,140,4|0,3:2|3:0,0:0:0:0:
341,251,29389,2,0,L|204:226,1,140,0|0,1:0|3:0,0:0:0:0:
56,143,30247,2,0,P|37:94|53:45,2,105,4|4|4,0:3|0:3|0:3,0:0:0:0:
123,91,31104,1,0,1:0:0:0:
453,73,31961,6,0,L|316:48,1,140,4|0,0:3|3:0,0:0:0:0:
171,133,32818,2,0,L|308:158,1,140,0|0,1:0|3:0,0:0:0:0:
456,241,33676,2,0,P|474:289|458:338,2,105,4|4|4,0:3|0:3|0:3,0:0:0:0:
389,290,34533,1,0,1:0:0:0:
231,230,34961,2,0,L|158:239,1,70,8|4,3:0|3:0,0:0:0:0:
88,196,35389,6,0,P|68:148|79:97,2,105,4|4|4,1:0|1:0|3:0,0:0:0:0:
154,141,36247,2,0,L|313:121,1,140,4|2,1:0|0:0,0:0:0:0:
445,193,37104,2,0,P|465:241|454:292,2,105,4|4|4,1:0|1:0|3:0,0:0:0:0:
379,248,37962,2,0,L|220:268,1,140,4|0,1:0|0:0,0:0:0:0:
130,138,38818,6,0,B|151:104|145:69|145:69|120:47,2,105,4|4|4,1:0|1:0|3:0,0:0:0:0:
59,184,39675,2,0,P|115:222|180:204,1,140,4|2,1:0|0:0,0:0:0:0:
337,143,40532,2,0,B|404:148|404:148|438:173,2,105,4|4|4,1:0|1:0|3:0,0:0:0:0:
292,213,41389,2,0,P|259:273|277:339,1,140,4|2,1:0|0:0,0:0:0:0:
113,304,42247,6,0,B|106:225|106:225|89:197|89:197|78:87,1,210,4|4,0:3|0:3,0:0:0:0:
113,23,43104,2,0,P|179:42|208:104,1,140,0|0,1:0|3:0,0:0:0:0:
322,228,43961,2,0,P|371:244|419:226,2,105,4|4|4,0:3|0:3|0:3,0:0:0:0:
370,159,44818,2,0,B|383:66|383:66|365:15,1,140,0|0,1:0|3:0,0:0:0:0:
202,52,45675,6,0,B|106:57|106:57|79:37|79:37|-9:42,1,210,4|4,0:3|0:3,0:0:0:0:
27,121,46532,2,0,P|46:187|22:251,1,140,0|0,1:0|3:0,0:0:0:0:
177,315,47389,2,0,L|281:307,2,105,4|4|4,0:3|0:3|0:3,0:0:0:0:
92,320,48247,1,0,1:0:0:0:
220,212,48675,2,0,L|214:142,1,70,8|4,3:0|3:0,0:0:0:0:
274,82,49104,6,0,P|325:75|372:96,2,105,4|4|4,1:0|1:0|3:0,0:0:0:0:
214,142,49961,2,0,L|63:137,1,140,4|2,1:0|0:0,0:0:0:0:
161,280,50818,2,0,L|265:276,2,105,4|4|4,1:0|1:0|3:0,0:0:0:0:
79,271,51675,2,0,P|60:192|86:116,1,140,4|2,1:0|0:0,0:0:0:0:
217,49,52532,6,0,B|295:37|295:37|339:50,2,105,4|4|4,1:0|1:0|3:0,0:0:0:0:
211,133,53389,2,0,B|113:147|113:147|58:131,1,140,4|2,1:0|0:0,0:0:0:0:
174,270,54247,2,0,P|174:322|156:371,2,105,4|4|4,1:0|1:0|3:0,0:0:0:0:
230,207,55104,2,0,P|228:128|256:55,1,140,4|0,1:0|0:0,0:0:0:0:
411,33,55961,6,0,B|437:137|384:137|411:242,1,210,4|4,1:0|0:3,0:0:0:0:
454,312,56818,1,0,1:0:0:0:
287,333,57247,2,0,B|218:333|218:333|209:297|175:276,1,140,0|4,3:0|0:3,0:0:0:0:
51,165,58104,1,0,3:0:0:0:
171,48,58532,1,0,1:0:0:0:
341,48,58961,1,0,0:0:0:0:
461,165,59389,6,0,L|473:311,1,140,4|0,0:3|3:0,0:0:0:0:
308,344,60247,2,0,L|302:274,2,70,0|0|0,1:0|3:0|3:0,0:0:0:0:
172,244,61104,2,0,P|137:239|104:248,1,70,4|4,0:3|0:3,0:0:0:0:
53,316,61532,2,0,L|63:176,1,140,4|0,0:3|1:0,0:0:0:0:
166,45,62389,1,0,3:0:0:0:
333,53,62818,6,0,B|359:157|306:157|333:262,1,210,4|4,1:1|0:3,0:0:0:0:
346,343,63675,1,0,1:0:0:0:
182,299,64104,2,0,P|115:281|46:288,1,140,0|4,3:0|0:3,0:0:0:0:
54,120,64961,1,0,3:0:0:0:
198,205,65389,1,0,1:0:0:0:
343,120,65818,1,0,0:0:0:0:
486,204,66247,6,0,L|495:60,1,140,4|0,0:3|3:0,0:0:0:0:
329,34,67104,2,0,L|259:29,2,70,0|0|0,1:0|3:0|3:0,0:0:0:0:
214,156,67961,2,0,P|179:163|146:155,1,70,4|4,0:3|0:3,0:0:0:0:
94,89,68389,2,0,P|104:163|87:237,1,140,4|0,0:3|1:0,0:0:0:0:
226,328,69247,6,0,L|295:323,2,70,0|4|0,1:0|3:0|3:0,0:0:0:0:
406,38,71389,6,0,B|393:98|393:98|441:171|441:171|429:231,1,210,4|4,1:0|0:3,0:0:0:0:
409,313,72247,1,0,1:0:0:0:
241,326,72675,2,0,L|79:334,1,140,2|4,0:0|0:3,0:0:0:0:
45,269,73318,2,0,L|37:107,1,140,4|4,0:3|0:3,0:0:0:0:
89,62,73961,2,0,P|191:32|300:64,1,210,0|2,1:0|0:0,0:0:0:0:
341,123,74818,6,0,L|337:192,2,70,4|4|4,1:0|0:3|0:3,0:0:0:0:
441,252,75675,2,0,P|394:301|326:309,1,140,0|2,1:0|0:0,0:0:0:0:
171,246,76532,2,0,L|174:176,2,70,4|4|4,0:3|0:3|0:3,0:0:0:0:
70,116,77389,2,0,P|117:66|185:58,1,140,0|4,1:0|0:3,0:0:0:0:
315,165,78247,6,0,B|342:220|315:276|315:276|342:332|398:304,1,210,4|4,1:0|0:3,0:0:0:0:
465,266,79104,1,0,1:0:0:0:
440,99,79532,2,0,B|430:29|430:29|361:37,1,140,2|4,0:0|0:3,0:0:0:0:
277,50,80175,2,0,B|208:57|208:57|214:127,1,140,4|4,0:3|0:3,0:0:0:0:
179,204,80818,2,0,P|112:188|53:223,1,140,0|2,1:0|0:0,0:0:0:0:
186,326,81675,6,0,L|265:336,2,70,4|4|4,1:0|0:3|0:3,0:0:0:0:
343,266,82532,2,0,B|357:162|357:162|338:132,1,140,0|2,1:0|0:0,0:0:0:0:
204,30,83389,2,0,L|48:54,1,140,0|4,1:0|0:3,0:0:0:0:
25,125,84032,2,0,L|46:263,1,140,0|4,1:0|3:0,0:0:0:0:
112,315,84675,1,4,0:3:0:0:
272,263,85104,6,0,B|317:255|354:282|354:282|416:322|468:279,1,210,4|4,1:0|0:3,0:0:0:0:
411,220,85961,1,0,1:0:0:0:
249,170,86389,2,0,P|194:209|180:276,1,140,2|4,0:0|0:3,0:0:0:0:
162,358,87032,2,0,P|148:290|92:251,1,140,4|4,0:3|0:3,0:0:0:0:
22,205,87675,2,0,P|6:112|99:105,1,210,0|2,1:0|0:0,0:0:0:0:
183,108,88532,6,0,L|252:99,2,70,4|4|4,1:0|0:3|0:3,0:0:0:0:
308,0,89389,2,0,P|357:47|367:116,1,140,0|2,1:0|0:0,0:0:0:0:
329,276,90247,2,0,L|259:284,2,70,4|4|4,0:3|0:3|0:3,0:0:0:0:
204,384,91104,2,0,P|154:336|144:267,1,140,0|4,1:0|0:3,0:0:0:0:
224,120,91961,6,0,B|359:105|359:105|417:157,1,210,4|4,0:3|0:3,0:0:0:0:
459,225,92818,2,0,L|449:371,1,140,0|2,1:0|0:0,0:0:0:0:
284,331,93675,2,0,B|148:345|148:345|91:294,1,210,4|4,0:3|0:3,0:0:0:0:
49,226,94532,2,0,L|59:80,1,140,0|0,1:0|0:0,0:0:0:0:
221,46,95389,6,0,B|268:33|317:46|317:46|349:14|349:14|381:46|381:46|408:57|445:46|445:46|477:78,1,280,8|0,0:3|1:0,0:0:0:0:
478,232,96675,1,2,0:0:0:0:
332,151,97104,6,0,P|265:131|198:149,1,140,0|4,1:0|0:3,0:0:0:0:
198,234,97747,2,0,P|265:252|332:233,1,140,0|4,1:0|0:3,0:0:0:0:
406,192,98389,1,8,0:3:0:0:
372,27,98818,6,0,L|141:47,1,210,4|4,1:0|0:3,0:0:0:0:
98,100,99675,2,0,P|53:146|-1:111,1,140,0|0,1:0|0:0,0:0:0:0:
108,237,100532,2,0,B|215:229|215:229|246:247,1,140,4|0,0:3|0:0,0:0:0:0:
376,347,101389,2,0,B|269:355|269:355|238:337,1,140,0|2,1:0|0:0,0:0:0:0:
108,237,102247,5,4,0:3:0:0:
150,74,102675,1,4,0:3:0:0:
292,163,103104,2,0,P|355:188|418:162,1,140,0|2,1:0|0:0,0:0:0:0:
318,29,103961,2,0,P|272:12|220:25,2,105,4|4|4,1:0|0:3|0:3,0:0:0:0:
354,106,104818,2,0,L|341:248,1,140,0|4,1:0|0:3,0:0:0:0:
170,245,105675,6,0,B|158:111|158:111|141:72|105:61,1,210,4|4,1:0|0:3,0:0:0:0:
77,141,106532,2,0,L|86:280,1,140,0|2,1:0|0:0,0:0:0:0:
244,338,107389,2,0,B|356:345|356:345|397:322,1,140,4|0,0:3|0:0,0:0:0:0:
443,175,108247,2,0,B|330:167|330:167|306:181,1,140,0|2,1:0|0:0,0:0:0:0:
244,338,109104,5,4,0:3:0:0:
200,176,109532,1,4,0:3:0:0:
96,308,109961,1,0,1:0:0:0:
52,146,110389,1,2,0:0:0:0:
188,47,110818,2,0,B|297:52|297:52|312:92,1,140,0|4,1:0|0:3,0:0:0:0:
323,163,111461,2,0,B|333:191|333:191|442:196,1,140,0|4,1:0|0:3,0:0:0:0:
498,133,112104,1,4,3:3:0:0:
482,300,112532,6,0,L|266:289,1,210,4|4,1:0|0:3,0:0:0:0:
204,339,113389,2,0,P|186:290|202:241,1,105,0|2,1:0|0:0,0:0:0:0:
229,32,114247,2,0,B|336:24|336:24|367:42,1,140,4|0,1:0|0:0,0:0:0:0:
497,142,115104,2,0,B|390:150|390:150|359:132,1,140,0|2,1:0|0:0,0:0:0:0:
229,32,115961,5,4,1:0:0:0:
79,107,116389,1,4,0:3:0:0:
224,192,116818,1,0,1:0:0:0:
74,267,117246,1,2,0:0:0:0:
229,352,117675,2,0,L|363:344,2,105,4|4|4,1:0|0:3|0:3,0:0:0:0:
167,292,118532,2,0,L|175:152,1,140,0|4,1:0|0:3,0:0:0:0:
274,16,119389,6,0,B|268:101|268:101|301:140|301:140|296:212,1,210,4|4,0:3|0:3,0:0:0:0:
281,296,120247,2,0,P|223:328|167:292,1,140,0|2,1:0|0:0,0:0:0:0:
50,171,121104,2,0,L|58:310,2,140,4|0|0,0:3|3:0|1:0,0:0:0:0:
149,35,122389,1,2,0:0:0:0:
298,106,122818,6,0,B|344:129|387:124|387:124|409:112|431:107,1,140,4|4,1:0|0:3,0:0:0:0:
431,276,123675,2,0,B|408:271|386:258|386:258|343:254|297:277,1,140,0|2,1:0|0:0,0:0:0:0:
140,338,124532,2,0,B|128:255|128:255|75:234,1,140,0|4,1:0|0:3,0:0:0:0:
45,155,125175,2,0,B|56:72|56:72|109:51,1,140,0|4,1:0|0:3,0:0:0:0:
192,36,125818,1,4,3:0:0:0:
256,192,126247,5,4,3:1:0:0:
256,192,126354,12,0,131389,0:0:0:0:
