osu file format v14

[General]
AudioFilename: audio.mp3
AudioLeadIn: 0
PreviewTime: 70532
Countdown: 0
SampleSet: Soft
StackLeniency: 0.7
Mode: 0
LetterboxInBreaks: 0
EpilepsyWarning: 1
WidescreenStoryboard: 1

[Editor]
Bookmarks: 52854
DistanceSpacing: 1
BeatDivisor: 12
GridSize: 4
TimelineZoom: 1.9

[Metadata]
Title:Infinite
TitleUnicode:Infinite
Artist:Tyler Smyth and Andy Bane (Dangerkids)
ArtistUnicode:Tyler Smyth and Andy Bane (Dangerkids)
Creator:Voli
Version:Infinity
Source:Sonic Forces
Tags:seni sonic vocal traxx on the edge sega jun senoue Tomoya Ohtani
BeatmapID:1405119
BeatmapSetID:663863

[Difficulty]
HPDrainRate:5
CircleSize:4
OverallDifficulty:8
ApproachRate:9.2
SliderMultiplier:2.4
SliderTickRate:1

[Events]
//Background and Video events
0,0,"infinite.png",0,0
//Break Periods
//Storyboard Layer 0 (Background)
//Storyboard Layer 1 (Fail)
//Storyboard Layer 2 (Pass)
//Storyboard Layer 3 (Foreground)
//Storyboard Sound Samples

[TimingPoints]
1104.24795253083,428.571428571429,4,2,1,50,1,0
14389,-133.333333333333,4,2,1,50,0,0
14711,-133.333333333333,4,2,1,5,0,0
14818,-80,4,2,1,80,0,0
21247,-50,4,2,1,80,0,0
21568,-50,4,2,1,5,0,0
21675,-80,4,2,1,80,0,0
26818,-57.1428571428571,4,2,1,80,0,0
27139,-80,4,2,1,80,0,0
28532,-100,4,2,1,60,0,0
31104,-66.6666666666667,4,2,1,60,0,0
31318,-100,4,2,1,60,0,0
32818,-66.6666666666667,4,2,1,60,0,0
33247,-100,4,2,1,60,0,0
34532,-66.6666666666667,4,2,1,60,0,0
35389,-50,4,2,1,80,0,1
38282,-66.6666666666667,4,2,1,80,0,1
38711,-66.6666666666667,4,2,1,80,0,0
38818,-50,4,2,1,80,0,1
42247,-100,4,2,1,60,0,0
44818,-66.6666666666667,4,2,1,60,0,0
45032,-100,4,2,1,60,0,0
48247,-66.6666666666667,4,2,1,60,0,0
49104,-50,4,2,1,80,0,1
50389,-66.6666666666667,4,2,1,80,0,1
50818,-50,4,2,1,80,0,1
52425,-50,4,2,1,80,0,0
52532,-50,4,2,1,80,0,1
55961,-80,4,2,1,80,0,0
56175,-80,4,2,1,70,0,0
56818,-66.6666666666667,4,2,1,70,0,0
57675,-80,4,2,1,70,0,0
58532,-66.6666666666667,4,2,1,70,0,0
59711,-80,4,2,1,70,0,0
60247,-66.6666666666667,4,2,1,70,0,0
62389,-80,4,2,1,70,0,0
62818,-66.6666666666667,4,2,1,70,0,0
63247,-80,4,2,1,70,0,0
65389,-66.6666666666667,4,2,1,70,0,0
66675,-80,4,2,1,70,0,0
67104,-66.6666666666667,4,2,1,70,0,0
70747,-200,4,2,1,70,0,0
71389,-80,4,2,1,80,0,0
72247,-66.6666666666667,4,2,1,80,0,0
72568,-66.6666666666667,4,2,1,5,0,0
72675,-80,4,2,1,80,0,0
73961,-66.6666666666667,4,2,1,80,0,0
75997,-66.6666666666667,4,2,1,5,0,0
76104,-80,4,2,1,80,0,0
79104,-66.6666666666667,4,2,1,80,0,0
79425,-66.6666666666667,4,2,1,5,0,0
79532,-80,4,2,1,80,0,0
79854,-80,4,2,1,5,0,0
79961,-80,4,2,1,80,0,0
80818,-57.1428571428571,4,2,1,80,0,0
81139,-57.1428571428571,4,2,1,5,0,0
81247,-80,4,2,1,80,0,0
81568,-80,4,2,1,5,0,0
81675,-80,4,2,1,80,0,0
82532,-66.6666666666667,4,2,1,80,0,0
82854,-66.6666666666667,4,2,1,5,0,0
82961,-80,4,2,1,80,0,0
85961,-66.6666666666667,4,2,1,80,0,0
86282,-66.6666666666667,4,2,1,5,0,0
86389,-80,4,2,1,80,0,0
87675,-66.6666666666667,4,2,1,80,0,0
89711,-66.6666666666667,4,2,1,5,0,0
89818,-80,4,2,1,80,0,0
91961,-66.6666666666667,4,2,1,80,0,0
92068,-66.6666666666667,4,2,1,5,0,0
92175,-66.6666666666667,4,2,1,80,0,0
92282,-66.6666666666667,4,2,1,5,0,0
92389,-66.6666666666667,4,2,1,80,0,0
92497,-66.6666666666667,4,2,1,5,0,0
92604,-66.6666666666667,4,2,1,80,0,0
92711,-66.6666666666667,4,2,1,5,0,0
92818,-66.6666666666667,4,2,1,80,0,0
93139,-66.6666666666667,4,2,1,5,0,0
93247,-80,4,2,1,80,0,0
93675,-66.6666666666667,4,2,1,80,0,0
93782,-66.6666666666667,4,2,1,5,0,0
93889,-66.6666666666667,4,2,1,80,0,0
93997,-66.6666666666667,4,2,1,5,0,0
94104,-66.6666666666667,4,2,1,80,0,0
94211,-66.6666666666667,4,2,1,5,0,0
94318,-66.6666666666667,4,2,1,80,0,0
94425,-66.6666666666667,4,2,1,5,0,0
94532,-66.6666666666667,4,2,1,80,0,0
95389,-57.1428571428571,4,2,1,80,0,0
95497,-57.1428571428571,4,2,1,5,0,0
95604,-57.1428571428571,4,2,1,80,0,0
95711,-57.1428571428571,4,2,1,5,0,0
95818,-57.1428571428571,4,2,1,80,0,0
95925,-57.1428571428571,4,2,1,5,0,0
96032,-57.1428571428571,4,2,1,80,0,0
96139,-57.1428571428571,4,2,1,5,0,0
96246,-57.1428571428571,4,2,1,80,0,0
96568,-57.1428571428571,4,2,1,5,0,0
96675,-57.1428571428571,4,2,1,80,0,0
97104,-80,4,2,1,80,0,0
98818,-80,4,2,1,87,0,1
112425,-80,4,2,1,87,0,0
112532,-80,4,2,1,87,0,1
126247,-80,4,2,1,80,0,0
131389,-80,4,2,1,15,0,0

[Colours]
Combo1 : 192,192,192
Combo2 : 166,0,0
Combo3 : 96,96,96
Combo4 : 242,24,57
SliderBorder : 242,24,57

[HitObjects]
55,68,1104,6,0,L|173:51,1,120,4|0,1:3|3:0,0:0:0:0:
336,118,1532,1,0,3:0:0:0:
320,116,1639,1,0,3:0:0:0:
303,114,1747,1,4,0:3:0:0:
444,325,1961,2,0,B|438:257|438:257|450:223|450:223|445:138,1,180,8|0,0:0|3:0,0:0:0:0:
462,45,2389,2,0,P|479:100|445:147,1,120,4|0,0:3|3:0,0:0:0:0:
184,233,2818,6,0,L|302:250,1,120,4|0,0:3|3:0,0:0:0:0:
66,216,3139,2,0,L|184:233,1,120,4|0,0:3|3:0,0:0:0:0:
302,250,3461,1,4,0:3:0:0:
75,125,3675,1,8,0:0:0:0:
190,291,3889,6,0,P|192:261|185:233,1,60,2|0,3:2|3:0,0:0:0:0:
256,97,4104,2,0,P|248:125|250:155,1,60,2|0,3:2|0:0,0:0:0:0:
302,250,4318,2,0,L|339:245,3,30,0|0|0|0,3:0|3:0|3:0|3:0,3:0:0:0:
259,345,4532,6,0,B|348:330|348:330|373:345,1,120,4|0,1:3|3:0,0:0:0:0:
484,194,4961,1,0,3:0:0:0:
482,209,5068,1,0,3:0:0:0:
481,225,5175,1,4,0:3:0:0:
297,140,5389,2,0,B|280:7|280:7|316:46,1,180,8|0,0:0|0:0,0:0:0:0:
297,140,5818,2,0,P|250:176|192:172,1,120,0|0,3:0|3:0,0:0:0:0:
52,25,6247,6,0,L|41:150,1,120,4|0,0:3|3:0,0:0:0:0:
31,264,6568,2,0,L|41:144,1,120,4|0,0:3|3:0,0:0:0:0:
52,25,6889,1,4,0:3:0:0:
118,297,7104,1,8,0:0:0:0:
222,143,7318,6,0,L|217:83,1,60,2|0,3:2|3:0,0:0:0:0:
122,237,7532,2,0,L|117:296,1,60,2|0,3:2|0:0,0:0:0:0:
267,325,7747,2,0,L|264:295,3,30,0|0|0|0,3:0|3:0|3:0|3:0,3:0:0:0:
352,339,7961,6,0,B|343:242|343:242|357:261,1,120,4|0,1:3|0:0,0:0:0:0:
464,102,8389,1,0,3:0:0:0:
462,117,8497,1,0,3:0:0:0:
461,133,8604,1,4,0:3:0:0:
298,21,8818,2,0,B|344:11|344:11|429:31|429:31|449:22|473:25,1,180,8|0,0:0|0:0,0:0:0:0:
383,101,9247,2,0,B|344:92|344:92|265:107,1,120,0|0,3:0|3:0,0:0:0:0:
99,248,9675,6,0,P|156:231|216:239,1,120,4|0,0:3|0:3,0:0:0:0:
331,230,9997,2,0,P|273:246|213:238,1,120,4|0,0:3|0:3,0:0:0:0:
99,248,10318,1,4,0:3:0:0:
265,106,10532,1,8,0:0:0:0:
331,230,10747,6,0,L|329:289,1,60,2|0,3:2|3:0,0:0:0:0:
432,140,10961,1,2,3:2:0:0:
265,106,11175,1,2,3:2:0:0:
164,350,11389,6,0,B|138:266|138:266|150:236,1,120,4|0,1:3|0:0,0:0:0:0:
361,236,11818,2,0,B|374:266|374:266|348:350,1,120,2|4,0:0|0:3,0:0:0:0:
150,147,12247,2,0,B|138:118|138:118|164:34,1,120,2|0,0:0|0:0,0:0:0:0:
348,34,12675,2,0,B|374:118|374:118|361:147,1,120,2|0,0:0|0:0,0:0:0:0:
256,314,13104,5,2,3:2:0:0:
211,254,13247,1,0,3:0:0:0:
286,245,13389,1,0,3:0:0:0:
361,236,13532,1,0,3:0:0:0:
436,227,13675,1,0,3:0:0:0:
384,160,13818,5,0,3:0:0:0:
384,160,13889,1,0,3:0:0:0:
384,160,13961,1,2,3:2:0:0:
361,236,14104,1,0,3:0:0:0:
338,312,14247,1,0,3:0:0:0:
211,254,14389,6,0,B|205:228|205:228|220:211|220:211|215:188|215:188|231:170|231:170|228:147|228:147|243:130,1,135.000005149841,10|0,3:0|0:0,0:0:0:0:
69,27,14818,6,0,L|79:105,1,75,4|0,0:3|0:0,0:0:0:0:
24,241,15032,1,0,3:0:0:0:
24,241,15139,2,0,L|14:166,1,75,4|0,0:3|0:0,0:0:0:0:
174,73,15353,1,0,3:0:0:0:
174,73,15461,2,0,L|165:147,1,75,4|0,0:3|0:0,0:0:0:0:
303,216,15675,6,0,P|337:229|374:224,1,75,0|0,1:0|0:0,0:0:0:0:
488,86,15889,2,0,P|454:101|431:130,1,75,0|0,3:0|3:0,0:0:0:0:
489,269,16104,2,0,L|492:232,6,37.5,0|0|0|0|0|0|0,3:0|3:0|3:0|3:0|3:0|3:0|3:0,3:0:0:0:
404,311,16532,6,0,B|314:317|314:317|281:344|281:344|178:350,1,225,4|4,0:3|0:3,0:0:0:0:
80,293,16961,2,0,P|78:255|67:219,1,75,0|0,3:0|3:0,0:0:0:0:
102,142,17175,1,4,0:3:0:0:
102,142,17282,1,4,0:3:0:0:
214,111,17389,6,0,L|310:118,1,75,0|0,1:0|3:0,0:0:0:0:
424,30,17604,2,0,L|328:37,1,75,0|0,3:0|3:0,0:0:0:0:
426,153,17818,2,0,L|463:155,6,37.5,0|0|0|0|2|2|2,3:0|3:0|3:0|3:0|3:2|3:2|3:2,3:0:0:0:
257,271,18247,6,0,B|369:311|360:211|472:252,1,225,4|0,0:3|0:0,0:0:0:0:
432,342,18675,1,2,3:2:0:0:
432,342,18782,1,2,3:2:0:0:
432,342,18889,1,4,0:3:0:0:
311,106,19104,6,0,L|306:181,1,75,2|0,1:2|0:0,0:0:0:0:
200,106,19318,2,0,L|206:181,1,75,2|0,0:0|0:0,0:0:0:0:
351,42,19532,2,0,L|310:106,1,75,2|0,3:2|0:0,0:0:0:0:
160,42,19747,2,0,L|200:106,1,75,2|0,3:2|0:0,0:0:0:0:
109,240,19961,6,0,B|105:135|105:135|61:64|61:64|75:142,1,225,4|4,0:3|0:3,0:0:0:0:
4,195,20389,2,0,B|0:269,1,75,0|0,3:0|3:0,0:0:0:0:
64,327,20604,1,4,0:3:0:0:
64,327,20711,1,4,0:3:0:0:
168,347,20818,6,0,P|204:339|234:317,1,75,0|0,1:0|3:0,0:0:0:0:
323,355,21032,2,0,P|330:319|324:283,1,75,0|0,3:0|3:0,0:0:0:0:
302,117,21247,6,2,B|352:160|352:160|259:211|259:211|257:112|231:25,1,360,2|0,0:1|0:0,0:1:0:0:
69,27,21675,6,0,L|79:105,1,75,4|0,0:3|0:0,0:0:0:0:
24,239,21889,1,0,3:0:0:0:
24,239,21996,2,0,L|14:164,1,75,4|0,0:3|0:0,0:0:0:0:
174,83,22210,1,0,3:0:0:0:
174,83,22318,2,0,L|165:157,1,75,4|0,0:3|0:0,0:0:0:0:
290,265,22532,6,0,B|240:267|240:267|222:248,1,75,0|0,1:0|3:0,0:0:0:0:
362,173,22747,2,0,B|412:171|412:171|429:189,1,75,0|0,3:0|3:0,0:0:0:0:
374,338,22961,2,0,L|336:336,6,37.5,0|0|0|0|0|0|0,3:0|3:0|3:0|3:0|3:0|3:0|3:0,3:0:0:0:
222,249,23389,6,0,B|45:241|45:241|11:276,1,225,4|4,0:3|0:3,0:0:0:0:
90,147,23818,2,0,L|164:149,1,75,0|0,3:0|3:0,0:0:0:0:
226,86,24032,1,4,0:3:0:0:
226,86,24139,1,4,0:3:0:0:
367,31,24247,6,0,P|403:26|439:38,1,75,0|0,1:0|3:0,0:0:0:0:
285,128,24461,2,0,P|250:112|226:85,1,75,0|0,3:0|3:0,0:0:0:0:
396,110,24675,2,0,L|404:154,6,37.5,0|0|0|0|2|2|2,3:0|3:0|3:0|3:0|3:2|3:2|3:2,3:0:0:0:
499,183,25104,6,0,B|478:342|478:342|458:280,1,225,4|4,0:3|0:3,0:0:0:0:
356,245,25532,1,2,3:1:0:0:
367,31,25747,1,4,0:3:0:0:
136,130,25961,6,0,L|45:121,1,75,2|0,1:2|0:0,0:0:0:0:
136,254,26175,2,0,L|61:261,1,75,2|4,0:0|0:3,0:0:0:0:
204,99,26389,2,0,L|135:129,1,75,2|0,0:0|0:0,0:0:0:0:
204,285,26604,2,0,L|135:254,1,75,4|0,0:3|0:0,0:0:0:0:
157,37,26818,6,0,B|201:-16|341:29|297:169|219:178|219:178|259:199,1,315.000003004074,4|4,0:3|0:3,0:0:0:0:
204,99,27247,1,2,3:1:0:0:
434,44,27461,1,4,0:3:0:0:
345,254,27675,6,0,P|334:289|331:327,1,75,0|0,1:0|3:0,0:0:0:0:
180,327,27889,2,0,P|177:289|167:254,1,75,4|0,0:3|3:0,0:0:0:0:
59,142,28104,5,0,1:0:0:0:
59,142,28211,1,0,1:0:0:0:
73,92,28318,5,4,3:0:0:0:
73,92,28425,1,4,3:0:0:0:
87,42,28532,5,4,3:2:0:0:
256,192,28747,1,0,0:0:0:0:
177,40,28961,1,0,3:0:0:0:
177,40,29068,1,0,3:0:0:0:
177,40,29175,1,4,0:3:0:0:
204,268,29389,1,0,1:0:0:0:
275,84,29604,1,0,3:0:0:0:
275,84,29711,1,0,3:0:0:0:
275,84,29818,2,0,L|317:95,6,30,0|0|0|0|0|0|0,3:0|3:0|3:0|3:0|3:0|3:0|3:0,3:0:0:0:
369,43,30247,6,0,P|386:98|363:152,1,120,4|0,0:3|0:0,0:0:0:0:
369,262,30568,2,0,P|345:208|363:152,1,120,4|0,0:3|0:0,0:0:0:0:
430,204,30889,1,4,0:3:0:0:
430,204,30997,1,4,0:3:0:0:
369,262,31104,6,0,B|227:252|227:252|264:214,1,180.000006866455,0|0,1:0|0:0,0:0:0:0:
214,132,31532,2,0,P|199:133|185:139,6,30,0|0|0|0|0|0|0,3:0|3:0|3:0|3:0|3:0|3:0|3:0,3:0:0:0:
141,211,31961,2,0,L|132:92,1,120,4|0,0:3|0:0,0:0:0:0:
33,56,32282,1,0,3:0:0:0:
33,56,32389,2,0,L|28:115,1,60,0|0,3:0|3:0,0:0:0:0:
132,92,32604,2,0,L|136:32,1,60,4|0,0:3|0:0,0:0:0:0:
297,109,32818,6,0,P|228:131|131:91,1,180.000006866455,0|0,1:0|0:0,0:0:0:0:
329,37,33247,2,0,L|367:45,6,30,0|0|0|0|0|0|0,3:0|3:0|3:0|3:0|3:0|3:0|3:0,3:0:0:0:
297,109,33675,6,0,L|414:84,1,120,4|0,0:3|0:0,0:0:0:0:
486,181,33997,1,4,0:3:0:0:
486,181,34104,2,0,L|427:168,1,60,0|0,3:0|3:0,0:0:0:0:
359,209,34318,1,4,0:3:0:0:
359,209,34425,1,4,0:3:0:0:
335,284,34532,2,0,L|296:108,1,180.000006866455,0|4,1:0|0:3,0:0:0:0:
137,296,34961,5,8,3:0:0:0:
83,235,35068,1,8,3:0:0:0:
83,149,35175,1,4,3:0:0:0:
137,88,35282,1,4,3:0:0:0:
362,58,35389,6,0,P|253:105|136:87,1,240,4|0,1:0|0:0,0:0:0:0:
316,226,35711,2,0,P|205:182|135:86,1,240,4|0,1:0|0:0,0:0:0:0:
253,352,36032,1,4,3:0:0:0:
253,352,36139,1,4,3:0:0:0:
165,313,36247,2,0,P|117:203|136:86,1,240,4|0,1:0|0:0,0:0:0:0:
362,58,36675,1,2,0:0:0:0:
135,87,36889,1,0,0:0:0:0:
375,200,37104,6,0,B|532:212|532:212|496:137,1,240,4|0,1:0|0:0,0:0:0:0:
375,200,37425,2,0,B|363:357|363:357|437:321,1,240,4|0,1:0|0:0,0:0:0:0:
424,131,37747,1,4,3:0:0:0:
424,131,37854,1,4,3:0:0:0:
375,200,37961,2,0,B|218:188|218:188|253:262,1,240,4|0,1:0|0:0,0:0:0:0:
116,236,38281,1,2,0:0:0:0:
116,236,38389,2,0,L|78:154,1,90.0000034332277,2|0,0:0|0:0,0:0:0:0:
206,20,38604,2,0,L|168:101,1,90.0000034332277,2|0,0:0|0:0,0:0:0:0:
60,358,38818,6,0,P|176:351|253:262,1,240,4|0,1:0|3:0,0:0:0:0:
447,169,39139,2,0,P|330:175|253:264,1,240,4|0,1:0|0:0,0:0:0:0:
465,256,39461,1,4,3:0:0:0:
465,256,39568,1,4,3:0:0:0:
447,169,39675,2,0,B|425:5|425:5|384:69,1,240,4|0,1:0|0:0,0:0:0:0:
253,262,40104,1,2,0:0:0:0:
512,63,40318,1,2,0:0:0:0:
213,182,40532,6,0,P|166:284|265:352,1,240,4|0,1:0|0:0,0:0:0:0:
445,221,40854,2,0,B|393:191|393:191|177:180,1,240,4|0,1:0|0:0,0:0:0:0:
42,124,41175,1,4,3:0:0:0:
42,124,41282,1,4,3:0:0:0:
120,71,41389,2,0,B|299:61|299:61|351:31,1,240,4|0,1:0|0:0,0:0:0:0:
213,181,41818,1,2,0:0:0:0:
39,29,42032,1,0,3:0:0:0:
314,146,42247,6,0,P|318:205|290:257,1,120,4|0,0:3|0:0,0:0:0:0:
213,181,42568,1,0,3:0:0:0:
213,181,42675,2,0,L|153:188,1,60,0|0,3:0|3:0,0:0:0:0:
74,144,42889,1,4,0:3:0:0:
226,347,43104,1,0,1:0:0:0:
79,233,43318,1,0,3:0:0:0:
79,233,43425,1,0,3:0:0:0:
79,233,43532,2,0,L|49:231,6,30,0|0|0|0|0|0|0,3:0|3:0|3:0|3:0|3:0|3:0|3:0,3:0:0:0:
153,188,43961,6,0,P|186:109|133:41,1,180,4|4,0:3|0:3,0:0:0:0:
104,120,44389,1,2,0:0:0:0:
282,48,44604,1,4,0:3:0:0:
282,48,44711,1,4,0:3:0:0:
307,124,44818,6,0,B|443:143|443:143|474:114,1,180.000006866455,0|2,1:0|0:0,0:0:0:0:
247,190,45247,2,0,P|238:210|238:227,6,30,0|0|0|0|0|0|0,3:0|3:0|3:0|3:0|3:0|3:0|3:0,3:0:0:0:
304,278,45675,6,0,P|252:306|191:296,1,120,4|0,0:3|0:0,0:0:0:0:
105,208,45997,1,0,3:0:0:0:
105,208,46104,2,0,L|111:282,1,60,0|0,3:0|3:0,0:0:0:0:
39,333,46318,1,4,0:3:0:0:
87,67,46532,1,0,1:0:0:0:
192,178,46747,1,0,3:0:0:0:
192,178,46854,1,0,3:0:0:0:
192,178,46961,2,0,L|194:207,6,30,0|0|0|0|0|0|0,3:0|3:0|3:0|3:0|3:0|3:0|3:0,3:0:0:0:
288,62,47389,6,0,B|282:132|282:132|302:164|302:164|296:235,1,180,4|4,0:3|0:3,0:0:0:0:
224,298,47818,1,0,3:0:0:0:
403,201,48032,1,4,0:3:0:0:
403,201,48139,1,4,0:3:0:0:
378,284,48247,6,0,P|304:330|224:298,1,180.000006866455,0|2,1:0|0:0,0:0:0:0:
148,119,48675,5,8,3:0:0:0:
213,61,48782,1,8,3:0:0:0:
299,61,48889,1,4,3:0:0:0:
364,119,48997,1,8,3:0:0:0:
186,208,49104,6,0,P|76:186|63:75,1,240,4|0,1:0|0:0,0:0:0:0:
270,296,49425,2,0,B|65:320|65:320|86:282,1,240,4|0,1:0|0:0,0:0:0:0:
148,119,49747,1,4,3:0:0:0:
148,119,49854,1,4,3:0:0:0:
239,132,49961,2,0,B|443:161|443:161|419:186,1,240,4|0,1:0|0:0,0:0:0:0:
484,297,50282,5,2,0:0:0:0:
484,297,50389,2,0,P|448:322|404:321,1,90.0000034332277,2|0,0:0|0:0,0:0:0:0:
235,247,50604,2,0,P|279:243|317:267,1,90.0000034332277,2|0,0:0|0:0,0:0:0:0:
84,342,50818,6,0,B|72:254|72:254|95:204|95:204|83:108,1,240,4|0,1:0|0:0,0:0:0:0:
208,90,51139,2,0,P|134:17|83:107,1,240,4|0,1:0|0:0,3:0:0:0:
256,168,51461,1,4,3:0:0:0:
256,168,51568,1,4,3:0:0:0:
304,90,51675,2,0,P|377:17|428:107,1,240,4|0,1:0|0:0,3:0:0:0:
83,107,52104,1,2,0:0:0:0:
304,90,52318,1,2,0:0:0:0:
55,266,52532,6,0,B|78:247|78:247|253:263|253:263|275:289,1,240,4|0,1:0|0:0,0:0:0:0:
495,310,52854,2,0,B|471:330|471:330|296:314|296:314|274:288,1,240,4|0,1:0|0:0,0:0:0:0:
345,78,53175,1,4,3:0:0:0:
345,78,53282,1,4,3:0:0:0:
259,111,53389,2,0,P|199:204|273:288,1,240,4|0,1:0|0:0,0:0:0:0:
93,63,53818,1,2,0:0:0:0:
291,198,54032,1,2,0:0:0:0:
51,201,54247,6,0,B|12:117|73:19|73:19|79:45|93:63,1,240,4|0,1:0|0:0,0:0:0:0:
177,181,54568,2,0,B|208:94|321:68|321:68|303:93|304:113,1,240,4|0,1:0|0:0,0:0:0:0:
389,232,54889,1,4,3:0:0:0:
389,232,54997,1,4,3:0:0:0:
351,315,55104,2,0,B|156:298|156:298|121:270,1,240,4|0,1:0|0:0,0:0:0:0:
303,113,55532,1,2,0:0:0:0:
91,61,55747,1,2,0:0:0:0:
315,208,55961,6,0,P|379:172|398:101,1,150,4|0,1:0|3:0,0:0:0:0:
343,22,56282,1,0,3:0:0:0:
343,22,56389,2,0,L|264:18,1,75,0|0,3:0|3:0,0:0:0:0:
428,22,56604,1,4,0:3:0:0:
140,156,56818,6,0,B|170:120|170:120|303:113,1,180.000006866455,0|4,1:0|0:3,0:0:0:0:
108,32,57247,1,0,3:0:0:0:
108,32,57354,1,4,0:3:0:0:
315,208,57568,1,4,0:3:0:0:
315,208,57675,6,0,B|342:246|287:332|201:277|209:224|209:224|239:242,1,225,4|0,0:3|3:0,0:0:0:0:
166,319,58104,2,0,P|193:344|228:357,1,75,0|0,3:0|3:0,0:0:0:0:
320,354,58318,1,4,0:3:0:0:
79,204,58532,6,0,B|83:127|83:127|104:106|104:106|109:32,1,180.000006866455,0|4,1:0|0:3,0:0:0:0:
107,169,58854,2,0,B|101:242|101:242|81:264|81:264|76:340,1,180.000006866455,0|4,1:0|0:3,0:0:0:0:
137,141,59175,2,0,P|155:137|181:143,3,45.0000017166138,0|0|0|0,1:0|3:0|3:0|3:0,3:0:0:0:
207,183,59389,6,0,P|289:208|353:152,1,180.000006866455,4|0,0:3|3:0,0:0:0:0:
271,121,59711,1,0,3:0:0:0:
271,121,59818,2,0,P|296:89|299:51,1,75,0|0,3:0|3:0,0:0:0:0:
215,51,60032,1,4,0:3:0:0:
461,35,60247,6,0,B|469:171|469:171|451:222,1,180.000006866455,0|0,1:0|3:0,0:0:0:0:
391,257,60568,1,0,3:0:0:0:
391,257,60675,2,0,B|409:308,6,45.0000017166138,0|0|0|0|0|0|0,3:0|3:0|3:0|3:0|3:0|3:0|3:0,3:0:0:0:
309,321,61104,5,4,0:3:0:0:
309,321,61211,1,4,0:3:0:0:
309,321,61318,2,0,L|207:315,1,90.0000034332277,4|0,0:3|0:0,0:0:0:0:
66,176,61532,1,4,0:3:0:0:
66,176,61639,1,4,0:3:0:0:
66,176,61746,2,0,L|168:170,1,90.0000034332277,4|0,0:3|0:0,0:0:0:0:
389,18,61961,5,0,1:0:0:0:
102,66,62175,1,4,0:3:0:0:
314,106,62389,2,0,P|317:87|312:70,6,37.5,0|0|0|0|0|0|0,3:0|3:0|3:0|3:0|3:0|3:0|3:0,3:0:0:0:
385,282,62818,6,0,B|353:154|441:154|385:10,1,270.000010299683,4|0,1:1|3:0,0:0:0:0:
491,83,63247,2,0,P|494:118|484:159,1,75,0|0,3:0|3:0,0:0:0:0:
466,0,63461,1,4,0:3:0:0:
200,202,63675,1,0,1:0:0:0:
259,0,63889,1,4,0:3:0:0:
267,260,64104,1,0,3:0:0:0:
267,260,64211,1,4,0:3:0:0:
190,42,64425,1,4,0:3:0:0:
190,42,64532,6,0,B|26:57|26:57|86:103,1,225,4|0,0:3|3:0,0:0:0:0:
136,155,64961,1,0,3:0:0:0:
350,29,65175,1,4,0:3:0:0:
50,189,65389,6,0,P|112:247|196:225,1,180.000006866455,0|4,1:0|0:3,0:0:0:0:
282,192,65711,2,0,P|219:133|135:155,1,180.000006866455,0|4,1:0|0:3,0:0:0:0:
280,274,66032,2,0,P|302:273|322:264,3,45.0000017166138,0|0|0|0,1:0|3:0|3:0|3:0,3:0:0:0:
379,190,66247,6,0,B|368:318|368:318|419:255,1,180.000006866455,4|0,0:3|3:0,0:0:0:0:
449,174,66568,1,0,3:0:0:0:
449,174,66675,2,0,P|411:173|378:190,1,75,0|0,3:0|3:0,0:0:0:0:
473,256,66889,1,4,0:3:0:0:
280,15,67104,6,0,B|288:87|288:87|274:117|274:117|282:192,1,180.000006866455,0|0,1:0|3:0,0:0:0:0:
190,161,67425,1,0,3:0:0:0:
190,161,67532,2,0,P|154:167|134:177,6,45.0000017166138,0|0|0|0|0|0|0,3:0|3:0|3:0|3:0|3:0|3:0|3:0,3:0:0:0:
175,52,67961,5,4,0:3:0:0:
175,52,68068,1,4,0:3:0:0:
175,52,68175,2,0,L|83:40,1,90.0000034332277,4|0,0:3|0:0,0:0:0:0:
280,15,68389,1,4,0:3:0:0:
280,15,68496,1,4,0:3:0:0:
280,15,68603,2,0,L|369:3,1,90.0000034332277,4|0,0:3|0:0,0:0:0:0:
403,199,68818,5,0,1:0:0:0:
328,208,68925,1,0,3:0:0:0:
255,192,69032,1,4,0:3:0:0:
180,183,69139,1,0,3:0:0:0:
107,200,69246,5,0,1:0:0:0:
107,200,69354,1,0,1:0:0:0:
96,251,69461,5,4,3:0:0:0:
96,251,69569,1,4,3:0:0:0:
85,302,69675,5,0,3:0:0:0:
343,272,70747,38,0,P|372:266|397:249,2,60
72,96,71389,5,4,1:0:0:0:
406,118,71604,1,4,0:3:0:0:
178,6,71818,1,4,0:3:0:0:
343,272,72032,1,4,0:3:0:0:
89,232,72247,6,0,B|71:149|71:149|84:61|84:61|23:95|29:149,1,270.000010299683,0|0,1:0|0:0,0:0:0:0:
24,284,72675,2,0,P|87:318|153:288,1,150,2|0,0:0|0:0,0:0:0:0:
304,50,73104,5,4,0:3:0:0:
253,345,73318,1,4,0:3:0:0:
406,118,73532,1,4,0:3:0:0:
90,235,73747,1,4,0:3:0:0:
425,38,73961,6,0,B|498:37|557:182|413:242|352:184|352:184|363:209|365:236,1,360.000013732911,0|0,1:0|0:0,0:0:0:0:
406,118,74604,1,2,0:0:0:0:
253,345,74818,5,4,1:0:0:0:
304,50,75032,1,4,0:3:0:0:
387,319,75247,1,4,0:3:0:0:
385,28,75461,1,4,0:3:0:0:
178,231,75675,6,0,P|97:160|204:149,1,270.000010299683,0|0,1:0|0:0,0:0:0:0:
20,166,76104,2,0,P|43:96|104:54,1,150,2|0,0:0|0:0,0:0:0:0:
385,28,76532,1,4,0:3:0:0:
104,54,76747,1,4,0:3:0:0:
474,145,76961,1,4,0:3:0:0:
242,4,77175,1,4,0:3:0:0:
349,250,77389,5,0,1:0:0:0:
361,176,77496,1,0,1:0:0:0:
373,102,77603,1,4,0:3:0:0:
202,147,77818,1,4,0:3:0:0:
385,28,78032,1,4,0:3:0:0:
81,84,78247,5,4,1:0:0:0:
373,102,78461,1,4,0:3:0:0:
93,10,78675,1,4,0:3:0:0:
361,176,78889,1,4,0:3:0:0:
79,337,79104,6,0,B|7:209|151:209|79:81,1,270.000010299683,0|0,1:0|0:0,0:0:0:0:
5,148,79532,2,0,P|107:177|177:97,1,225,2|0,0:0|0:0,0:0:0:0:
194,12,79961,5,4,0:3:0:0:
320,274,80175,1,4,0:3:0:0:
318,12,80389,1,4,0:3:0:0:
192,274,80603,1,4,0:3:0:0:
492,75,80818,6,0,P|369:141|318:12,1,315.000003004074,0|0,1:0|0:0,0:0:0:0:
401,55,81247,2,0,B|372:140|422:201|422:201|432:237|414:271,1,225,2|0,0:0|0:0,0:0:0:0:
357,327,81675,5,4,1:0:0:0:
401,55,81889,1,4,0:3:0:0:
206,249,82104,1,4,0:3:0:0:
477,209,82318,1,4,0:3:0:0:
234,79,82532,2,0,B|44:97|44:97|85:102|120:116,1,270.000010299683,0|0,1:0|0:0,0:0:0:0:
263,163,82961,2,0,P|315:112|308:39,1,150,2|0,0:0|0:0,0:0:0:0:
128,328,83389,5,0,1:0:0:0:
208,315,83496,1,0,1:0:0:0:
281,278,83603,1,8,0:3:0:0:
356,248,83710,1,8,0:3:0:0:
438,244,83818,2,0,P|475:249|508:266,1,75,4|4,0:3|0:3,0:0:0:0:
438,139,84032,5,0,1:0:0:0:
356,136,84139,1,0,1:0:0:0:
281,106,84246,1,8,0:3:0:0:
208,69,84353,1,8,0:3:0:0:
128,56,84461,2,0,P|90:60|57:77,1,75,4|4,3:0|3:0,0:0:0:0:
88,230,84675,5,4,0:3:0:0:
159,253,84782,1,0,3:0:0:0:
203,193,84889,1,0,3:0:0:0:
159,132,84997,1,0,3:0:0:0:
88,155,85104,5,4,1:0:0:0:
399,65,85318,1,4,0:3:0:0:
159,253,85532,1,4,0:3:0:0:
305,0,85747,1,4,0:3:0:0:
224,315,85961,6,0,P|102:326|82:205,1,270.000010299683,0|0,1:0|0:0,0:0:0:0:
173,105,86389,2,0,B|162:148|162:148|169:195|169:195|158:256,1,150,2|0,0:0|0:0,0:0:0:0:
66,18,86818,5,4,0:3:0:0:
158,252,87032,1,4,0:3:0:0:
251,9,87247,1,4,0:3:0:0:
17,101,87461,1,4,0:3:0:0:
214,327,87675,6,0,B|250:298|250:252|250:252|288:257|288:257|323:241|323:241|360:249|360:249|390:231|390:231|428:232|428:232|420:180|463:149,1,360.000013732911,0|0,1:0|0:0,0:0:0:0:
512,218,88318,1,2,0:0:0:0:
309,67,88532,5,4,1:0:0:0:
341,335,88747,1,4,0:3:0:0:
203,67,88961,1,4,0:3:0:0:
171,335,89176,1,4,0:3:0:0:
92,15,89389,6,0,B|117:106|94:188|94:188|95:139|68:93,1,270.000010299683,0|0,1:0|0:0,0:0:0:0:
20,235,89818,2,0,P|81:274|150:252,1,150,2|0,0:0|0:0,0:0:0:0:
309,67,90247,5,4,0:3:0:0:
95,187,90461,1,4,0:3:0:0:
417,187,90675,1,4,0:3:0:0:
203,67,90889,1,4,0:3:0:0:
488,260,91104,5,0,1:0:0:0:
420,287,91211,1,0,1:0:0:0:
353,260,91318,1,4,0:3:0:0:
203,67,91532,1,4,0:3:0:0:
463,27,91747,1,4,0:3:0:0:
211,151,91961,6,0,P|168:143|135:113,1,90.0000034332277,4|0,0:3|0:0,0:0:0:0:
296,147,92175,2,0,P|304:104|334:71,1,90.0000034332277,4|0,0:3|0:0,0:0:0:0:
300,232,92389,2,0,P|343:240|376:270,1,90.0000034332277,4|0,0:3|0:0,0:0:0:0:
215,236,92604,2,0,P|207:279|177:312,1,90.0000034332277,4|0,0:3|0:0,0:0:0:0:
6,39,92818,6,0,B|193:54|193:54|130:116,1,270.000010299683,0|0,1:0|0:0,0:0:0:0:
9,182,93247,2,0,P|-12:111|5:39,1,150,2|0,0:0|0:0,0:0:0:0:
199,225,93675,6,0,L|172:327,1,90.0000034332277,4|0,0:3|0:0,0:0:0:0:
313,225,93889,2,0,L|340:327,1,90.0000034332277,4|0,0:3|0:0,0:0:0:0:
175,138,94104,2,0,L|202:239,1,90.0000034332277,4|0,0:3|0:0,0:0:0:0:
337,138,94318,2,0,L|309:239,1,90.0000034332277,4|0,0:3|0:0,0:0:0:0:
286,63,94532,6,0,P|425:122|313:224,1,360.000013732911,0|0,1:0|0:0,0:0:0:0:
337,138,95175,1,2,0:0:0:0:
107,156,95389,6,0,P|91:106|104:56,1,105.000001001358,8|0,0:3|0:0,0:0:0:0:
286,26,95604,2,0,P|242:53|218:99,1,105.000001001358,8|0,0:3|0:0,0:0:0:0:
337,138,95818,2,0,P|386:122|436:135,1,105.000001001358,8|0,0:3|0:0,0:0:0:0:
466,317,96033,2,0,P|439:273|394:249,1,105.000001001358,8|0,0:3|0:0,0:0:0:0:
82,341,96247,6,0,B|227:240|224:448|368:348,1,315.000003004074,0|0,1:0|0:0,0:0:0:0:
393,248,96675,1,2,0:0:0:0:
103,56,96889,1,2,0:0:0:0:
427,0,97104,5,0,1:0:0:0:
469,58,97211,1,0,1:0:0:0:
478,132,97318,1,8,0:3:0:0:
449,201,97425,1,8,0:3:0:0:
393,248,97532,2,0,P|356:238|327:215,1,75,4|4,0:3|0:3,0:0:0:0:
85,0,97747,5,0,1:0:0:0:
43,58,97854,1,0,1:0:0:0:
34,132,97961,1,4,0:3:0:0:
63,201,98068,1,4,0:3:0:0:
119,248,98175,2,0,P|155:238|184:215,1,75,4|4,0:3|0:3,0:0:0:0:
294,21,98389,5,8,0:3:0:0:
219,20,98497,1,8,0:3:0:0:
196,92,98604,1,4,0:3:0:0:
256,136,98711,1,4,0:3:0:0:
318,91,98818,5,4,1:0:0:0:
34,132,99032,1,4,0:3:0:0:
309,254,99247,1,4,0:3:0:0:
219,20,99461,1,4,0:3:0:0:
225,299,99675,6,0,P|280:345|353:337,1,150,0|0,1:0|0:0,0:0:0:0:
309,254,99997,1,2,0:0:0:0:
315,248,100318,1,2,0:0:0:0:
219,20,100532,5,4,0:3:0:0:
390,153,100747,1,4,0:3:0:0:
390,153,100854,1,4,0:3:0:0:
144,80,101068,1,4,0:3:0:0:
144,80,101175,1,4,0:3:0:0:
490,79,101389,6,0,B|474:53|474:53|356:32,1,150,0|2,1:0|0:0,0:0:0:0:
77,155,101818,2,0,P|182:172|243:85,1,225,2|0,0:0|0:0,0:0:0:0:
144,80,102247,5,4,0:3:0:0:
194,312,102461,1,4,0:3:0:0:
368,80,102675,1,4,0:3:0:0:
318,312,102889,1,4,0:3:0:0:
145,80,103104,2,0,P|76:86|77:155,1,150,0|2,1:0|0:0,0:0:0:0:
194,312,103532,2,0,B|74:326|74:326|47:314,1,150,2|2,0:0|0:0,0:0:0:0:
368,80,103961,5,4,1:0:0:0:
77,155,104175,1,4,0:3:0:0:
77,155,104282,1,4,0:3:0:0:
428,200,104497,1,4,0:3:0:0:
428,200,104604,1,4,0:3:0:0:
91,305,104818,5,0,1:0:0:0:
84,230,104925,1,0,1:0:0:0:
77,155,105032,1,4,0:3:0:0:
166,298,105247,1,4,0:3:0:0:
16,312,105461,1,4,0:3:0:0:
316,112,105675,5,4,1:0:0:0:
56,18,105889,1,4,0:3:0:0:
166,298,106104,1,4,0:3:0:0:
200,17,106318,1,4,0:3:0:0:
386,196,106532,2,0,P|317:221|248:196,1,150,0|2,1:0|0:0,0:0:0:0:
54,165,106961,2,0,B|65:137|65:137|56:18,1,150,2|2,0:0|0:0,0:0:0:0:
317,112,107389,5,4,0:3:0:0:
81,318,107604,1,4,0:3:0:0:
81,318,107711,1,4,0:3:0:0:
187,58,107925,1,4,0:3:0:0:
187,58,108032,1,4,0:3:0:0:
441,314,108247,2,0,B|446:251|446:251|440:226|440:226|446:166,1,150,0|0,1:0|0:0,0:0:0:0:
217,315,108675,2,0,B|329:337|329:292|441:315,1,225,2|0,0:0|0:0,0:0:0:0:
446,166,109104,5,4,0:3:0:0:
336,16,109318,1,4,0:3:0:0:
66,166,109532,1,4,0:3:0:0:
176,16,109746,1,4,0:3:0:0:
324,312,109961,2,0,P|255:337|187:310,1,150,0|2,1:0|0:0,0:0:0:0:
336,16,110389,1,2,0:0:0:0:
397,271,110604,2,0,P|371:245|337:232,1,75,4|4,3:0|3:0,0:0:0:0:
175,232,110818,5,0,1:0:0:0:
99,199,110925,1,0,1:0:0:0:
68,123,111032,1,8,0:3:0:0:
100,47,111139,1,8,0:3:0:0:
176,16,111247,2,0,P|195:51|203:100,1,75,4|4,0:3|0:3,0:0:0:0:
337,232,111461,5,0,1:0:0:0:
413,199,111568,1,0,1:0:0:0:
444,123,111675,1,8,0:3:0:0:
412,47,111782,1,8,0:3:0:0:
336,16,111890,2,0,P|317:51|309:100,1,75,4|4,0:3|0:3,0:0:0:0:
337,232,112104,5,4,3:3:0:0:
324,303,112211,1,0,3:0:0:0:
258,335,112318,1,0,3:0:0:0:
190,305,112425,1,0,3:0:0:0:
175,232,112532,5,4,1:0:0:0:
444,123,112747,1,4,0:3:0:0:
130,99,112961,1,4,0:3:0:0:
337,232,113175,1,4,0:3:0:0:
57,45,113389,2,0,P|40:116|81:177,1,150,0|0,1:0|0:0,0:0:0:0:
130,99,113711,1,2,0:0:0:0:
136,105,114032,1,2,0:0:0:0:
444,123,114247,5,4,1:0:0:0:
199,286,114461,1,4,0:3:0:0:
199,286,114568,1,4,0:3:0:0:
292,24,114782,1,4,0:3:0:0:
292,24,114889,1,4,0:3:0:0:
350,325,115104,2,0,B|355:262|355:262|349:237|349:237|355:177,1,150,0|2,1:0|0:0,0:0:0:0:
140,53,115532,2,0,P|228:105|291:23,1,225,2|0,0:0|0:0,0:0:0:0:
214,27,115961,5,4,1:0:0:0:
133,248,116175,1,4,0:3:0:0:
214,27,116389,1,4,0:3:0:0:
30,224,116604,1,4,0:3:0:0:
386,165,116818,2,0,B|289:185|289:185|243:163,1,150,0|2,1:0|0:0,0:0:0:0:
453,102,117247,2,0,P|478:171|445:235,1,150,2|2,0:0|0:0,0:0:0:0:
65,92,117675,5,4,1:0:0:0:
386,165,117889,1,4,0:3:0:0:
386,165,117997,1,4,0:3:0:0:
67,299,118211,1,4,0:3:0:0:
67,299,118319,1,4,0:3:0:0:
249,15,118532,5,0,1:0:0:0:
241,89,118639,1,0,1:0:0:0:
233,164,118746,1,4,0:3:0:0:
323,23,118961,1,4,0:3:0:0:
175,7,119175,1,4,0:3:0:0:
386,165,119389,5,4,1:0:0:0:
177,318,119604,1,4,0:3:0:0:
335,318,119818,1,4,0:3:0:0:
126,165,120033,1,4,0:3:0:0:
414,70,120247,2,0,P|471:116|481:189,1,150,0|2,1:0|0:0,0:0:0:0:
266,231,120675,2,0,P|338:221|385:164,1,150,2|2,0:0|0:0,0:0:0:0:
76,43,121104,5,4,0:3:0:0:
292,134,121318,1,4,0:3:0:0:
292,134,121425,1,4,0:3:0:0:
13,167,121639,1,4,0:3:0:0:
13,167,121746,1,4,0:3:0:0:
299,2,121961,2,0,L|477:33,1,150,0|2,1:0|0:0,0:0:0:0:
301,220,122389,2,0,B|341:116|253:116|301:-4,1,225,2|0,0:0|0:0,0:0:0:0:
213,168,122818,5,4,1:0:0:0:
446,27,123032,1,4,0:3:0:0:
166,283,123247,1,4,0:3:0:0:
298,1,123461,1,4,0:3:0:0:
404,320,123675,2,0,L|379:172,1,150,0|2,1:0|0:0,0:0:0:0:
256,348,124104,1,2,0:0:0:0:
133,172,124318,2,0,L|120:260,1,75,4|4,0:3|0:3,0:0:0:0:
111,80,124532,5,0,1:0:0:0:
183,40,124639,1,0,1:0:0:0:
256,80,124747,1,8,0:3:0:0:
329,40,124854,1,8,0:3:0:0:
401,80,124961,2,0,P|421:110|429:147,1,75,4|4,0:3|0:3,0:0:0:0:
401,304,125175,5,0,1:0:0:0:
329,344,125282,1,0,1:0:0:0:
256,304,125390,1,8,0:3:0:0:
183,344,125497,1,8,0:3:0:0:
110,303,125604,2,0,P|90:273|82:236,1,75,4|4,0:3|0:3,0:0:0:0:
256,80,125818,5,4,3:0:0:0:
318,123,125925,1,0,3:0:0:0:
296,195,126032,1,0,3:0:0:0:
221,196,126139,1,0,3:0:0:0:
196,125,126247,5,4,3:1:0:0:
256,192,126354,12,0,131389,0:0:0:0:
