osu file format v14

[General]
AudioFilename: audio.mp3
AudioLeadIn: 0
PreviewTime: 70532
Countdown: 0
SampleSet: Soft
StackLeniency: 0.7
Mode: 0
LetterboxInBreaks: 0
EpilepsyWarning: 1
WidescreenStoryboard: 1

[Editor]
Bookmarks: 24461,37104,40532,52854,66032,85104,91961,98818
DistanceSpacing: 0.8
BeatDivisor: 4
GridSize: 4
TimelineZoom: 2.4

[Metadata]
Title:Infinite
TitleUnicode:Infinite
Artist:Tyler Smyth and Andy Bane (Dangerkids)
ArtistUnicode:Tyler Smyth and Andy Bane (Dangerkids)
Creator:Voli
Version:Seni's Hard
Source:Sonic Forces
Tags:seni sonic vocal traxx on the edge sega jun senoue Tomoya Ohtani
BeatmapID:1427296
BeatmapSetID:663863

[Difficulty]
HPDrainRate:5
CircleSize:4
OverallDifficulty:6
ApproachRate:8
SliderMultiplier:1.6
SliderTickRate:1

[Events]
//Background and Video events
0,0,"infinite.png",0,0
//Break Periods
//Storyboard Layer 0 (Background)
//Storyboard Layer 1 (Fail)
//Storyboard Layer 2 (Pass)
//Storyboard Layer 3 (Foreground)
//Storyboard Sound Samples

[TimingPoints]
1104.24795253083,428.571428571429,4,2,1,80,1,0
28532,-100,4,2,1,60,0,0
35389,-83.3333333333333,4,2,1,80,0,1
36247,-100,4,2,1,80,0,1
37104,-83.3333333333333,4,2,1,80,0,1
37961,-100,4,2,1,80,0,1
38282,-100,4,2,1,80,0,1
38711,-100,4,2,1,80,0,0
38818,-83.3333333333333,4,2,1,80,0,1
39675,-100,4,2,1,80,0,1
40532,-83.3333333333333,4,2,1,80,0,1
41389,-100,4,2,1,80,0,1
42247,-100,4,2,1,60,0,0
44818,-100,4,2,1,60,0,0
45032,-100,4,2,1,60,0,0
48247,-100,4,2,1,60,0,0
49104,-83.3333333333333,4,2,1,80,0,1
49961,-100,4,2,1,80,0,1
50818,-83.3333333333333,4,2,1,80,0,1
51675,-100,4,2,1,80,0,1
52425,-100,4,2,1,80,0,0
52532,-83.3333333333333,4,2,1,80,0,1
53389,-100,4,2,1,80,0,1
54247,-83.3333333333333,4,2,1,80,0,1
55104,-100,4,2,1,80,0,1
55961,-100,4,2,1,80,0,0
56068,-100,4,2,1,70,0,0
71389,-100,4,2,1,80,0,0
98818,-100,4,2,1,87,0,1
126247,-100,4,2,1,87,0,0
126354,-100,4,2,1,5,0,0

[Colours]
Combo1 : 192,192,192
Combo2 : 166,0,0
Combo3 : 96,96,96
Combo4 : 242,24,57
SliderBorder : 242,24,57

[HitObjects]
256,192,13104,12,10,14389,3:0:0:0:
246,93,14818,6,0,B|305:78|305:78|373:92,2,120,4|4|4,0:3|0:3|0:3,0:0:0:0:
213,183,15675,2,0,L|208:262,1,80,0|0,1:0|3:0,0:0:0:0:
304,250,16104,2,0,L|308:171,1,80,0|0,3:0|3:0,0:0:0:0:
370,92,16532,6,0,P|429:72|512:98,2,120,4|4|4,0:3|0:3|0:3,0:0:0:0:
370,92,17282,1,4,0:3:0:0:
370,92,17389,1,0,1:0:0:0:
288,57,17604,1,0,3:0:0:0:
207,103,17818,2,0,P|148:112|92:92,1,120,0|2,3:0|3:2,0:0:0:0:
58,104,18247,6,0,L|61:289,1,160,4|2,0:3|3:2,0:0:0:0:
60,263,18782,1,2,3:2:0:0:
60,263,18889,1,4,0:3:0:0:
148,215,19104,2,0,P|189:207|242:227,1,80,2|2,1:2|0:0,0:0:0:0:
268,305,19532,2,0,P|227:313|174:293,1,80,2|2,3:2|3:2,0:0:0:0:
148,215,19961,6,0,L|150:87,1,120,4|4,0:3|0:3,0:0:0:0:
163,66,20389,2,0,L|202:61,2,40,0|0|4,3:0|3:0|0:3,0:0:0:0:
235,137,20818,2,0,L|292:143,2,40,0|0|0,1:0|3:0|3:0,0:0:0:0:
348,81,21247,2,0,B|364:140|364:140|347:218,1,120,2|0,0:1|0:0,0:0:0:0:
345,228,21675,6,0,L|488:218,2,120,4|4|4,0:3|0:3|0:3,0:0:0:0:
252,191,22532,2,0,B|244:231|244:231|265:298,1,80,0|0,1:0|3:0,0:0:0:0:
162,290,22961,2,0,B|170:330|170:330|149:397,1,80,0|0,3:0|3:0,0:0:0:0:
73,320,23389,6,0,P|51:267|89:181,2,120,4|4|4,0:3|0:3|0:3,0:0:0:0:
73,320,24139,1,4,0:3:0:0:
73,320,24247,1,0,1:0:0:0:
150,258,24461,1,0,3:0:0:0:
208,336,24675,2,0,L|353:342,1,120,0|2,3:0|3:2,0:0:0:0:
351,318,25104,6,0,P|329:265|367:179,2,120,4|4|4,0:3|0:3|0:3,0:0:0:0:
418,256,25961,2,0,L|519:251,1,80,2|2,1:2|0:0,0:0:0:0:
497,252,26282,1,4,0:3:0:0:
497,252,26389,1,2,0:0:0:0:
438,175,26604,1,4,0:3:0:0:
342,205,26818,6,0,P|328:263|351:318,1,120,4|4,0:3|0:3,0:0:0:0:
378,334,27247,2,0,L|457:337,1,80,2|4,3:1|0:3,0:0:0:0:
490,247,27675,2,0,L|493:167,1,80,0|4,1:0|0:3,0:0:0:0:
439,83,28104,1,0,1:0:0:0:
439,83,28211,1,0,1:0:0:0:
439,83,28318,1,4,3:0:0:0:
363,150,28532,6,0,P|277:170|195:130,1,160,4|0,3:2|3:0,0:0:0:0:
129,112,29175,1,4,0:3:0:0:
129,112,29389,2,0,L|124:218,1,80,0|0,1:0|3:0,0:0:0:0:
30,205,29818,2,0,L|26:125,1,80,0|0,3:0|3:0,0:0:0:0:
55,34,30247,6,0,B|135:14|135:14|229:48,1,160,4|0,0:3|0:0,0:0:0:0:
136,106,30889,1,4,0:3:0:0:
136,106,30997,1,4,0:3:0:0:
136,106,31104,2,0,L|138:251,1,120,0|0,1:0|0:0,0:0:0:0:
156,251,31532,2,0,P|194:264|249:251,1,80,0|0,3:0|3:0,0:0:0:0:
289,180,31961,6,0,P|348:158|453:199,1,160,4|0,0:3|3:0,0:0:0:0:
363,261,32604,1,4,0:3:0:0:
363,261,32818,2,0,P|359:313|369:345,1,80,0|0,1:0|0:0,0:0:0:0:
458,296,33247,2,0,P|466:257|461:217,1,80,0|0,3:0|3:0,0:0:0:0:
377,165,33675,6,0,L|208:159,1,160,4|0,0:3|3:0,0:0:0:0:
160,233,34318,1,4,0:3:0:0:
160,233,34425,1,4,0:3:0:0:
160,233,34532,2,0,B|150:275|150:275|165:319,1,80,0|4,1:0|0:3,0:0:0:0:
254,346,34961,1,8,3:0:0:0:
263,345,35068,1,8,3:0:0:0:
273,344,35175,1,4,3:0:0:0:
283,343,35282,1,4,3:0:0:0:
293,342,35389,6,0,L|299:186,2,143.999995605469,4|4|4,1:0|1:0|3:0,0:0:0:0:
199,355,36247,2,0,P|119:288|8:347,1,240,4|0,1:0|0:0,0:0:0:0:
103,378,37104,6,0,L|109:222,2,143.999995605469,4|4|4,1:0|1:0|3:0,0:0:0:0:
199,355,37961,2,0,B|237:238|237:238|194:111,1,240,4|2,1:0|0:0,0:0:0:0:
143,48,38818,6,0,L|0:42,2,143.999995605469,4|4|4,1:0|1:0|3:0,0:0:0:0:
238,22,39675,2,0,P|343:88|445:32,1,240,4|2,1:0|0:0,0:0:0:0:
498,119,40532,6,0,L|503:262,2,143.999995605469,4|4|4,1:0|1:0|3:0,0:0:0:0:
412,177,41389,2,0,L|404:364,1,160,4|2,1:0|0:0,0:0:0:0:
321,308,42032,1,0,3:0:0:0:
247,361,42247,6,0,B|173:336|173:336|85:361,1,160,4|0,0:3|3:0,0:0:0:0:
18,303,42889,1,4,0:3:0:0:
18,303,43104,2,0,L|12:191,1,80,0|0,1:0|3:0,0:0:0:0:
113,184,43532,2,0,L|108:263,1,80,0|0,3:0|3:0,0:0:0:0:
162,343,43961,6,0,P|233:358|313:311,1,160,4|2,0:3|0:0,0:0:0:0:
391,280,44604,1,4,0:3:0:0:
391,280,44711,1,4,0:3:0:0:
391,280,44818,2,0,P|400:337|382:379,1,80,0|2,1:0|0:0,0:0:0:0:
307,318,45247,2,0,P|298:261|316:219,1,80,0|0,3:0|3:0,0:0:0:0:
385,180,45675,6,0,B|315:147|315:147|208:174,1,160,4|0,0:3|3:0,0:0:0:0:
146,150,46318,1,4,0:3:0:0:
146,150,46532,2,0,L|139:53,1,80,0|0,1:0|3:0,0:0:0:0:
217,8,46961,2,0,L|314:1,1,80,0|0,3:0|3:0,0:0:0:0:
371,65,47389,6,0,L|382:224,1,160,4|0,0:3|3:0,0:0:0:0:
395,326,48032,1,4,0:3:0:0:
395,326,48139,1,4,0:3:0:0:
395,326,48247,2,0,L|315:331,1,80,0|2,1:0|0:0,0:0:0:0:
214,331,48675,1,8,3:0:0:0:
204,330,48782,1,8,3:0:0:0:
194,329,48889,1,4,3:0:0:0:
184,328,48996,1,8,3:0:0:0:
175,327,49104,6,0,L|169:171,2,143.999995605469,4|4|4,1:0|1:0|3:0,0:0:0:0:
277,280,49961,2,0,B|372:276|372:276|409:304|409:304|519:300,1,240,4|2,1:0|0:0,0:0:0:0:
439,215,50818,6,0,L|445:59,2,143.999995605469,4|4|4,1:0|1:0|3:0,0:0:0:0:
341,173,51675,2,0,P|280:135|150:229,1,240,4|2,1:0|0:0,0:0:0:0:
256,240,52532,6,0,L|261:383,2,143.999995605469,4|4|4,1:0|1:0|3:0,0:0:0:0:
153,256,53389,6,0,L|162:-3,1,240,4|2,1:0|0:0,0:0:0:0:
265,70,54247,6,0,L|408:64,2,143.999995605469,4|4|4,1:0|1:0|3:0,0:0:0:0:
265,165,55104,1,4,1:0:0:0:
363,170,55318,2,0,L|442:173,2,80,0|0|2,0:0|0:0|0:0,0:0:0:0:
293,263,55961,6,0,L|133:269,1,160,4|0,1:0|3:0,0:0:0:0:
76,194,56604,1,4,0:3:0:0:
41,276,56818,2,0,L|44:355,1,80,0|4,1:0|0:3,0:0:0:0:
140,352,57247,1,0,3:0:0:0:
140,352,57354,1,4,0:3:0:0:
233,347,57568,1,4,0:3:0:0:
233,347,57675,6,0,L|229:267,1,80,4|0,0:3|0:0,0:0:0:0:
320,227,58104,2,0,L|323:147,1,80,0|4,3:0|0:3,0:0:0:0:
332,57,58532,1,0,1:0:0:0:
332,57,58639,1,0,0:0:0:0:
239,62,58853,1,0,1:0:0:0:
239,62,58961,2,0,L|159:65,1,80,0|0,0:0|1:0,0:0:0:0:
63,73,59389,5,4,0:3:0:0:
121,158,59604,1,0,3:0:0:0:
121,158,59711,1,0,3:0:0:0:
121,158,59818,2,0,L|122:197,2,40,0|0|4,3:0|3:0|0:3,0:0:0:0:
19,163,60247,1,0,1:0:0:0:
19,163,60461,1,0,3:0:0:0:
47,255,60675,2,0,L|43:334,1,80,0|0,3:0|3:0,0:0:0:0:
140,360,61104,6,0,L|198:367,2,40,4|4|4,0:3|0:3|0:3,0:0:0:0:
201,272,61532,2,0,L|240:267,2,40,4|4|4,0:3|0:3|0:3,0:0:0:0:
128,204,61961,1,0,1:0:0:0:
128,204,62175,1,4,0:3:0:0:
216,156,62389,2,0,L|212:76,1,80,0|0,3:0|3:0,0:0:0:0:
138,29,62818,6,0,P|213:52|296:22,1,160,4|0,1:1|3:0,0:0:0:0:
376,17,63461,1,4,0:3:0:0:
456,66,63675,2,0,L|459:145,1,80,0|4,1:0|0:3,0:0:0:0:
368,153,64104,1,0,3:0:0:0:
368,153,64211,1,4,0:3:0:0:
275,158,64425,1,4,0:3:0:0:
275,158,64532,6,0,L|278:237,1,80,4|0,0:3|0:0,0:0:0:0:
179,252,64961,2,0,L|175:331,1,80,0|4,3:0|0:3,0:0:0:0:
271,340,65389,1,0,1:0:0:0:
271,340,65496,1,0,0:0:0:0:
364,349,65710,1,0,1:0:0:0:
364,349,65818,2,0,L|367:269,1,80,0|0,0:0|1:0,0:0:0:0:
448,209,66246,5,4,0:3:0:0:
372,148,66461,1,0,3:0:0:0:
372,148,66568,1,0,3:0:0:0:
372,148,66675,2,0,L|332:146,2,40,0|0|4,3:0|3:0|0:3,0:0:0:0:
465,114,67104,1,0,1:0:0:0:
465,114,67318,1,0,3:0:0:0:
383,47,67532,2,0,L|303:50,1,80,0|0,3:0|3:0,0:0:0:0:
241,126,67961,6,0,L|242:165,2,40,4|4|4,0:3|0:3|0:3,0:0:0:0:
151,84,68389,2,0,L|152:44,2,40,4|4|4,0:3|0:3|0:3,0:0:0:0:
82,164,68818,1,0,1:0:0:0:
82,164,69032,1,4,0:3:0:0:
155,245,69247,1,0,1:0:0:0:
155,245,69354,1,0,1:0:0:0:
155,245,69461,2,0,L|156:284,2,40,4|4|0,3:0|3:0|3:0,0:0:0:0:
128,119,70747,6,0,L|241:126,2,80,0|0|0,0:0|0:0|0:0,0:0:0:0:
53,192,71389,5,4,1:0:0:0:
65,285,71604,1,4,0:3:0:0:
145,207,71818,1,4,0:3:0:0:
157,300,72033,1,4,0:3:0:0:
237,222,72247,1,0,1:0:0:0:
237,222,72675,6,0,L|352:232,1,80,2|0,0:0|0:0,0:0:0:0:
405,237,73104,1,4,0:3:0:0:
491,243,73318,1,4,0:3:0:0:
484,329,73532,1,4,0:3:0:0:
398,323,73747,1,4,0:3:0:0:
405,237,73961,2,0,L|420:61,1,160,0|0,1:0|0:0,0:0:0:0:
345,22,74604,1,2,0:0:0:0:
269,110,74818,5,4,1:0:0:0:
254,15,75032,1,4,0:3:0:0:
170,103,75247,1,4,0:3:0:0:
155,8,75461,1,4,0:3:0:0:
71,96,75675,2,0,B|62:140|62:140|82:195,1,80,0|0,1:0|0:0,0:0:0:0:
172,179,76104,2,0,B|181:135|181:135|161:80,1,80,2|0,0:0|0:0,0:0:0:0:
73,172,76532,5,4,0:3:0:0:
119,251,76747,1,4,0:3:0:0:
210,250,76961,1,4,0:3:0:0:
254,170,77175,1,4,0:3:0:0:
300,91,77389,2,0,L|293:39,2,40,0|0|4,1:0|1:0|0:3,0:0:0:0:
391,90,77818,1,4,0:3:0:0:
437,169,78033,1,4,0:3:0:0:
391,248,78247,5,4,1:0:0:0:
363,342,78461,1,4,0:3:0:0:
297,245,78675,1,4,0:3:0:0:
269,339,78889,1,4,0:3:0:0:
203,242,79104,1,0,1:0:0:0:
203,242,79532,6,0,L|110:247,1,80,2|0,0:0|0:0,0:0:0:0:
32,217,79961,5,4,0:3:0:0:
19,114,80175,1,4,0:3:0:0:
112,167,80389,1,4,0:3:0:0:
99,64,80603,1,4,0:3:0:0:
192,117,80818,2,0,L|285:122,1,80,0|0,1:0|0:0,0:0:0:0:
332,210,81247,2,0,L|239:215,1,80,2|0,0:0|0:0,0:0:0:0:
222,303,81675,5,4,1:0:0:0:
258,384,81889,1,4,0:3:0:0:
322,300,82104,1,4,0:3:0:0:
359,381,82318,1,4,0:3:0:0:
422,297,82532,2,0,B|436:258|436:258|423:193,1,80,0|0,1:0|0:0,0:0:0:0:
356,162,82961,2,0,B|348:124|348:124|362:85,1,80,2|0,0:0|0:0,0:0:0:0:
434,21,83389,6,0,L|482:15,2,40,0|0|8,1:0|1:0|0:3,0:0:0:0:
339,0,83818,1,4,0:3:0:0:
339,0,83925,1,4,0:3:0:0:
339,0,84032,1,0,1:0:0:0:
271,68,84247,2,0,L|223:74,2,40,8|0|4,0:3|0:0|3:0,0:0:0:0:
270,165,84675,2,0,L|230:169,2,40,4|0|0,0:3|3:0|3:0,0:0:0:0:
366,175,85104,5,4,1:0:0:0:
452,181,85318,1,4,0:3:0:0:
445,267,85532,1,4,0:3:0:0:
359,261,85747,1,4,0:3:0:0:
370,179,85961,1,0,1:0:0:0:
372,181,86389,6,0,L|378:89,1,80,2|0,0:0|0:0,0:0:0:0:
310,23,86818,1,4,0:3:0:0:
287,117,87032,1,4,0:3:0:0:
215,24,87247,1,4,0:3:0:0:
192,118,87461,1,4,0:3:0:0:
120,25,87675,2,0,P|75:107|93:180,1,160,0|0,1:0|0:0,0:0:0:0:
154,234,88318,1,2,0:0:0:0:
109,311,88532,5,4,1:0:0:0:
197,311,88747,1,4,0:3:0:0:
241,234,88961,1,4,0:3:0:0:
197,158,89175,1,4,0:3:0:0:
109,158,89389,2,0,L|19:163,1,80,0|0,1:0|0:0,0:0:0:0:
2,70,89818,2,0,L|81:64,1,80,2|0,0:0|0:0,0:0:0:0:
157,15,90247,5,4,0:3:0:0:
185,103,90461,1,4,0:3:0:0:
275,122,90675,1,4,0:3:0:0:
336,53,90890,1,4,0:3:0:0:
425,71,91104,2,0,L|465:69,2,40,0|0|4,1:0|1:0|0:3,0:0:0:0:
454,160,91532,1,4,0:3:0:0:
391,229,91747,1,4,0:3:0:0:
299,208,91961,5,4,0:3:0:0:
264,295,92175,1,4,0:3:0:0:
205,221,92389,1,4,0:3:0:0:
170,308,92603,1,4,0:3:0:0:
111,234,92818,1,0,1:0:0:0:
111,234,93247,6,0,L|20:229,1,80,2|0,0:0|0:0,0:0:0:0:
8,121,93675,1,4,0:3:0:0:
25,27,93889,1,4,0:3:0:0:
119,44,94104,1,4,0:3:0:0:
102,138,94318,1,4,0:3:0:0:
196,155,94532,2,0,L|355:146,1,160,0|0,1:0|0:0,0:0:0:0:
427,204,95175,1,2,0:0:0:0:
408,295,95389,5,8,0:3:0:0:
341,231,95604,1,8,0:3:0:0:
313,315,95818,1,8,0:3:0:0:
246,251,96033,1,8,0:3:0:0:
218,335,96247,2,0,P|161:343|111:329,1,80,0|0,1:0|0:0,0:0:0:0:
76,251,96675,2,0,P|133:243|183:257,1,80,2|2,0:0|0:0,0:0:0:0:
250,217,97104,6,0,L|255:164,2,40,0|0|8,1:0|1:0|0:3,0:0:0:0:
329,291,97532,1,4,0:3:0:0:
329,291,97639,1,4,0:3:0:0:
329,291,97747,1,0,1:0:0:0:
417,241,97961,2,0,L|412:188,2,40,4|4|4,0:3|0:3|0:3,0:0:0:0:
484,319,98389,2,0,L|487:358,2,40,8|8|4,0:3|0:3|0:3,0:0:0:0:
392,331,98818,6,0,L|301:338,2,80,4|4|4,1:0|0:3|0:3,0:0:0:0:
417,241,99461,1,4,0:3:0:0:
417,241,99675,2,0,L|420:102,2,120,0|2|2,1:0|0:0|0:0,0:0:0:0:
328,242,100532,5,4,0:3:0:0:
240,239,100747,1,4,0:3:0:0:
240,239,100854,1,4,0:3:0:0:
152,236,101068,1,4,0:3:0:0:
152,236,101175,1,4,0:3:0:0:
64,233,101389,2,0,L|66:121,1,80,0|2,1:0|0:0,0:0:0:0:
153,62,101818,2,0,L|154:141,1,80,2|0,0:0|0:0,0:0:0:0:
231,209,102247,6,0,P|279:214|343:194,2,80,4|4|4,0:3|0:3|0:3,0:0:0:0:
266,118,102889,1,4,0:3:0:0:
266,118,103104,2,0,P|305:112|344:117,1,80,0|2,1:0|0:0,0:0:0:0:
396,196,103532,2,0,P|401:235|396:274,1,80,2|2,0:0|0:0,0:0:0:0:
293,346,103961,5,4,1:0:0:0:
379,354,104175,1,4,0:3:0:0:
379,354,104282,1,4,0:3:0:0:
465,362,104497,1,4,0:3:0:0:
465,362,104604,1,4,0:3:0:0:
472,277,104818,2,0,L|476:230,2,40,0|0|4,1:0|1:0|0:3,0:0:0:0:
386,269,105247,1,4,0:3:0:0:
396,186,105461,1,4,0:3:0:0:
311,175,105675,6,0,L|230:168,2,80,4|4|4,1:0|0:3|0:3,0:0:0:0:
363,102,106318,1,4,0:3:0:0:
363,102,106532,2,0,L|443:95,1,80,0|2,1:0|0:0,0:0:0:0:
387,6,106961,2,0,L|306:0,1,80,2|2,0:0|0:0,0:0:0:0:
215,25,107389,5,4,0:3:0:0:
207,107,107604,1,4,0:3:0:0:
207,107,107711,1,4,0:3:0:0:
199,189,107925,1,4,0:3:0:0:
199,189,108032,1,4,0:3:0:0:
191,271,108247,2,0,B|103:277,1,80,0|0,1:0|0:0,0:0:0:0:
57,363,108675,2,0,B|145:369,1,80,2|0,0:0|0:0,0:0:0:0:
236,358,109104,6,0,B|315:352,2,80,4|4|4,0:3|0:3|0:3,0:0:0:0:
191,271,109747,1,4,0:3:0:0:
191,271,109961,2,0,B|177:227|177:227|191:164,1,80,0|2,1:0|0:0,0:0:0:0:
277,143,110389,2,0,B|291:187|291:187|277:250,1,80,2|4,0:0|3:0,0:0:0:0:
370,280,110818,5,0,1:0:0:0:
370,280,110925,1,0,1:0:0:0:
370,280,111032,1,8,0:3:0:0:
457,243,111247,2,0,L|505:247,2,40,4|4|0,0:3|0:3|1:0,0:0:0:0:
376,181,111675,1,8,0:3:0:0:
376,181,111782,1,8,0:3:0:0:
376,181,111889,1,4,0:3:0:0:
463,144,112104,2,0,L|511:148,2,40,4|0|0,3:3|3:0|3:0,0:0:0:0:
392,53,112532,6,0,L|301:46,2,80,4|4|4,1:0|0:3|0:3,0:0:0:0:
367,145,113175,1,4,0:3:0:0:
367,145,113389,2,0,L|370:284,2,120,0|2|2,1:0|0:0|0:0,0:0:0:0:
273,143,114246,5,4,1:0:0:0:
185,146,114461,1,4,0:3:0:0:
185,146,114568,1,4,0:3:0:0:
97,149,114782,1,4,0:3:0:0:
97,149,114889,1,4,0:3:0:0:
9,152,115103,2,0,L|11:264,1,80,0|2,1:0|0:0,0:0:0:0:
112,314,115532,2,0,L|113:235,1,80,2|0,0:0|0:0,0:0:0:0:
185,146,115961,6,0,B|228:140|228:140|293:151,2,80,4|4|4,1:0|0:3|0:3,0:0:0:0:
220,237,116603,1,4,0:3:0:0:
220,237,116818,2,0,B|263:243|263:243|299:236,1,80,0|2,1:0|0:0,0:0:0:0:
350,159,117247,2,0,B|356:116|356:116|349:79,1,80,2|2,0:0|0:0,0:0:0:0:
261,44,117675,5,4,1:0:0:0:
175,36,117889,1,4,0:3:0:0:
175,36,117996,1,4,0:3:0:0:
89,28,118211,1,4,0:3:0:0:
89,28,118318,1,4,0:3:0:0:
82,113,118532,2,0,L|78:160,2,40,0|0|4,1:0|1:0|0:3,0:0:0:0:
168,122,118961,1,4,0:3:0:0:
178,205,119175,1,4,0:3:0:0:
93,216,119389,6,0,L|12:223,2,80,4|4|4,0:3|0:3|0:3,0:0:0:0:
106,311,120032,1,4,0:3:0:0:
106,311,120246,2,0,B|144:326|144:326|186:318,1,80,0|2,1:0|0:0,0:0:0:0:
251,256,120675,2,0,B|289:248|289:248|327:263,1,80,2|2,0:0|0:0,0:0:0:0:
431,302,121103,5,4,0:3:0:0:
423,220,121318,1,4,0:3:0:0:
423,220,121425,1,4,0:3:0:0:
415,138,121639,1,4,0:3:0:0:
415,138,121746,1,4,0:3:0:0:
407,56,121961,2,0,B|319:50,1,80,0|2,1:0|0:0,0:0:0:0:
257,154,122389,2,0,B|336:159,1,80,2|0,0:0|0:0,0:0:0:0:
429,210,122818,6,0,B|508:215,2,80,4|4|4,1:0|0:3|0:3,0:0:0:0:
336,159,123461,1,4,0:3:0:0:
336,159,123675,2,0,B|322:203|322:203|336:266,1,80,0|2,1:0|0:0,0:0:0:0:
429,210,124103,2,0,B|443:166|443:166|429:103,1,80,2|4,0:0|0:3,0:0:0:0:
378,64,124532,5,0,1:0:0:0:
378,64,124639,1,0,1:0:0:0:
378,64,124746,1,8,0:3:0:0:
282,67,124961,2,0,L|242:70,2,40,4|4|0,0:3|0:3|1:0,0:0:0:0:
336,159,125389,1,8,0:3:0:0:
336,159,125496,1,8,0:3:0:0:
336,159,125603,1,4,0:3:0:0:
432,162,125818,2,0,L|471:165,2,40,4|0|0,3:0|3:0|3:0,0:0:0:0:
381,244,126247,5,4,3:1:0:0:
256,192,126354,12,0,131389,0:0:0:0:
