osu file format v14

[General]
AudioFilename: audio.mp3
AudioLeadIn: 0
PreviewTime: 70532
Countdown: 0
SampleSet: Soft
StackLeniency: 0.7
Mode: 0
LetterboxInBreaks: 0
EpilepsyWarning: 1
WidescreenStoryboard: 1

[Editor]
Bookmarks: 24461,52854
DistanceSpacing: 0.7
BeatDivisor: 6
GridSize: 4
TimelineZoom: 2.4

[Metadata]
Title:Infinite
TitleUnicode:Infinite
Artist:Tyler Smyth and Andy Bane (Dangerkids)
ArtistUnicode:Tyler Smyth and Andy Bane (Dangerkids)
Creator:Voli
Version:Insane
Source:Sonic Forces
Tags:seni sonic vocal traxx on the edge sega jun senoue Tomoya Ohtani
BeatmapID:1407741
BeatmapSetID:663863

[Difficulty]
HPDrainRate:5
CircleSize:4
OverallDifficulty:8
ApproachRate:9
SliderMultiplier:2.2
SliderTickRate:1

[Events]
//Background and Video events
0,0,"infinite.png",0,0
//Break Periods
//Storyboard Layer 0 (Background)
//Storyboard Layer 1 (Fail)
//Storyboard Layer 2 (Pass)
//Storyboard Layer 3 (Foreground)
//Storyboard Sound Samples

[TimingPoints]
1104.24795253083,428.571428571429,4,2,1,50,1,0
14389,-133.333333333333,4,2,1,50,0,0
14711,-133.333333333333,4,2,1,5,0,0
14818,-80,4,2,1,80,0,0
21247,-66.6666666666667,4,2,1,80,0,0
21568,-66.6666666666667,4,2,1,5,0,0
21675,-80,4,2,1,80,0,0
26818,-66.6666666666667,4,2,1,80,0,0
27139,-80,4,2,1,80,0,0
28532,-100,4,2,1,80,0,0
28747,-100,4,2,1,60,0,0
29389,-66.6666666666667,4,2,1,60,0,0
29604,-100,4,2,1,60,0,0
31104,-66.6666666666667,4,2,1,60,0,0
31318,-100,4,2,1,60,0,0
32818,-66.6666666666667,4,2,1,60,0,0
33247,-100,4,2,1,60,0,0
34532,-66.6666666666667,4,2,1,60,0,0
35389,-57.1428571428571,4,2,1,80,0,1
38282,-66.6666666666667,4,2,1,80,0,1
38711,-66.6666666666667,4,2,1,80,0,0
38818,-57.1428571428571,4,2,1,80,0,1
42247,-100,4,2,1,60,0,0
44818,-66.6666666666667,4,2,1,60,0,0
45032,-100,4,2,1,60,0,0
48247,-66.6666666666667,4,2,1,60,0,0
49104,-57.1428571428571,4,2,1,80,0,1
50389,-66.6666666666667,4,2,1,80,0,1
50818,-57.1428571428571,4,2,1,80,0,1
52425,-57.1428571428571,4,2,1,80,0,0
52532,-57.1428571428571,4,2,1,80,0,1
55961,-80,4,2,1,80,0,0
56068,-80,4,2,1,70,0,0
56818,-66.6666666666667,4,2,1,70,0,0
57675,-80,4,2,1,70,0,0
58532,-66.6666666666667,4,2,1,70,0,0
59711,-80,4,2,1,70,0,0
60247,-66.6666666666667,4,2,1,70,0,0
62389,-80,4,2,1,70,0,0
62818,-66.6666666666667,4,2,1,70,0,0
64532,-80,4,2,1,70,0,0
65389,-66.6666666666667,4,2,1,70,0,0
66675,-80,4,2,1,70,0,0
67104,-66.6666666666667,4,2,1,70,0,0
70747,-200,4,2,1,70,0,0
71389,-80,4,2,1,80,0,0
72247,-66.6666666666667,4,2,1,80,0,0
72675,-80,4,2,1,80,0,0
73961,-66.6666666666667,4,2,1,80,0,0
76104,-80,4,2,1,80,0,0
79104,-66.6666666666667,4,2,1,80,0,0
79532,-80,4,2,1,80,0,0
80818,-57.1428571428571,4,2,1,80,0,0
81247,-80,4,2,1,80,0,0
82532,-66.6666666666667,4,2,1,80,0,0
82961,-80,4,2,1,80,0,0
85961,-66.6666666666667,4,2,1,80,0,0
86389,-80,4,2,1,80,0,0
87675,-66.6666666666667,4,2,1,80,0,0
89818,-80,4,2,1,80,0,0
91961,-66.6666666666667,4,2,1,80,0,0
92068,-66.6666666666667,4,2,1,5,0,0
92175,-66.6666666666667,4,2,1,80,0,0
92282,-66.6666666666667,4,2,1,5,0,0
92389,-66.6666666666667,4,2,1,80,0,0
92497,-66.6666666666667,4,2,1,5,0,0
92604,-66.6666666666667,4,2,1,80,0,0
92711,-66.6666666666667,4,2,1,5,0,0
92818,-66.6666666666667,4,2,1,80,0,0
93247,-80,4,2,1,80,0,0
93675,-66.6666666666667,4,2,1,80,0,0
93782,-66.6666666666667,4,2,1,5,0,0
93889,-66.6666666666667,4,2,1,80,0,0
93997,-66.6666666666667,4,2,1,5,0,0
94104,-66.6666666666667,4,2,1,80,0,0
94211,-66.6666666666667,4,2,1,5,0,0
94318,-66.6666666666667,4,2,1,80,0,0
94425,-66.6666666666667,4,2,1,5,0,0
94532,-66.6666666666667,4,2,1,80,0,0
95389,-66.6666666666667,4,2,1,80,0,0
95497,-66.6666666666667,4,2,1,5,0,0
95604,-66.6666666666667,4,2,1,80,0,0
95711,-66.6666666666667,4,2,1,5,0,0
95818,-66.6666666666667,4,2,1,80,0,0
95925,-66.6666666666667,4,2,1,5,0,0
96032,-66.6666666666667,4,2,1,80,0,0
96139,-66.6666666666667,4,2,1,5,0,0
96246,-66.6666666666667,4,2,1,80,0,0
97104,-80,4,2,1,80,0,0
98818,-80,4,2,1,87,0,1
126247,-80,4,2,1,87,0,0
131389,-80,4,2,1,5,0,0

[Colours]
Combo1 : 192,192,192
Combo2 : 166,0,0
Combo3 : 96,96,96
Combo4 : 242,24,57
SliderBorder : 242,24,57

[HitObjects]
204,76,1104,6,0,L|172:195,1,110,8|0,1:3|3:0,0:0:0:0:
114,285,1532,2,0,L|85:178,1,110,0|4,3:0|0:3,0:0:0:0:
308,76,1961,2,0,L|336:182,1,110,8|0,0:0|0:0,0:0:0:0:
398,285,2389,2,0,L|426:178,1,110,4|0,0:3|3:0,0:0:0:0:
192,286,2818,6,0,P|244:297|292:271,1,110,4|0,0:3|3:0,0:0:0:0:
232,213,3139,2,0,P|179:201|131:227,1,110,4|0,0:3|3:0,0:0:0:0:
131,227,3461,1,4,0:3:0:0:
256,36,3675,1,8,0:0:0:0:
393,60,3889,2,0,L|445:76,2,55,2|0|2,3:2|3:0|3:2,0:0:0:0:
256,36,4318,1,0,3:0:0:0:
358,154,4532,6,0,L|239:122,1,110,4|0,1:3|3:0,0:0:0:0:
149,64,4960,2,0,L|255:35,1,110,0|4,3:0|0:3,0:0:0:0:
358,258,5389,2,0,L|251:286,1,110,8|0,0:0|0:0,0:0:0:0:
149,348,5817,2,0,L|255:376,1,110,0|0,3:0|3:0,0:0:0:0:
106,143,6247,6,0,P|95:195|121:243,1,110,4|0,0:3|3:0,0:0:0:0:
179,183,6568,2,0,P|191:130|165:82,1,110,4|0,0:3|3:0,0:0:0:0:
165,82,6890,1,4,0:3:0:0:
388,57,7104,1,8,0:0:0:0:
415,232,7318,2,0,L|421:302,2,55,2|0|2,3:2|3:0|3:2,0:0:0:0:
388,57,7747,1,0,3:0:0:0:
316,235,7961,6,0,B|323:329|323:329|343:357,1,110,4|0,1:3|0:0,0:0:0:0:
371,163,8389,2,0,B|380:150|380:150|387:56,1,110,0|4,3:0|0:3,0:0:0:0:
196,235,8818,2,0,B|189:329|189:329|169:357,1,110,8|0,0:0|0:0,0:0:0:0:
141,163,9246,2,0,B|131:150|131:150|124:56,1,110,0|0,3:0|3:0,0:0:0:0:
347,129,9675,6,0,P|399:140|447:114,1,110,4|0,0:3|0:3,0:0:0:0:
387,56,9996,2,0,P|334:44|286:70,1,110,4|0,0:3|0:3,0:0:0:0:
286,69,10318,1,4,0:3:0:0:
403,265,10532,1,8,0:0:0:0:
251,307,10747,2,0,L|188:302,2,55,2|0|2,3:2|3:0|3:2,0:0:0:0:
403,265,11175,1,2,3:2:0:0:
387,56,11389,5,4,1:3:0:0:
324,192,11818,1,2,0:0:0:0:
125,56,12247,1,2,0:0:0:0:
188,192,12675,1,2,0:0:0:0:
316,120,13104,5,0,3:0:0:0:
389,66,13247,2,0,L|482:82,1,73.3333333333333,0|0,3:0|3:0,0:0:0:0:
402,149,13532,2,0,L|495:165,1,73.3333333333333,0|0,3:0|3:0,0:0:0:0:
420,236,13818,1,0,3:0:0:0:
420,236,13889,1,0,3:0:0:0:
420,236,13961,6,0,L|513:252,2,73.3333333333333,0|0|0,3:0|3:0|3:0,0:0:0:0:
316,120,14389,1,10,3:0:0:0:
241,166,14818,6,0,P|207:163|177:146,2,68.75,4|0|0,0:3|0:0|3:0,0:0:0:0:
237,80,15139,2,0,P|214:54|206:21,2,68.75,4|0|0,0:3|0:0|3:0,0:0:0:0:
316,120,15461,1,4,0:3:0:0:
171,273,15675,2,0,L|103:262,1,68.75,0|0,1:0|0:0,0:0:0:0:
23,191,15889,2,0,L|90:180,1,68.75,0|0,3:0|3:0,0:0:0:0:
109,87,16104,2,0,L|142:92,6,34.375,0|0|0|0|0|0|0,3:0|3:0|3:0|3:0|3:0|3:0|3:0,0:0:0:0:
59,11,16532,5,4,0:3:0:0:
325,38,16854,1,4,0:3:0:0:
325,38,16961,2,0,L|311:110,1,68.75,0|0,3:0|3:0,0:0:0:0:
400,96,17175,2,0,L|413:163,1,68.75,4|4,0:3|0:3,0:0:0:0:
416,306,17389,2,0,L|430:234,1,68.75,0|0,1:0|3:0,0:0:0:0:
341,248,17603,2,0,L|327:180,1,68.75,0|0,3:0|3:0,0:0:0:0:
249,151,17818,2,0,P|232:147|215:147,6,34.375,0|0|0|0|2|2|2,3:0|3:0|3:0|3:0|3:2|3:2|3:2,0:0:0:0:
327,180,18247,5,4,0:3:0:0:
120,296,18675,5,2,3:2:0:0:
120,296,18782,1,2,3:2:0:0:
120,296,18889,1,4,0:3:0:0:
69,147,19104,1,2,1:2:0:0:
11,247,19318,1,2,0:0:0:0:
172,193,19532,1,2,3:2:0:0:
69,147,19747,1,2,3:2:0:0:
257,100,19961,6,0,B|266:252|266:252|297:296,1,206.25,4|4,0:3|0:3,0:0:0:0:
374,265,20389,2,0,P|404:283|438:289,1,68.75,0|0,3:0|3:0,0:0:0:0:
508,208,20604,2,0,P|478:191|444:185,1,68.75,4|4,0:3|0:3,0:0:0:0:
354,81,20818,1,0,1:0:0:0:
354,81,20925,1,0,3:0:0:0:
354,81,21032,2,0,L|358:175,1,68.75,0|0,3:0|3:0,0:0:0:0:
374,265,21247,6,0,B|275:257|275:257|228:276|228:276|130:267,1,247.500009441376,2|0,0:1|0:0,0:0:0:0:
71,192,21675,6,0,P|48:218|37:251,2,68.75,4|0|0,0:3|0:0|3:0,0:0:0:0:
84,104,21997,2,0,P|49:106|19:121,2,68.75,4|0|0,0:3|0:0|0:0,0:0:0:0:
153,160,22318,1,4,0:3:0:0:
306,89,22532,2,0,L|294:21,1,68.75,0|0,1:0|3:0,0:0:0:0:
454,112,22747,2,0,L|386:123,1,68.75,0|0,3:0|3:0,0:0:0:0:
327,196,22961,2,0,L|332:229,6,34.375,0|0|0|0|0|0|0,3:0|3:0|3:0|3:0|3:0|3:0|3:0,0:0:0:0:
247,155,23389,6,0,B|119:175|119:175|167:175|193:188,1,206.25,4|4,0:3|0:3,0:0:0:0:
265,273,23818,2,0,P|272:306|271:340,1,68.75,0|0,3:0|3:0,0:0:0:0:
143,345,24032,1,4,0:3:0:0:
143,345,24139,1,4,0:3:0:0:
143,345,24247,2,0,P|135:311|136:277,1,68.75,0|0,1:0|3:0,0:0:0:0:
265,273,24461,2,0,P|272:306|271:340,1,68.75,0|0,3:0|3:0,0:0:0:0:
193,188,24675,2,0,L|187:155,6,34.375,0|0|0|0|2|2|2,3:0|3:0|3:0|3:0|3:2|3:2|3:2,0:0:0:0:
104,134,25104,6,0,P|178:71|261:121,1,206.25,4|4,0:3|0:3,0:0:0:0:
329,192,25532,2,0,P|396:200|460:177,1,137.5,2|4,3:1|0:3,0:0:0:0:
186,154,25961,1,2,1:2:0:0:
270,340,26175,1,2,0:0:0:0:
186,154,26389,1,2,0:0:0:0:
270,340,26603,1,4,0:3:0:0:
63,186,26818,6,0,B|92:17|92:17|102:92,1,247.500009441376,4|4,0:3|0:3,0:0:0:0:
186,154,27247,2,0,P|131:193|64:187,1,137.5,2|4,3:1|0:3,0:0:0:0:
268,45,27675,2,0,L|342:55,1,68.75,0|0,1:0|3:0,0:0:0:0:
398,126,27889,2,0,L|466:116,1,68.75,4|0,0:3|3:0,0:0:0:0:
433,232,28104,5,0,1:0:0:0:
407,254,28211,1,0,1:0:0:0:
375,265,28318,1,4,3:0:0:0:
340,264,28425,1,4,3:0:0:0:
309,251,28532,5,4,3:2:0:0:
189,315,28747,1,0,0:0:0:0:
259,161,28961,1,0,3:0:0:0:
139,225,29176,1,4,0:3:0:0:
239,14,29389,6,0,L|402:37,1,165.000006294251,0|0,1:0|3:0,0:0:0:0:
495,145,29818,6,0,L|358:165,1,110,0|0,3:0|3:0,0:0:0:0:
204,278,30247,5,4,0:3:0:0:
137,190,30461,1,0,0:0:0:0:
225,123,30675,1,0,0:0:0:0:
291,211,30889,1,4,0:3:0:0:
291,211,30997,1,4,0:3:0:0:
291,211,31104,6,0,P|357:234|377:147,1,165.000006294251,0|0,1:0|0:0,0:0:0:0:
149,148,31532,6,0,P|177:105|225:123,1,110,0|0,3:0|3:0,0:0:0:0:
53,301,31961,5,4,0:3:0:0:
28,144,32175,1,0,0:0:0:0:
68,316,32389,1,0,3:0:0:0:
43,159,32603,1,4,0:3:0:0:
205,305,32818,6,0,B|342:325|342:325|364:310,1,165.000006294251,0|0,1:0|0:0,0:0:0:0:
501,195,33247,6,0,B|398:179|398:179|393:183,1,110,0|0,3:0|3:0,0:0:0:0:
224,206,33675,5,4,0:3:0:0:
60,72,33889,1,0,0:0:0:0:
0,202,34104,1,0,3:0:0:0:
166,77,34318,1,4,0:3:0:0:
166,77,34425,1,4,0:3:0:0:
166,77,34532,6,0,B|177:192|177:192|226:207,1,165.000006294251,0|4,1:0|0:3,0:0:0:0:
407,88,34961,5,8,3:0:0:0:
428,75,35068,1,8,3:0:0:0:
416,53,35175,1,4,3:0:0:0:
394,65,35282,1,4,3:0:0:0:
407,88,35389,6,0,P|427:181|486:255,1,192.500001835823,4|0,1:0|0:0,0:0:0:0:
311,193,35711,2,0,P|391:244|486:255,1,192.500001835823,4|0,1:0|0:0,0:0:0:0:
318,335,36032,1,4,3:0:0:0:
318,335,36139,1,4,3:0:0:0:
318,335,36247,2,0,P|411:314|485:255,1,192.500001835823,4|0,1:0|0:0,0:0:0:0:
311,193,36675,1,2,0:0:0:0:
311,193,36889,1,0,0:0:0:0:
105,88,37104,6,0,P|85:181|26:255,1,192.500001835823,4|0,1:0|0:0,0:0:0:0:
201,193,37426,2,0,P|121:244|26:255,1,192.500001835823,4|0,1:0|0:0,0:0:0:0:
194,335,37747,1,4,3:0:0:0:
194,335,37854,1,4,3:0:0:0:
194,335,37962,2,0,P|101:314|27:255,1,192.500001835823,4|0,1:0|0:0,0:0:0:0:
51,148,38282,5,2,0:0:0:0:
51,148,38389,2,0,L|42:57,1,82.5000031471254,2|0,0:0|0:0,0:0:0:0:
144,34,38604,2,0,L|135:117,1,82.5000031471254,2|0,0:0|0:0,0:0:0:0:
314,73,38818,6,0,P|411:48|517:58,1,192.500001835823,4|0,1:0|3:0,0:0:0:0:
424,226,39139,2,0,P|476:146|501:53,1,192.500001835823,4|0,1:0|0:0,0:0:0:0:
314,73,39461,1,4,3:0:0:0:
314,73,39568,1,4,3:0:0:0:
314,73,39675,2,0,P|411:48|517:58,1,192.500001835823,4|0,1:0|0:0,0:0:0:0:
424,226,40104,1,2,0:0:0:0:
424,226,40318,1,2,0:0:0:0:
198,311,40532,6,0,P|101:336|-5:326,1,192.500001835823,4|0,1:0|0:0,0:0:0:0:
88,158,40853,2,0,P|36:238|11:331,1,192.500001835823,4|0,1:0|0:0,0:0:0:0:
198,311,41175,1,4,3:0:0:0:
198,311,41282,1,4,3:0:0:0:
198,311,41389,2,0,P|101:336|-5:326,1,192.500001835823,4|0,1:0|0:0,0:0:0:0:
88,158,41818,1,2,0:0:0:0:
88,158,42032,1,0,3:0:0:0:
233,44,42247,6,0,P|287:50|328:86,1,110,4|0,0:3|0:0,0:0:0:0:
326,169,42568,1,0,3:0:0:0:
326,169,42675,2,0,L|397:162,1,55,0|0,3:0|3:0,0:0:0:0:
422,92,42889,2,0,L|476:97,1,55,4|0,0:3|0:0,0:0:0:0:
480,213,43104,2,0,B|465:193|465:193|445:239|463:276,1,110,0|0,1:0|3:0,0:0:0:0:
387,327,43425,1,0,3:0:0:0:
387,327,43532,2,0,L|359:329,6,27.5,0|0|0|0|0|0|0,3:0|3:0|3:0|3:0|3:0|3:0|3:0,0:0:0:0:
297,257,43961,6,0,L|182:248,1,110,4|0,0:3|0:0,0:0:0:0:
108,220,44282,2,0,L|222:211,1,110,4|0,0:3|0:0,0:0:0:0:
362,186,44604,1,4,0:3:0:0:
362,186,44711,1,4,0:3:0:0:
362,186,44818,2,0,L|169:172,1,165.000006294251,0|2,1:0|0:0,0:0:0:0:
125,120,45139,1,0,3:0:0:0:
125,120,45247,2,0,P|112:115|98:112,6,27.5,0|0|0|0|0|0|0,3:0|3:0|3:0|3:0|3:0|3:0|3:0,0:0:0:0:
205,83,45675,6,0,P|252:57|272:7,1,110,4|0,0:3|0:0,0:0:0:0:
364,36,45997,1,0,3:0:0:0:
364,36,46104,2,0,L|368:101,1,55,0|0,3:0|3:0,0:0:0:0:
460,89,46318,2,0,L|456:154,1,55,4|0,0:3|0:0,0:0:0:0:
268,175,46532,2,0,L|377:181,1,110,0|0,1:0|3:0,0:0:0:0:
455,234,46854,1,0,3:0:0:0:
455,234,46961,2,0,L|458:283,6,27.5,0|0|0|0|0|0|0,3:0|3:0|3:0|3:0|3:0|3:0|3:0,0:0:0:0:
396,330,47389,6,0,P|345:344|290:316,1,110,4|0,0:3|0:0,0:0:0:0:
197,274,47711,2,0,P|248:288|303:260,1,110,4|0,0:3|0:0,0:0:0:0:
455,234,48032,1,4,0:3:0:0:
455,234,48139,1,4,0:3:0:0:
455,234,48247,2,0,P|381:254|302:213,1,165.000006294251,0|2,1:0|0:0,0:0:0:0:
113,65,48675,5,8,3:0:0:0:
92,52,48782,1,8,3:0:0:0:
104,30,48889,1,4,3:0:0:0:
126,42,48996,1,8,3:0:0:0:
113,65,49104,6,0,P|93:158|34:232,1,192.500001835823,4|0,1:0|0:0,0:0:0:0:
189,123,49425,2,0,P|159:214|103:292,1,192.500001835823,4|0,1:0|0:0,0:0:0:0:
257,188,49747,1,4,3:0:0:0:
257,188,49854,1,4,3:0:0:0:
257,188,49961,2,0,P|227:271|163:360,1,192.500001835823,4|0,1:0|0:0,0:0:0:0:
103,291,50282,1,2,0:0:0:0:
103,291,50389,2,0,L|89:197,1,82.5000031471254,2|0,0:0|0:0,0:0:0:0:
130,110,50604,2,0,L|142:28,1,82.5000031471254,2|0,0:0|0:0,0:0:0:0:
399,65,50818,6,0,P|419:158|478:232,1,192.500001835823,4|0,1:0|0:0,0:0:0:0:
323,123,51139,2,0,P|353:214|409:292,1,192.500001835823,4|0,1:0|0:0,0:0:0:0:
255,188,51461,1,4,3:0:0:0:
255,188,51568,1,4,3:0:0:0:
255,188,51675,2,0,P|285:271|349:360,1,192.500001835823,4|0,1:0|0:0,0:0:0:0:
478,232,52104,1,2,0:0:0:0:
478,232,52318,1,2,0:0:0:0:
200,99,52532,6,0,B|56:121|56:121|15:166,1,192.500001835823,4|0,1:0|0:0,0:0:0:0:
284,151,52854,2,0,B|252:185|252:185|108:207,1,192.500001835823,4|0,1:0|0:0,0:0:0:0:
376,42,53175,1,4,3:0:0:0:
376,42,53282,1,4,3:0:0:0:
376,42,53389,2,0,B|232:64|232:64|200:98,1,192.500001835823,4|0,1:0|0:0,0:0:0:0:
24,155,53818,1,2,0:0:0:0:
24,155,54032,1,2,0:0:0:0:
312,285,54247,6,0,B|456:263|456:263|497:218,1,192.500001835823,4|0,1:0|0:0,0:0:0:0:
228,233,54569,2,0,B|260:199|260:199|404:177,1,192.500001835823,4|0,1:0|0:0,0:0:0:0:
136,342,54890,1,4,3:0:0:0:
136,342,54997,1,4,3:0:0:0:
136,342,55104,2,0,B|280:320|280:320|312:286,1,192.500001835823,4|0,1:0|0:0,0:0:0:0:
487,228,55532,1,0,0:0:0:0:
487,228,55747,1,2,0:0:0:0:
287,102,55961,6,0,B|259:190|331:190|311:286|311:286|257:269|247:198,1,275,4|0,1:0|3:0,0:0:0:0:
377,135,56604,1,4,0:3:0:0:
180,128,56818,2,0,B|143:124|143:124|57:114|48:37,1,165.000006294251,0|4,1:0|0:3,0:0:0:0:
38,197,57247,1,0,3:0:0:0:
38,197,57354,2,0,B|55:277|55:277|37:364,1,165.000006294251,4|4,0:3|0:3,0:0:0:0:
71,275,57675,6,0,B|139:260|139:260|207:275,1,137.5,4|0,0:3|0:0,0:0:0:0:
446,318,58104,2,0,B|377:332|377:332|309:317,1,137.5,0|4,3:0|0:3,0:0:0:0:
282,49,58532,6,0,P|297:129|285:210,1,165.000006294251,0|4,1:0|0:3,0:0:0:0:
296,123,58854,2,0,P|250:191|184:240,1,165.000006294251,0|4,1:0|0:3,0:0:0:0:
251,190,59175,2,0,P|210:197|170:191,1,82.5000031471254,0|0,1:0|3:0,0:0:0:0:
109,139,59389,6,0,P|153:172|67:205,1,165.000006294251,4|0,0:3|3:0,0:0:0:0:
10,202,59711,1,0,3:0:0:0:
10,202,59818,2,0,L|16:289,1,68.75,0|0,3:0|3:0,0:0:0:0:
86,317,60032,1,4,0:3:0:0:
251,190,60247,1,0,1:0:0:0:
261,350,60461,1,0,3:0:0:0:
383,149,60675,1,0,3:0:0:0:
393,309,60889,1,0,3:0:0:0:
296,103,61104,5,4,0:3:0:0:
296,103,61211,1,4,0:3:0:0:
296,103,61318,1,4,0:3:0:0:
261,350,61532,1,4,0:3:0:0:
261,350,61639,1,4,0:3:0:0:
261,350,61746,1,4,0:3:0:0:
465,225,61961,1,0,1:0:0:0:
224,206,62175,1,4,0:3:0:0:
438,251,62389,1,0,3:0:0:0:
250,236,62603,1,0,3:0:0:0:
481,57,62818,6,0,B|381:9|279:63|279:63|354:63|382:115,1,330.000012588501,4|0,1:1|3:0,0:0:0:0:
496,176,63461,1,4,0:3:0:0:
298,161,63675,2,0,B|234:167|224:253|224:253|220:290,1,165.000006294251,0|4,1:0|0:3,0:0:0:0:
188,79,64104,1,0,3:0:0:0:
188,79,64211,2,0,B|104:89|104:89|31:51,1,165.000006294251,4|4,0:3|0:3,0:0:0:0:
97,110,64532,6,0,B|105:182|105:182|72:245,1,137.5,4|0,0:3|0:0,0:0:0:0:
319,291,64961,2,0,B|289:233|289:233|297:161,1,137.5,0|4,3:0|0:3,0:0:0:0:
123,9,65389,2,0,P|59:46|97:110,1,165.000006294251,0|4,1:0|0:3,0:0:0:0:
152,199,65711,2,0,P|79:181|98:109,1,165.000006294251,0|4,1:0|0:3,0:0:0:0:
177,94,66032,2,0,L|87:112,1,82.5000031471254,0|0,1:0|3:0,0:0:0:0:
258,17,66247,6,0,L|419:49,1,165.000006294251,4|0,0:3|3:0,0:0:0:0:
457,118,66568,1,0,3:0:0:0:
457,118,66675,2,0,P|443:149|440:183,1,68.75,0|0,3:0|3:0,0:0:0:0:
465,258,66889,1,4,0:3:0:0:
276,152,67104,1,0,1:0:0:0:
402,337,67318,1,0,3:0:0:0:
339,73,67532,1,0,3:0:0:0:
339,241,67747,1,0,3:0:0:0:
240,58,67961,5,4,0:3:0:0:
240,58,68068,1,4,0:3:0:0:
240,58,68175,1,4,0:3:0:0:
440,183,68389,1,4,0:3:0:0:
440,183,68496,1,4,0:3:0:0:
440,183,68603,1,4,0:3:0:0:
238,289,68818,5,0,1:0:0:0:
221,285,68925,1,0,3:0:0:0:
206,277,69032,1,4,0:3:0:0:
53,61,69247,1,0,1:0:0:0:
86,62,69354,1,0,1:0:0:0:
119,76,69461,1,4,3:0:0:0:
143,100,69568,1,4,3:0:0:0:
158,130,69675,5,0,3:0:0:0:
158,130,70747,6,0,L|218:121,2,55,0|0|0,0:0|0:0|0:0,0:0:0:0:
427,270,71389,5,4,1:0:0:0:
300,98,71604,1,4,0:3:0:0:
300,312,71818,1,4,0:3:0:0:
427,139,72032,1,4,0:3:0:0:
224,204,72247,2,0,P|111:177|101:61,1,247.500009441376,0|0,1:0|0:0,0:0:0:0:
192,107,72675,2,0,P|207:43|272:37,1,137.5,2|0,0:0|0:0,0:0:0:0:
436,172,73104,5,4,0:3:0:0:
285,323,73319,1,4,0:3:0:0:
317,112,73533,1,4,0:3:0:0:
413,300,73747,1,4,0:3:0:0:
224,204,73961,2,0,B|186:177|121:177|65:199|33:250|34:291|17:345|138:367|308:273|132:198|-24:174|70:65,1,495.000018882752,0|2,1:0|0:0,0:0:0:0:
184,12,74818,5,4,1:0:0:0:
224,204,75032,1,4,0:3:0:0:
48,120,75247,1,4,0:3:0:0:
307,88,75461,1,4,0:3:0:0:
430,282,75675,2,0,B|398:155|470:155|436:38,1,247.500009441376,0|0,1:0|0:0,0:0:0:0:
310,114,76104,2,0,P|356:91|306:87,1,137.5,2|0,0:0|0:0,0:0:0:0:
99,31,76532,5,4,0:3:0:0:
256,192,76747,1,4,0:3:0:0:
32,190,76961,1,4,0:3:0:0:
256,192,77176,1,4,0:3:0:0:
77,331,77389,2,0,L|91:241,1,68.75,0|0,1:0|1:0,0:0:0:0:
32,190,77604,1,4,0:3:0:0:
234,56,77818,2,0,L|259:190,1,137.5,4|4,0:3|0:3,0:0:0:0:
101,40,78247,5,4,1:0:0:0:
143,249,78462,1,4,0:3:0:0:
234,56,78676,1,4,0:3:0:0:
47,164,78890,1,4,0:3:0:0:
259,191,79104,2,0,B|362:171|362:171|403:85|403:85|427:126|389:156,1,247.500009441376,0|0,1:0|0:0,0:0:0:0:
382,258,79532,2,0,B|282:281|282:281|313:297,1,137.5,2|0,0:0|0:0,0:0:0:0:
234,56,79961,5,4,0:3:0:0:
142,250,80176,1,4,0:3:0:0:
101,40,80390,1,4,0:3:0:0:
259,191,80604,1,4,0:3:0:0:
47,164,80818,2,0,P|5:249|143:249,1,288.750002753735,0|0,1:0|0:0,0:0:0:0:
172,126,81247,2,0,P|104:127|46:164,1,137.5,2|0,0:0|0:0,0:0:0:0:
259,311,81675,5,4,1:0:0:0:
304,108,81889,1,4,0:3:0:0:
483,256,82104,1,4,0:3:0:0:
438,53,82318,1,4,0:3:0:0:
281,215,82532,2,0,P|197:132|237:23,1,247.500009441376,0|0,1:0|0:0,0:0:0:0:
304,108,82961,2,0,P|342:53|408:43,1,137.5,2|0,0:0|0:0,0:0:0:0:
456,251,83389,5,0,1:0:0:0:
412,242,83496,1,0,1:0:0:0:
368,233,83603,1,8,0:3:0:0:
324,224,83710,1,8,0:3:0:0:
281,215,83818,2,0,P|243:198|213:160,1,68.75,4|4,0:3|0:3,0:0:0:0:
118,107,84032,5,0,1:0:0:0:
162,98,84139,1,0,1:0:0:0:
206,89,84246,1,8,0:3:0:0:
250,80,84353,1,8,0:3:0:0:
293,71,84461,2,0,P|331:54|361:16,1,68.75,4|4,3:0|3:0,0:0:0:0:
464,153,84675,5,4,0:3:0:0:
442,148,84782,1,0,3:0:0:0:
420,144,84889,1,0,3:0:0:0:
398,139,84996,1,0,3:0:0:0:
376,135,85104,5,4,1:0:0:0:
256,300,85318,1,4,0:3:0:0:
136,135,85532,1,4,0:3:0:0:
256,300,85747,1,4,0:3:0:0:
68,199,85961,2,0,P|53:84|160:42,1,247.500009441376,0|0,1:0|0:0,0:0:0:0:
269,130,86389,2,0,B|180:149|180:149|135:134,1,137.5,2|0,0:0|0:0,0:0:0:0:
302,26,86818,5,4,0:3:0:0:
450,109,87032,1,4,0:3:0:0:
323,212,87247,1,4,0:3:0:0:
470,298,87461,1,4,0:3:0:0:
180,283,87675,6,0,B|154:278|154:278|214:236|231:122|132:79|132:79|154:114|135:134,1,330.000012588501,0|0,1:0|0:0,0:0:0:0:
24,192,88318,1,2,0:0:0:0:
278,56,88532,5,4,1:0:0:0:
369,250,88747,1,4,0:3:0:0:
411,40,88961,1,4,0:3:0:0:
253,191,89175,1,4,0:3:0:0:
465,164,89389,2,0,B|441:338|441:338|459:291|523:275,1,247.500009441376,0|0,1:0|0:0,0:0:0:0:
369,250,89818,2,0,P|302:236|252:190,1,137.5,2|0,0:0|0:0,0:0:0:0:
89,45,90247,5,4,0:3:0:0:
111,237,90461,1,4,0:3:0:0:
230,0,90675,1,4,0:3:0:0:
252,192,90889,1,4,0:3:0:0:
31,113,91104,6,0,L|36:181,1,68.75,0|0,1:0|1:0,0:0:0:0:
111,237,91318,1,4,0:3:0:0:
89,45,91532,1,4,0:3:0:0:
213,91,91747,1,4,0:3:0:0:
173,306,91961,6,0,P|137:326|96:329,1,82.5000031471254,4|0,0:3|0:0,0:0:0:0:
214,220,92175,2,8,P|174:209|143:182,1,82.5000031471254,4|0,0:3|0:0,0:0:0:0:
298,220,92389,2,8,P|337:209|368:182,1,82.5000031471254,4|0,0:3|0:0,0:0:0:0:
339,306,92604,2,0,P|374:326|415:329,1,82.5000031471254,4|0,0:3|0:0,0:0:0:0:
256,352,92818,6,0,B|243:249|243:249|264:209|264:209|254:110,1,247.500009441376,0|0,1:0|0:0,0:0:0:0:
256,1,93247,2,0,P|220:56|254:111,1,137.5,2|0,0:0|0:0,0:0:0:0:
443,236,93675,6,0,L|432:154,1,82.5000031471254,4|0,0:3|0:0,0:0:0:0:
325,230,93889,2,0,L|314:311,1,82.5000031471254,4|0,0:3|0:0,0:0:0:0:
197,311,94104,2,0,L|187:230,1,82.5000031471254,4|0,0:3|0:0,0:0:0:0:
79,154,94318,2,0,L|69:236,1,82.5000031471254,4|0,0:3|0:0,0:0:0:0:
227,119,94532,6,0,B|252:96|252:96|-3:126|-3:126|24:100,1,330.000012588501,0|0,1:0|0:0,0:0:0:0:
69,235,95175,1,2,0:0:0:0:
115,25,95389,6,0,L|196:15,1,82.5000031471254,8|0,0:3|0:0,0:0:0:0:
397,25,95604,2,0,L|315:15,1,82.5000031471254,8|0,0:3|0:0,0:0:0:0:
98,132,95818,2,0,L|185:104,1,82.5000031471254,8|0,0:3|0:0,0:0:0:0:
414,132,96033,2,0,L|327:104,1,82.5000031471254,8|0,0:3|0:0,0:0:0:0:
256,308,96247,6,0,B|256:268|256:268|243:250|243:250|243:216|243:216|256:192|256:192|270:171|270:171|270:136|270:136|256:116|256:116|256:77,1,247.500009441376,0|0,1:0|0:0,0:0:0:0:
256,76,96675,1,2,0:0:0:0:
98,132,96889,1,2,0:0:0:0:
168,326,97104,5,0,1:0:0:0:
212,317,97211,1,0,1:0:0:0:
256,308,97318,1,8,0:3:0:0:
300,299,97425,1,8,0:3:0:0:
343,290,97533,2,0,P|381:273|411:235,1,68.75,4|4,0:3|0:3,0:0:0:0:
506,182,97747,5,0,1:0:0:0:
462,173,97854,1,0,1:0:0:0:
418,164,97961,1,4,0:3:0:0:
374,155,98068,1,4,0:3:0:0:
331,146,98176,2,0,P|293:129|263:91,1,68.75,4|4,0:3|0:3,0:0:0:0:
160,228,98390,5,8,0:3:0:0:
182,223,98497,1,8,0:3:0:0:
204,219,98604,1,4,0:3:0:0:
226,214,98711,1,4,0:3:0:0:
248,210,98819,5,4,1:0:0:0:
72,246,99032,1,4,0:3:0:0:
128,75,99247,1,4,0:3:0:0:
248,210,99461,1,4,0:3:0:0:
448,143,99675,2,0,B|467:5|467:5|413:67,1,206.25,0|2,1:0|0:0,0:0:0:0:
371,116,100104,1,0,0:0:0:0:
431,269,100318,1,2,0:0:0:0:
204,230,100532,6,0,P|190:164|197:96,1,137.5,4|4,0:3|0:3,0:0:0:0:
107,196,100854,2,0,P|143:138|197:95,1,137.5,4|4,0:3|0:3,0:0:0:0:
277,84,101175,1,4,0:3:0:0:
276,301,101389,2,0,B|207:322|207:322|144:302,1,137.5,0|2,1:0|0:0,0:0:0:0:
304,192,101818,2,0,B|199:223|199:223|105:194,1,206.25,2|0,0:0|0:0,0:0:0:0:
29,163,102247,5,4,0:3:0:0:
169,31,102461,1,4,0:3:0:0:
45,240,102675,1,4,0:3:0:0:
91,54,102889,1,4,0:3:0:0:
205,221,103104,2,0,B|197:327|197:327|217:368,1,137.5,0|2,1:0|0:0,0:0:0:0:
326,127,103532,2,0,B|312:155|312:155|320:261,1,137.5,2|2,0:0|0:0,0:0:0:0:
397,81,103961,6,0,P|341:44|275:58,1,137.5,4|4,1:0|0:3,0:0:0:0:
156,89,104282,2,0,P|222:98|275:57,1,137.5,4|4,0:3|0:3,0:0:0:0:
202,20,104604,1,4,0:3:0:0:
71,182,104818,2,0,L|83:253,1,68.75,0|0,1:0|1:0,0:0:0:0:
52,327,105032,1,4,0:3:0:0:
156,89,105247,2,0,B|162:128|162:128|190:292,1,206.25,4|0,0:3|0:0,0:0:0:0:
262,344,105675,5,4,1:0:0:0:
456,192,105889,1,4,0:3:0:0:
286,191,106104,1,4,0:3:0:0:
480,343,106318,1,4,0:3:0:0:
362,134,106532,2,0,P|304:98|238:111,1,137.5,0|2,1:0|0:0,0:0:0:0:
213,248,106961,2,0,P|270:283|336:270,1,137.5,2|2,0:0|0:0,0:0:0:0:
74,157,107389,6,0,L|99:306,1,137.5,4|4,0:3|0:3,0:0:0:0:
125,84,107711,2,0,L|103:220,1,137.5,4|4,0:3|0:3,0:0:0:0:
154,157,108032,1,4,0:3:0:0:
336,270,108247,2,0,B|327:215|327:215|332:185|332:185|324:134,1,137.5,0|0,1:0|0:0,0:0:0:0:
442,303,108675,2,0,B|432:241|432:241|441:189|441:189|426:99,1,206.25,2|0,0:0|0:0,0:0:0:0:
352,55,109104,5,4,0:3:0:0:
336,270,109318,1,4,0:3:0:0:
195,22,109532,1,4,0:3:0:0:
229,235,109746,1,4,0:3:0:0:
65,68,109961,2,0,L|57:223,1,137.5,0|2,1:0|0:0,0:0:0:0:
195,22,110389,1,2,0:0:0:0:
172,269,110604,1,4,3:0:0:0:
172,269,110711,1,4,3:0:0:0:
172,269,110818,5,0,1:0:0:0:
216,260,110925,1,0,1:0:0:0:
260,251,111032,1,8,0:3:0:0:
304,242,111139,1,8,0:3:0:0:
347,233,111247,2,0,P|385:216|415:178,1,68.75,4|4,0:3|0:3,0:0:0:0:
510,125,111461,5,0,1:0:0:0:
466,116,111568,1,0,1:0:0:0:
422,107,111675,1,8,0:3:0:0:
378,98,111782,1,8,0:3:0:0:
335,89,111890,2,0,P|297:72|267:34,1,68.75,4|4,0:3|0:3,0:0:0:0:
164,171,112104,5,4,3:3:0:0:
186,166,112211,1,0,3:0:0:0:
208,162,112318,1,0,3:0:0:0:
230,157,112425,1,0,3:0:0:0:
252,153,112533,5,4,1:0:0:0:
65,105,112747,1,4,0:3:0:0:
204,319,112961,1,4,0:3:0:0:
17,271,113175,1,4,0:3:0:0:
92,29,113389,2,0,P|145:110|83:183,1,206.25,0|2,1:0|0:0,0:0:0:0:
65,105,113818,1,0,0:0:0:0:
278,53,114032,1,2,0:0:0:0:
172,242,114247,6,0,L|317:223,1,137.5,4|4,1:0|0:3,0:0:0:0:
246,281,114568,2,0,L|101:262,1,137.5,4|4,0:3|0:3,0:0:0:0:
83,183,114889,1,4,0:3:0:0:
306,93,115104,2,0,B|325:124|325:124|307:230,1,137.5,0|2,1:0|0:0,0:0:0:0:
443,47,115532,2,0,B|471:93|471:93|446:243,1,206.25,2|0,0:0|0:0,0:0:0:0:
429,327,115961,5,4,1:0:0:0:
256,352,116175,1,4,0:3:0:0:
308,223,116389,1,4,0:3:0:0:
135,198,116603,1,4,0:3:0:0:
214,5,116818,2,0,L|227:141,1,137.5,0|2,1:0|0:0,0:0:0:0:
122,334,117247,2,0,L|135:197,1,137.5,2|2,0:0|0:0,0:0:0:0:
313,72,117675,6,0,B|327:75|344:56|344:56|404:56|425:105,1,137.5,4|4,1:0|0:3,0:0:0:0:
268,67,117997,2,0,B|275:79|301:78|301:78|343:120|324:169,1,137.5,4|4,0:3|0:3,0:0:0:0:
220,62,118318,1,4,0:3:0:0:
315,264,118532,2,0,L|389:254,1,68.75,0|0,1:0|1:0,0:0:0:0:
448,193,118747,1,4,0:3:0:0:
165,269,118961,2,0,L|301:287,1,137.5,4|4,0:3|0:3,0:0:0:0:
96,144,119389,5,4,0:3:0:0:
320,86,119604,1,4,0:3:0:0:
240,250,119818,1,4,0:3:0:0:
182,26,120033,1,4,0:3:0:0:
75,235,120247,2,0,B|80:123|80:123|95:143,1,137.5,0|2,1:0|0:0,0:0:0:0:
182,26,120675,2,0,B|197:5|197:5|202:117,1,137.5,2|2,0:0|0:0,0:0:0:0:
140,297,121104,6,0,P|75:326|12:301,1,137.5,4|4,0:3|0:3,0:0:0:0:
173,254,121425,2,0,P|244:255|290:303,1,137.5,4|4,0:3|0:3,0:0:0:0:
209,333,121747,1,4,0:3:0:0:
404,263,121961,2,0,B|410:207|410:207|419:191|419:191|426:128,1,137.5,0|2,1:0|0:0,0:0:0:0:
264,229,122389,2,0,B|271:160|271:160|286:133|286:133|298:27,1,206.25,2|0,0:0|0:0,0:0:0:0:
378,4,122818,5,4,1:0:0:0:
177,94,123032,1,4,0:3:0:0:
425,128,123247,1,4,0:3:0:0:
180,225,123461,1,4,0:3:0:0:
425,128,123675,2,0,B|439:264,1,137.5,0|2,1:0|0:0,0:0:0:0:
283,119,124104,1,2,0:0:0:0:
235,312,124318,2,0,P|203:324|169:327,1,68.75,4|4,0:3|0:3,0:0:0:0:
115,233,124532,5,0,1:0:0:0:
100,183,124639,1,0,1:0:0:0:
100,132,124746,1,8,0:3:0:0:
114,82,124853,1,8,0:3:0:0:
140,38,124961,2,0,L|208:68,1,68.75,4|4,0:3|0:3,0:0:0:0:
371,38,125175,5,0,1:0:0:0:
385,87,125282,1,0,1:0:0:0:
385,138,125389,1,8,0:3:0:0:
371,188,125496,1,8,0:3:0:0:
345,232,125604,2,0,L|277:202,1,68.75,4|4,0:3|0:3,0:0:0:0:
243,59,125818,5,4,3:0:0:0:
247,46,125925,1,0,3:0:0:0:
261,45,126032,1,0,3:0:0:0:
266,58,126140,1,0,3:0:0:0:
256,68,126247,5,4,3:1:0:0:
256,192,126354,12,0,131389,0:0:0:0:
