osu file format v14

[General]
AudioFilename: audio.mp3
AudioLeadIn: 0
PreviewTime: -1
Countdown: 1
SampleSet: Soft
StackLeniency: 0.7
Mode: 2
LetterboxInBreaks: 0
WidescreenStoryboard: 0

[Editor]
Bookmarks: 7394,22243,40121,65576,80121,87394,123758,138303,152849,167394,181940,189212,196485,211031,240121,254667,269212,298303,312849
DistanceSpacing: 0.6
BeatDivisor: 3
GridSize: 16
TimelineZoom: 2.599999

[Metadata]
Title:Gold Pilot
TitleUnicode:Gold Pilot
Artist:Tyler Durrdurdur
ArtistUnicode:Tyler Durrdurdur
Creator:Leherketa
Version:New hope
Source:coloUrs and mayhem
Tags:
BeatmapID:1953773
BeatmapSetID:935173

[Difficulty]
HPDrainRate:6
CircleSize:3.5
OverallDifficulty:8.3
ApproachRate:9
SliderMultiplier:3
SliderTickRate:2

[Events]
//Background and Video events
0,0,"homestuck-phone-wallpaper.jpg",0,0
//Break Periods
//Storyboard Layer 0 (Background)
//Storyboard Layer 1 (Fail)
//Storyboard Layer 2 (Pass)
//Storyboard Layer 3 (Foreground)
//Storyboard Layer 4 (Overlay)
//Storyboard Sound Samples

[TimingPoints]
22243,909.090909090909,3,2,0,100,1,0
51031,454.545454545455,4,2,0,100,1,0
123758,-66.6666666666667,4,2,0,100,0,0
138152,-83.3333333333333,4,2,0,100,0,0

[HitObjects]
224,192,22242,5,0,0:0:0:0:
352,192,22546,1,0,0:0:0:0:
224,192,22849,1,0,0:0:0:0:
224,112,24061,5,0,0:0:0:0:
112,112,24364,1,0,0:0:0:0:
336,112,24667,1,0,0:0:0:0:
112,112,25121,1,0,0:0:0:0:
224,208,25576,5,0,0:0:0:0:
320,208,25727,1,0,0:0:0:0:
224,208,25879,1,0,0:0:0:0:
320,208,26030,1,0,0:0:0:0:
224,208,26182,1,0,0:0:0:0:
128,160,26788,5,0,0:0:0:0:
16,160,26939,1,0,0:0:0:0:
128,160,27091,1,0,0:0:0:0:
16,160,27243,1,0,0:0:0:0:
128,160,27394,1,0,0:0:0:0:
240,240,27697,5,0,0:0:0:0:
400,240,28000,1,0,0:0:0:0:
240,240,28303,1,0,0:0:0:0:
480,240,28758,1,0,0:0:0:0:
256,192,29515,5,0,0:0:0:0:
352,144,30121,5,0,0:0:0:0:
432,144,30273,1,0,0:0:0:0:
512,144,30424,1,0,0:0:0:0:
272,80,31030,6,0,L|144:80,1,100
368,80,31636,1,0,0:0:0:0:
176,160,31939,1,0,0:0:0:0:
416,160,32394,1,0,0:0:0:0:
240,224,32849,5,0,0:0:0:0:
96,224,33000,1,0,0:0:0:0:
240,224,33152,1,0,0:0:0:0:
96,224,33303,1,0,0:0:0:0:
240,224,33455,1,0,0:0:0:0:
240,144,34061,5,0,0:0:0:0:
416,144,34212,1,0,0:0:0:0:
320,80,34364,1,0,0:0:0:0:
496,80,34515,1,0,0:0:0:0:
400,16,34667,1,0,0:0:0:0:
224,32,34970,5,0,0:0:0:0:
32,32,35273,1,0,0:0:0:0:
224,32,35576,1,0,0:0:0:0:
432,32,36030,1,0,0:0:0:0:
432,112,36788,5,0,0:0:0:0:
256,112,37091,1,0,0:0:0:0:
80,112,37394,1,0,0:0:0:0:
80,192,38000,1,0,0:0:0:0:
368,192,38303,1,0,0:0:0:0:
256,192,38909,5,0,0:0:0:0:
48,192,39212,1,0,0:0:0:0:
320,192,39667,1,0,0:0:0:0:
176,256,40121,6,0,L|80:256,1,50
368,256,40424,2,0,L|432:256,1,50
416,96,41030,6,0,L|336:96,1,50
80,96,41333,2,0,L|160:96,1,50
80,208,41939,2,0,L|144:208,1,50
400,208,42243,2,0,L|480:208,1,50
320,304,42849,5,0,0:0:0:0:
192,304,43000,1,0,0:0:0:0:
320,224,43152,1,0,0:0:0:0:
448,224,43303,1,0,0:0:0:0:
320,224,43455,1,0,0:0:0:0:
64,176,43758,5,0,0:0:0:0:
256,144,44212,1,0,0:0:0:0:
368,144,44363,1,0,0:0:0:0:
256,144,44515,1,0,0:0:0:0:
144,144,44666,1,0,0:0:0:0:
64,224,45273,5,0,0:0:0:0:
352,224,45576,1,0,0:0:0:0:
352,224,46485,1,0,0:0:0:0:
192,224,47394,1,0,0:0:0:0:
128,128,48303,6,0,L|0:128,1,100
336,128,48909,1,0,0:0:0:0:
480,128,49212,1,0,0:0:0:0:
480,128,50121,1,0,0:0:0:0:
96,128,50424,1,0,0:0:0:0:
224,128,51031,6,0,L|336:128,2,100
464,128,51485,1,0,0:0:0:0:
416,208,51940,1,0,0:0:0:0:
512,208,52243,1,0,0:0:0:0:
96,208,52546,1,0,0:0:0:0:
320,208,52849,5,0,0:0:0:0:
96,208,53303,1,0,0:0:0:0:
192,272,53758,1,0,0:0:0:0:
320,272,54061,1,0,0:0:0:0:
32,272,54364,1,0,0:0:0:0:
176,208,54667,5,0,0:0:0:0:
274,219,54818,1,0,0:0:0:0:
365,182,54970,1,0,0:0:0:0:
96,160,55121,1,0,0:0:0:0:
224,144,55576,5,0,0:0:0:0:
368,144,55879,1,0,0:0:0:0:
80,144,56182,1,0,0:0:0:0:
368,144,56485,1,0,0:0:0:0:
176,144,56940,1,0,0:0:0:0:
320,144,57394,6,0,L|448:144,2,100
192,144,57849,2,0,L|80:144,2,100
304,256,58303,6,0,L|416:256,1,100
240,320,58606,2,0,L|368:320,1,100
96,224,58909,2,0,L|-16:224,1,100
224,160,59212,2,0,L|352:160,2,100
100,112,59667,2,0,L|0:112,2,100
320,64,60121,5,0,0:0:0:0:
411,29,60272,1,0,0:0:0:0:
501,68,60424,1,0,0:0:0:0:
192,64,60576,5,0,0:0:0:0:
100,29,60727,1,0,0:0:0:0:
10,68,60879,1,0,0:0:0:0:
128,176,61031,5,0,0:0:0:0:
256,176,61182,1,0,0:0:0:0:
128,176,61334,1,0,0:0:0:0:
256,256,61485,5,0,0:0:0:0:
384,256,61637,1,0,0:0:0:0:
256,256,61788,1,0,0:0:0:0:
144,64,61940,6,0,L|32:64,1,100
299,125,62243,1,0,0:0:0:0:
464,128,62394,6,0,L|320:128,1,100
80,144,62697,1,0,0:0:0:0:
208,240,62849,2,0,L|308:240,2,100
308,240,63303,6,0,L|420:240,1,100
128,240,63606,1,0,0:0:0:0:
256,96,63758,6,0,L|384:96,2,100
150,94,64212,5,0,0:0:0:0:
331,151,64364,1,0,0:0:0:0:
150,158,64515,1,0,0:0:0:0:
208,224,64667,5,0,0:0:0:0:
304,224,64818,1,0,0:0:0:0:
208,224,64970,1,0,0:0:0:0:
368,224,65121,5,0,0:0:0:0:
144,224,65273,1,0,0:0:0:0:
368,224,65424,1,0,0:0:0:0:
288,304,65576,6,0,L|176:304,2,100
176,256,66031,1,0,0:0:0:0:
16,256,66182,1,0,0:0:0:0:
176,256,66334,1,0,0:0:0:0:
432,256,66485,6,0,L|544:256,1,100
432,176,66788,1,0,0:0:0:0:
256,176,66940,5,0,0:0:0:0:
180,176,67091,2,0,L|80:176,1,100
432,176,67394,6,0,L|304:176,1,100
192,112,67697,1,0,0:0:0:0:
96,48,67849,6,0,L|208:48,1,100
432,48,68152,1,0,0:0:0:0:
144,176,68303,6,0,L|32:176,1,100
384,176,68606,1,0,0:0:0:0:
288,256,68758,2,0,L|416:256,1,100
496,256,69061,1,0,0:0:0:0:
112,256,69212,6,0,L|0:256,1,100
320,176,69515,1,0,0:0:0:0:
400,176,69667,2,0,L|528:176,2,100
211,177,70121,5,0,0:0:0:0:
105,173,70272,1,0,0:0:0:0:
9,159,70424,1,0,0:0:0:0:
211,177,70576,5,0,0:0:0:0:
105,173,70727,1,0,0:0:0:0:
9,159,70879,1,0,0:0:0:0:
320,224,71031,5,0,0:0:0:0:
418,213,71182,1,0,0:0:0:0:
502,159,71334,1,0,0:0:0:0:
320,224,71485,5,0,0:0:0:0:
418,213,71636,1,0,0:0:0:0:
502,159,71788,1,0,0:0:0:0:
368,96,71940,6,0,L|256:96,2,100
196,163,72394,6,0,L|324:163,2,100
256,288,72849,2,0,L|384:288,1,100
176,288,73152,1,0,0:0:0:0:
96,192,73303,5,0,0:0:0:0:
16,192,73455,1,0,0:0:0:0:
96,192,73606,1,0,0:0:0:0:
256,64,73758,5,0,0:0:0:0:
346,105,73909,1,0,0:0:0:0:
437,147,74061,1,0,0:0:0:0:
288,288,74212,6,0,L|160:288,2,100
432,224,74667,2,0,L|560:224,2,100
144,128,75121,2,0,L|32:128,2,100
256,128,75576,5,0,0:0:0:0:
356,128,75727,1,0,0:0:0:0:
456,128,75879,1,0,0:0:0:0:
352,208,76031,6,0,L|224:208,2,100
448,272,76485,6,0,L|576:272,1,100
144,288,76788,1,0,0:0:0:0:
64,192,76940,5,0,0:0:0:0:
164,192,77091,1,0,0:0:0:0:
264,192,77243,1,0,0:0:0:0:
408,194,77394,5,0,0:0:0:0:
308,194,77545,1,0,0:0:0:0:
208,194,77697,1,0,0:0:0:0:
118,117,77849,6,0,L|6:117,2,100
288,112,78303,2,0,L|400:112,2,100
160,208,78758,5,0,0:0:0:0:
96,208,78909,1,0,0:0:0:0:
32,208,79061,1,0,0:0:0:0:
272,208,79212,5,0,0:0:0:0:
336,208,79364,1,0,0:0:0:0:
400,208,79515,1,0,0:0:0:0:
160,288,79667,2,0,L|32:288,2,100
160,288,80121,5,0,0:0:0:0:
304,320,80576,1,0,0:0:0:0:
341,318,80632,1,0,0:0:0:0:
377,309,80689,1,0,0:0:0:0:
410,291,80746,1,0,0:0:0:0:
439,267,80803,1,0,0:0:0:0:
461,237,80860,1,0,0:0:0:0:
476,203,80916,1,0,0:0:0:0:
484,166,80973,1,0,0:0:0:0:
224,96,81031,6,0,L|112:96,2,100
320,96,81485,1,0,0:0:0:0:
416,96,81637,2,0,L|544:96,1,100
416,176,81940,1,0,0:0:0:0:
256,176,82091,1,0,0:0:0:0:
336,176,82243,1,0,0:0:0:0:
208,304,82394,5,0,0:0:0:0:
170,307,82450,1,0,0:0:0:0:
133,301,82507,1,0,0:0:0:0:
99,287,82564,1,0,0:0:0:0:
68,265,82621,1,0,0:0:0:0:
43,237,82678,1,0,0:0:0:0:
26,204,82734,1,0,0:0:0:0:
17,168,82791,1,0,0:0:0:0:
304,80,82849,6,0,L|416:80,2,100
192,96,83303,2,0,P|64:128|16:288,1,300
112,288,83909,2,0,L|224:256,1,100
352,272,84212,2,0,P|464:256|512:144,1,225
480,96,84667,6,0,L|432:96,7,37.5
352,64,85121,6,0,L|240:64,1,100
400,176,85424,2,0,L|300:176,1,100
256,192,85727,12,0,87167,0:0:0:0:
272,176,87394,6,0,L|160:176,1,100
272,112,87697,2,0,L|416:112,1,100
272,288,88000,2,0,L|160:288,2,100
368,224,88455,5,0,0:0:0:0:
240,224,88606,1,0,0:0:0:0:
96,224,88758,1,0,0:0:0:0:
448,224,88909,1,0,0:0:0:0:
247,148,89212,1,0,0:0:0:0:
391,147,89515,5,0,0:0:0:0:
48,144,89667,1,8,0:0:0:0:
144,80,90121,5,0,0:0:0:0:
368,80,90424,1,0,0:0:0:0:
448,80,90727,1,0,0:0:0:0:
384,160,90955,1,0,0:0:0:0:
128,160,91031,6,0,L|16:160,2,100
224,160,91485,1,0,0:0:0:0:
352,160,91637,1,0,0:0:0:0:
256,240,91940,1,0,0:0:0:0:
144,240,92243,2,0,L|32:240,2,100
272,240,92697,5,0,0:0:0:0:
384,240,92849,1,0,0:0:0:0:
477,110,93152,5,0,0:0:0:0:
198,106,93303,1,0,0:0:0:0:
114,184,93455,2,0,L|-11:207,2,100
225,174,93909,1,0,0:0:0:0:
345,172,94060,1,0,0:0:0:0:
467,259,94212,2,0,L|341:256,1,100
265,313,94515,2,0,L|372:311,1,100
183,133,94970,5,0,0:0:0:0:
65,133,95121,1,0,0:0:0:0:
250,184,95576,1,0,0:0:0:0:
408,184,95728,1,0,0:0:0:0:
250,184,95879,1,0,0:0:0:0:
131,142,96031,6,0,L|55:63,1,100
63,5,96334,1,0,0:0:0:0:
299,7,96485,1,0,0:0:0:0:
468,10,96788,1,0,0:0:0:0:
385,12,96940,1,0,0:0:0:0:
299,7,97091,1,0,0:0:0:0:
468,10,97394,1,0,0:0:0:0:
320,85,97546,6,0,L|208:79,1,100
70,48,97849,1,0,0:0:0:0:
302,159,98000,1,0,0:0:0:0:
217,161,98303,5,0,0:0:0:0:
57,160,98455,1,0,0:0:0:0:
217,161,98606,1,0,0:0:0:0:
57,160,98758,1,0,0:0:0:0:
217,161,98909,1,0,0:0:0:0:
252,79,99212,5,0,0:0:0:0:
324,79,99515,1,0,0:0:0:0:
146,73,99666,1,0,0:0:0:0:
262,161,99818,1,0,0:0:0:0:
81,151,99969,1,0,0:0:0:0:
458,165,100121,1,0,0:0:0:0:
352,256,100273,6,0,L|352:144,1,100
81,151,100576,1,8,0:0:0:0:
224,192,100727,2,0,L|144:256,1,100
416,256,101031,5,8,0:0:0:0:
288,256,101334,1,0,0:0:0:0:
48,240,101637,1,0,0:0:0:0:
176,176,101788,5,0,0:0:0:0:
225,170,101863,1,0,0:0:0:0:
275,164,101939,1,0,0:0:0:0:
432,192,102243,6,0,L|304:192,1,100
256,256,102546,2,0,L|464:256,1,200
336,320,103152,1,0,0:0:0:0:
448,320,103303,1,0,0:0:0:0:
16,320,103455,1,0,0:0:0:0:
272,192,103758,5,0,0:0:0:0:
368,192,104061,1,0,0:0:0:0:
96,192,104212,2,0,L|-16:192,2,100
432,112,104667,1,0,0:0:0:0:
16,112,104970,1,0,0:0:0:0:
192,112,105273,1,0,0:0:0:0:
304,112,105576,6,0,L|416:112,1,100
304,176,105879,2,0,L|176:176,1,100
480,176,106182,1,0,0:0:0:0:
256,256,106485,1,0,0:0:0:0:
128,256,106788,6,0,L|16:256,1,100
432,256,107091,2,0,L|544:256,1,100
256,192,107394,1,0,0:0:0:0:
160,128,107697,6,0,L|48:128,1,100
112,64,108000,2,0,L|224:64,1,100
336,64,108303,1,0,0:0:0:0:
448,64,108606,1,0,0:0:0:0:
128,64,108909,1,0,0:0:0:0:
32,144,109061,2,0,L|-48:144,2,50
176,144,109515,6,0,L|304:144,1,100
384,144,109818,1,0,0:0:0:0:
432,144,109970,1,0,0:0:0:0:
484,144,110121,2,0,L|356:144,2,100
416,224,110576,5,0,0:0:0:0:
316,230,110727,1,0,0:0:0:0:
216,236,110879,1,0,0:0:0:0:
320,160,111031,6,0,L|128:64,2,200
112,176,111940,1,0,0:0:0:0:
256,176,112243,2,0,L|400:176,1,100
256,256,112849,5,0,0:0:0:0:
96,256,113001,1,0,0:0:0:0:
192,192,113152,1,0,0:0:0:0:
32,192,113304,1,0,0:0:0:0:
144,128,113455,1,0,0:0:0:0:
416,64,113758,5,0,0:0:0:0:
384,64,114061,1,0,0:0:0:0:
224,64,114212,1,0,0:0:0:0:
320,128,114364,1,0,0:0:0:0:
144,128,114515,1,0,0:0:0:0:
496,144,114667,1,8,0:0:0:0:
400,224,114970,6,0,L|144:224,2,200
256,240,116031,5,0,0:0:0:0:
160,192,116334,1,0,0:0:0:0:
112,176,116409,1,0,0:0:0:0:
65,160,116485,1,0,0:0:0:0:
192,80,116788,6,0,L|320:80,1,100
336,80,117091,2,0,L|336:192,1,100
208,176,117394,1,0,0:0:0:0:
448,176,117697,5,0,0:0:0:0:
128,176,117849,2,0,L|16:176,1,100
208,176,118152,2,0,L|320:176,1,100
400,112,118606,1,0,0:0:0:0:
80,112,118758,2,0,L|160:32,1,100
320,48,119212,5,0,0:0:0:0:
64,48,119515,1,0,0:0:0:0:
160,48,119818,1,0,0:0:0:0:
368,128,120121,6,0,L|256:128,2,100
80,128,120576,1,0,0:0:0:0:
16,240,121031,1,0,0:0:0:0:
304,240,121334,1,0,0:0:0:0:
432,160,121485,5,0,0:0:0:0:
64,144,121637,1,0,0:0:0:0:
176,128,121788,2,0,L|304:128,1,100
128,208,122091,6,0,L|28:208,1,100
432,208,122394,1,0,0:0:0:0:
320,208,122546,1,0,0:0:0:0:
224,144,122697,2,0,L|324:144,1,100
432,144,123000,1,0,0:0:0:0:
64,144,123152,1,0,0:0:0:0:
352,144,123303,1,0,0:0:0:0:
256,192,123758,5,0,0:0:0:0:
80,192,124212,1,0,0:0:0:0:
256,192,124667,2,0,L|432:192,2,150.000005722046
128,192,125121,1,0,0:0:0:0:
64,80,125576,5,0,0:0:0:0:
112,80,125879,1,0,0:0:0:0:
432,80,126031,1,0,0:0:0:0:
288,144,126485,1,0,0:0:0:0:
432,192,126788,1,0,0:0:0:0:
64,192,126940,1,0,0:0:0:0:
176,192,127394,5,0,0:0:0:0:
304,192,127849,1,0,0:0:0:0:
176,288,128303,2,0,L|0:272,2,150.000005722046
304,288,128758,2,0,L|480:288,1,150.000005722046
96,208,129061,1,0,0:0:0:0:
16,208,129212,1,0,0:0:0:0:
96,80,129515,5,0,0:0:0:0:
432,80,129667,1,0,0:0:0:0:
368,48,130121,1,0,0:0:0:0:
144,192,130424,2,0,L|336:192,1,150.000005722046
336,96,131031,5,0,0:0:0:0:
384,192,131334,2,0,L|496:64,1,150.000005722046
288,64,131940,1,0,0:0:0:0:
112,64,132091,1,0,0:0:0:0:
288,64,132243,1,0,0:0:0:0:
112,64,132394,1,0,0:0:0:0:
160,192,132849,5,0,0:0:0:0:
80,288,133152,1,0,0:0:0:0:
448,304,133303,1,0,0:0:0:0:
272,208,133758,1,0,0:0:0:0:
432,144,134061,1,0,0:0:0:0:
64,144,134212,1,0,0:0:0:0:
336,128,134667,5,0,0:0:0:0:
192,128,135121,1,0,0:0:0:0:
144,224,135576,2,0,L|304:224,1,150.000005722046
128,144,135879,1,0,0:0:0:0:
400,144,136031,1,0,0:0:0:0:
384,80,136485,5,0,0:0:0:0:
112,80,136788,1,0,0:0:0:0:
64,176,137394,1,0,0:0:0:0:
464,176,137697,1,0,0:0:0:0:
240,176,138000,1,0,0:0:0:0:
256,112,138303,6,0,L|368:48,1,119.999996337891
208,48,138606,2,0,L|64:48,2,119.999996337891
304,48,139061,1,0,0:0:0:0:
208,144,139212,2,0,L|80:192,1,119.999996337891
320,144,139515,2,0,L|448:144,1,119.999996337891
256,208,139818,2,0,L|384:208,1,119.999996337891
160,80,140121,6,0,L|48:128,1,119.999996337891
384,80,140424,1,0,0:0:0:0:
304,144,140576,2,0,L|448:144,2,119.999996337891
192,224,141031,6,0,L|64:224,1,119.999996337891
192,144,141334,2,0,L|312:144,1,119.999996337891
192,80,141637,2,0,L|48:80,1,119.999996337891
48,80,141826,1,0,0:0:0:0:
352,64,141940,2,0,L|512:64,2,119.999996337891
80,144,142394,1,0,0:0:0:0:
144,208,142546,2,0,L|0:208,1,119.999996337891
304,272,142849,6,0,L|448:272,1,119.999996337891
304,192,143152,2,0,L|176:192,1,119.999996337891
64,128,143455,2,0,L|192:128,1,119.999996337891
448,64,143758,6,0,L|320:64,1,119.999996337891
64,64,144061,2,0,L|208:64,1,119.999996337891
368,144,144364,2,0,L|224:144,1,119.999996337891
112,208,144667,5,0,0:0:0:0:
288,208,144818,1,0,0:0:0:0:
160,272,144970,1,0,0:0:0:0:
336,272,145121,1,0,0:0:0:0:
32,288,145273,2,0,L|160:288,1,119.999996337891
256,192,145576,6,0,L|128:192,1,119.999996337891
400,80,145879,2,0,L|280:80,1,119.999996337891
96,112,146182,2,0,L|16:16,1,119.999996337891
176,80,146485,5,0,0:0:0:0:
368,80,146637,1,0,0:0:0:0:
272,80,146788,1,0,0:0:0:0:
16,80,146940,1,0,0:0:0:0:
352,208,147091,2,0,L|480:160,1,119.999996337891
288,208,147394,6,0,L|160:208,1,119.999996337891
48,240,147697,2,0,L|208:240,1,119.999996337891
288,144,148000,2,0,L|128:144,1,119.999996337891
384,80,148303,2,0,L|224:80,2,119.999996337891
64,80,148758,2,0,L|192:80,2,119.999996337891
48,80,149099,1,0,0:0:0:0:
288,144,149212,6,0,L|416:144,1,119.999996337891
208,144,149515,2,0,L|88:144,1,119.999996337891
288,64,149818,1,0,0:0:0:0:
144,64,149970,1,0,0:0:0:0:
432,240,150121,6,0,L|288:256,1,119.999996337891
64,240,150424,2,0,L|208:240,2,119.999996337891
144,176,150879,1,0,0:0:0:0:
304,160,151031,6,0,L|432:160,2,119.999996337891
192,160,151485,1,0,0:0:0:0:
96,96,151637,2,0,L|240:96,1,119.999996337891
368,96,151940,1,0,0:0:0:0:
192,96,152091,1,0,0:0:0:0:
448,96,152243,1,0,0:0:0:0:
80,96,152394,1,0,0:0:0:0:
432,160,152546,1,0,0:0:0:0:
128,176,152697,1,0,0:0:0:0:
336,80,152849,6,0,L|512:80,2,119.999996337891
224,80,153303,1,0,0:0:0:0:
112,80,153455,1,0,0:0:0:0:
0,80,153606,1,0,0:0:0:0:
112,160,153758,6,0,L|256:160,2,119.999996337891
192,96,154212,1,0,0:0:0:0:
320,96,154364,1,0,0:0:0:0:
448,96,154515,1,0,0:0:0:0:
256,208,154667,6,0,L|112:208,1,119.999996337891
400,208,154970,1,0,0:0:0:0:
480,208,155121,1,0,0:0:0:0:
160,128,155273,1,0,0:0:0:0:
80,128,155424,1,0,0:0:0:0:
368,64,155576,2,0,L|496:64,2,119.999996337891
192,64,156031,5,0,0:0:0:0:
304,64,156182,1,0,0:0:0:0:
368,64,156334,1,0,0:0:0:0:
432,64,156485,5,0,0:0:0:0:
288,128,156637,1,0,0:0:0:0:
432,128,156788,1,0,0:0:0:0:
288,192,156940,1,0,0:0:0:0:
432,192,157091,1,0,0:0:0:0:
352,256,157243,5,0,0:0:0:0:
232,256,157394,1,0,0:0:0:0:
112,256,157546,1,0,0:0:0:0:
352,48,157697,5,0,0:0:0:0:
464,48,157849,1,0,0:0:0:0:
304,112,158000,1,0,0:0:0:0:
416,112,158152,1,0,0:0:0:0:
256,160,158303,1,0,0:0:0:0:
144,240,158606,6,0,L|16:240,1,119.999996337891
208,160,158909,1,0,0:0:0:0:
320,160,159061,1,0,0:0:0:0:
96,160,159212,1,0,0:0:0:0:
208,288,159364,5,0,0:0:0:0:
272,288,159515,1,0,0:0:0:0:
48,288,159667,1,0,0:0:0:0:
128,224,159818,2,0,L|0:224,1,119.999996337891
272,208,160121,5,0,0:0:0:0:
336,208,160273,1,0,0:0:0:0:
400,208,160424,1,0,0:0:0:0:
128,160,160576,2,0,L|16:80,2,119.999996337891
240,160,161031,5,0,0:0:0:0:
384,160,161182,1,0,0:0:0:0:
240,160,161334,1,0,0:0:0:0:
144,96,161485,2,0,L|16:80,1,119.999996337891
112,32,161788,5,0,0:0:0:0:
432,32,161940,1,0,0:0:0:0:
352,96,162091,2,0,L|224:96,1,119.999996337891
336,160,162394,2,0,L|464:160,1,119.999996337891
368,224,162697,1,0,0:0:0:0:
48,224,162849,1,0,0:0:0:0:
144,160,163000,6,0,L|272:160,2,119.999996337891
432,160,163455,1,0,0:0:0:0:
496,160,163606,1,0,0:0:0:0:
176,80,163758,1,0,0:0:0:0:
