osu file format v14

[General]
AudioFilename: TwoThirds-Bring it Back (www.myfree.cc).mp3
AudioLeadIn: 0
PreviewTime: 89997
Countdown: 0
SampleSet: Normal
StackLeniency: 0.7
Mode: 0
LetterboxInBreaks: 0
WidescreenStoryboard: 0

[Editor]
Bookmarks: 22238,34652,40170,45687,62238,67756,89825,111894,133963,150514,156032
DistanceSpacing: 1
BeatDivisor: 2
GridSize: 4
TimelineZoom: 1

[Metadata]
Title:Bring it Back
TitleUnicode:Bring it Back
Artist:TwoThirds
ArtistUnicode:TwoThirds
Creator:RyoKazuka
Version:Normal
Source:
Tags:DnB drum and bass chill electronic 006 embrace monstercat cut version
BeatmapID:737128
BeatmapSetID:333019

[Difficulty]
HPDrainRate:3.5
CircleSize:3.4
OverallDifficulty:4
ApproachRate:5
SliderMultiplier:1.3
SliderTickRate:1

[Events]
//Background and Video events
0,0,"1874845.jpg",0,0
//Break Periods
2,45887,61038
2,112238,116211
//Storyboard Layer 0 (Background)
//Storyboard Layer 1 (Fail)
//Storyboard Layer 2 (Pass)
//Storyboard Layer 3 (Foreground)
//Storyboard Sound Samples

[TimingPoints]
170,344.827586206897,4,2,1,30,1,0
170,-133.333333333333,4,2,1,30,0,0
1549,344.827586206897,4,2,1,30,1,0
1549,-133.333333333333,4,2,1,30,0,0
22238,-133.333333333333,4,1,1,60,0,0
45686,-133.333333333333,4,2,1,60,0,0
67755,-133.333333333333,4,1,1,60,0,1
89824,-133.333333333333,4,1,1,60,0,0
90169,-133.333333333333,4,1,1,60,0,1
111893,-133.333333333333,4,1,1,60,0,0
117411,-133.333333333333,4,1,1,50,0,0
150514,-133.333333333333,4,1,1,35,0,0
151893,-133.333333333333,4,1,1,40,0,0
153273,-133.333333333333,4,1,1,45,0,0
154652,-133.333333333333,4,1,1,50,0,0
156031,-133.333333333333,4,1,1,55,0,0

[Colours]
Combo1 : 128,255,255
Combo2 : 0,128,192
Combo3 : 107,182,182
Combo4 : 128,255,128

[HitObjects]
68,107,170,6,0,L|183:103,1,97.50000371933,2|2,0:0|0:0,0:0:0:0:
254,144,859,2,0,L|351:147,1,97.50000371933,2|2,0:0|0:0,0:0:0:0:
438,192,1549,6,0,P|446:288|432:341,2,146.250005578995,6|2|2,0:0|0:0|0:0,0:0:0:0:
351,147,2928,2,0,L|190:149,1,146.250005578995,2|2,0:0|0:0,0:0:0:0:
64,107,3963,1,2,0:0:0:0:
17,192,4307,6,0,P|56:323|198:289,1,292.50001115799,2|0,0:0|0:0,0:0:0:0:
278,271,5687,2,0,P|338:258|386:262,1,97.50000371933,2|2,0:0|0:0,0:0:0:0:
413,170,6376,2,0,P|364:170|317:158,1,97.50000371933,2|2,0:0|0:0,0:0:0:0:
287,65,7066,6,0,L|433:60,2,146.250005578995,2|2|2,0:0|0:0|0:0,0:0:0:0:
203,115,8445,2,0,P|109:127|56:83,1,146.250005578995,2|2,0:0|0:0,0:0:0:0:
9,234,9480,1,2,0:0:0:0:
87,291,9825,6,0,P|188:297|376:337,1,292.50001115799,2|0,0:0|0:0,0:0:0:0:
414,247,11204,2,0,P|353:228|306:218,1,97.50000371933,2|2,0:0|0:0,0:0:0:0:
269,135,11894,2,0,P|316:127|365:125,1,97.50000371933,2|2,0:0|0:0,0:0:0:0:
461,143,12583,6,0,P|429:53|360:29,2,146.250005578995,2|2|2,0:0|0:0|0:0,0:0:0:0:
397,217,13963,2,0,B|305:238|305:238|230:223,1,146.250005578995,2|2,0:0|0:0,0:0:0:0:
116,178,14997,1,2,0:0:0:0:
170,97,15342,6,0,B|311:59|311:129|462:97,1,292.50001115799,2|0,0:0|0:0,0:0:0:0:
434,192,16721,2,0,P|412:237|417:294,1,97.50000371933,2|2,0:0|0:0,0:0:0:0:
330,334,17411,2,0,L|313:218,1,97.50000371933,2|2,0:0|0:0,0:0:0:0:
221,213,18101,6,0,P|128:224|74:175,2,146.250005578995,2|2|2,0:0|0:0|0:0,0:0:0:0:
296,150,19480,2,0,P|389:139|443:188,1,146.250005578995,2|2,0:0|0:0,0:0:0:0:
507,289,20514,1,2,0:0:0:0:
411,306,20859,6,0,B|266:330|266:330|128:282,1,292.50001115799,2|0,0:0|0:0,0:0:0:0:
74,201,22238,2,0,L|66:138,3,48.750001859665,2|8|2|8,0:0|0:0|0:0|0:0,0:0:0:0:
99,115,22928,2,0,L|107:52,3,48.750001859665,2|8|2|8,0:0|0:0|0:0|0:0,0:0:0:0:
153,59,23618,6,0,P|246:85|346:47,1,195.00000743866,2|10,0:0|2:0,0:0:0:0:
422,9,24652,1,2,0:0:0:0:
415,106,24997,2,0,L|408:269,1,146.250005578995,2|2,0:0|0:0,0:0:0:0:
284,330,26032,1,2,0:0:0:0:
188,309,26376,6,0,B|142:293|91:311|91:311|113:255|94:204,1,195.00000743866,2|8,0:0|2:0,0:0:0:0:
60,126,27411,1,0,0:0:0:0:
138,68,27756,2,0,L|365:58,1,195.00000743866,2|10,0:0|2:0,0:0:0:0:
410,118,28790,1,0,0:0:0:0:
437,211,29135,6,0,P|420:301|327:339,1,195.00000743866,2|8,0:0|2:0,0:0:0:0:
144,287,30514,2,0,P|51:277|-2:326,2,146.250005578995,2|2|2,0:0|0:0|0:0,0:0:0:0:
237,314,31894,6,0,L|226:109,1,195.00000743866,2|8,0:0|2:0,0:0:0:0:
288,43,32928,1,0,0:0:0:0:
372,92,33273,2,0,B|428:172|428:172|399:278,1,195.00000743866,2|8,0:0|2:0,0:0:0:0:
212,312,34652,6,0,P|118:309|68:207,1,195.00000743866,2|10,0:0|2:0,0:0:0:0:
69,181,35514,1,2,0:0:0:0:
73,132,35687,2,0,L|158:133,1,48.750001859665,2|2,0:0|0:0,0:0:0:0:
166,151,36032,2,0,P|237:161|281:152,1,97.50000371933,2|0,0:0|0:0,0:0:0:0:
354,126,36721,2,0,L|424:120,1,48.750001859665,10|2,2:0|0:0,0:0:0:0:
445,144,37066,2,0,P|452:170|450:210,1,48.750001859665,2|2,0:0|0:0,0:0:0:0:
438,238,37411,6,0,L|235:256,1,195.00000743866,2|8,0:0|2:0,0:0:0:0:
74,158,38790,2,0,P|156:117|265:164,1,195.00000743866,2|10,0:0|2:0,0:0:0:0:
326,208,39825,1,0,0:0:0:0:
402,268,40170,6,0,P|316:305|234:237,1,195.00000743866,2|10,0:0|2:0,0:0:0:0:
151,210,41204,2,0,L|143:266,1,48.750001859665,0|0,0:0|0:0,0:0:0:0:
96,269,41549,2,2,P|71:206|182:135,1,195.00000743866,2|10,0:0|2:0,0:0:0:0:
250,121,42583,1,0,0:0:0:0:
347,127,42928,6,0,L|411:138,3,48.750001859665,2|0|0|0,0:0|0:0|0:0|0:0,0:0:0:0:
425,173,43618,2,0,P|429:202|423:234,3,48.750001859665,10|0|0|0,0:0|0:0|0:0|0:0,0:0:0:0:
387,250,44307,2,0,P|328:264|261:249,1,97.50000371933,2|2,0:0|0:0,0:0:0:0:
203,218,44997,2,0,P|154:214|107:228,1,97.50000371933,2|2,0:0|0:0,0:0:0:0:
164,308,45687,5,6,0:0:0:0:
256,192,62238,12,4,67066,0:0:0:0:
299,282,67755,6,0,L|327:81,1,195.00000743866,4|0,0:0|0:0,0:0:0:0:
284,62,68617,1,0,0:0:0:0:
241,38,68790,2,0,P|207:28|175:26,1,48.750001859665,0|8,0:0|0:0,0:0:0:0:
106,66,69307,2,0,L|97:142,1,48.750001859665,0|8,0:0|0:0,0:0:0:0:
82,210,69825,2,0,P|54:216|19:212,2,48.750001859665,0|0|8,0:0|0:0|0:0,0:0:0:0:
129,198,70342,1,0,0:0:0:0:
176,186,70514,6,0,L|355:199,2,146.250005578995,0|0|8,0:0|0:0|0:0,0:0:0:0:
234,107,71894,2,0,L|446:122,1,195.00000743866,0|0,0:0|0:0,0:0:0:0:
494,192,72928,1,8,0:0:0:0:
428,263,73273,6,0,L|234:277,1,195.00000743866,4|0,0:0|0:0,0:0:0:0:
189,257,74135,1,0,0:0:0:0:
146,234,74307,2,0,P|138:188|144:158,1,48.750001859665,0|8,0:0|0:0,0:0:0:0:
204,114,74825,2,0,P|202:89|196:66,1,48.750001859665,0|8,0:0|0:0,0:0:0:0:
285,26,75342,2,0,L|349:23,1,48.750001859665,0|0,0:0|0:0,0:0:0:0:
380,37,75687,2,0,P|389:62|380:109,1,48.750001859665,8|0,0:0|0:0,0:0:0:0:
374,130,76032,6,0,L|381:285,2,146.250005578995,0|0|8,0:0|0:0|0:0,0:0:0:0:
281,159,77411,2,0,P|213:180|157:146,1,97.50000371933,0|8,0:0|0:0,0:0:0:0:
145,152,77928,1,0,0:0:0:0:
100,130,78101,2,0,L|105:195,1,48.750001859665,0|0,0:0|0:0,0:0:0:0:
75,218,78445,1,8,0:0:0:0:
102,312,78790,6,0,P|183:358|298:319,1,195.00000743866,4|0,0:0|0:0,0:0:0:0:
316,306,79652,1,0,0:0:0:0:
352,273,79825,2,0,L|342:194,1,48.750001859665,0|8,0:0|0:0,0:0:0:0:
282,150,80342,2,0,L|288:101,1,48.750001859665,0|8,0:0|0:0,0:0:0:0:
220,31,80859,2,0,L|148:27,2,48.750001859665,0|0|8,0:0|0:0|0:0,0:0:0:0:
268,22,81376,1,0,0:0:0:0:
315,11,81549,6,0,L|481:22,2,146.250005578995,0|0|8,0:0|0:0|0:0,0:0:0:0:
350,101,82928,2,0,P|393:186|331:274,1,195.00000743866,0|0,0:0|0:0,0:0:0:0:
295,182,83963,1,8,0:0:0:0:
243,99,84307,6,0,P|197:180|240:263,1,195.00000743866,4|0,0:0|0:0,0:0:0:0:
275,298,85170,1,0,0:0:0:0:
314,327,85342,2,0,L|400:327,1,48.750001859665,0|8,0:0|0:0,0:0:0:0:
435,262,85859,2,0,P|443:230|439:199,1,48.750001859665,0|8,0:0|0:0,0:0:0:0:
404,124,86376,2,0,B|374:115|374:115|341:120,1,48.750001859665,0|0,0:0|0:0,0:0:0:0:
312,138,86721,2,0,B|294:140|294:140|264:131,1,48.750001859665,8|0,0:0|0:0,0:0:0:0:
219,113,87066,6,0,L|231:298,2,146.250005578995,0|0|8,0:0|0:0|0:0,0:0:0:0:
132,67,88445,2,0,P|64:73|32:109,1,97.50000371933,2|10,0:0|0:0,0:0:0:0:
32,138,88963,1,0,0:0:0:0:
20,185,89135,2,0,L|22:256,1,48.750001859665,2|0,0:0|0:0,0:0:0:0:
51,272,89480,2,0,P|78:282|118:278,1,48.750001859665,10|0,0:0|0:0,0:0:0:0:
145,273,89825,6,0,P|212:267|270:279,1,97.50000371933,2|8,0:0|0:0,0:0:0:0:
336,294,90514,1,2,0:0:0:0:
336,294,90687,2,0,P|330:327|334:364,2,48.750001859665,2|10|2,0:0|0:0|0:0,0:0:0:0:
372,261,91204,2,0,L|352:92,1,146.250005578995,2|2,0:0|0:0,0:0:0:0:
279,53,92066,1,0,0:0:0:0:
279,53,92238,2,0,L|208:48,1,48.750001859665,10|0,0:0|0:0,0:0:0:0:
182,59,92583,6,0,P|151:115|165:198,2,146.250005578995,2|0|8,0:0|0:0|0:0,0:0:0:0:
279,53,93963,2,0,L|389:58,1,97.50000371933,2|8,0:0|0:0,0:0:0:0:
415,86,94480,1,0,0:0:0:0:
452,116,94652,2,0,L|454:189,1,48.750001859665,2|0,0:0|0:0,0:0:0:0:
428,206,94997,2,0,L|426:279,1,48.750001859665,8|0,0:0|0:0,0:0:0:0:
396,293,95342,6,0,B|304:319|304:319|235:288,1,146.250005578995,2|0,0:0|0:0,0:0:0:0:
172,251,96204,2,0,P|169:288|164:315,2,48.750001859665,0|8|0,0:0|0:0|0:0,0:0:0:0:
193,207,96721,2,0,P|181:113|153:58,1,146.250005578995,2|2,0:0|0:0,0:0:0:0:
76,26,97583,1,0,0:0:0:0:
76,26,97756,2,0,L|80:108,1,48.750001859665,10|0,0:0|0:0,0:0:0:0:
70,122,98101,6,0,L|63:280,2,146.250005578995,2|0|8,0:0|0:0|0:0,0:0:0:0:
164,146,99480,2,0,P|228:164|286:137,1,97.50000371933,2|8,0:0|0:0,0:0:0:0:
346,118,100170,2,0,L|419:112,1,48.750001859665,2|0,0:0|0:0,0:0:0:0:
437,137,100514,2,0,P|442:162|441:200,1,48.750001859665,8|0,0:0|0:0,0:0:0:0:
423,230,100859,6,0,B|343:285|343:285|224:265,1,195.00000743866,2|2,0:0|0:0,0:0:0:0:
198,258,101721,1,2,0:0:0:0:
150,244,101894,2,0,P|116:238|68:241,1,48.750001859665,10|2,0:0|0:0,0:0:0:0:
53,239,102238,2,0,P|60:168|40:111,1,97.50000371933,2|8,0:0|0:0,0:0:0:0:
108,61,102928,2,0,P|142:67|175:67,1,48.750001859665,2|2,0:0|0:0,0:0:0:0:
205,67,103273,2,0,P|229:65|253:60,1,48.750001859665,10|2,0:0|0:0,0:0:0:0:
300,48,103618,6,0,B|290:145|290:145|308:195,2,146.250005578995,2|0|8,0:0|0:0|0:0,0:0:0:0:
392,18,104997,2,0,P|452:17|501:49,1,97.50000371933,2|8,0:0|0:0,0:0:0:0:
497,80,105514,1,0,0:0:0:0:
508,127,105687,2,0,L|504:192,1,48.750001859665,2|0,0:0|0:0,0:0:0:0:
477,216,106032,2,0,L|473:281,1,48.750001859665,8|0,0:0|0:0,0:0:0:0:
436,295,106376,6,0,P|346:319|251:239,1,195.00000743866,2|2,0:0|0:0,0:0:0:0:
196,196,107411,2,0,L|123:203,1,48.750001859665,8|0,0:0|0:0,0:0:0:0:
98,202,107756,2,0,P|82:140|96:101,1,97.50000371933,2|8,0:0|0:0,0:0:0:0:
175,60,108445,2,0,B|224:67|224:67|296:53,1,97.50000371933,2|8,0:0|0:0,0:0:0:0:
364,28,109135,6,0,L|366:88,3,48.750001859665,2|0|8|0,0:0|0:0|0:0|0:0,0:0:0:0:
354,124,109825,2,0,P|351:157|361:195,3,48.750001859665,2|0|8|0,0:0|0:0|0:0|0:0,0:0:0:0:
376,215,110514,2,0,P|306:215|260:261,1,97.50000371933,2|10,0:0|0:0,0:0:0:0:
251,265,111032,1,0,0:0:0:0:
217,299,111204,2,0,P|173:318|125:312,1,97.50000371933,2|2,0:0|0:0,0:0:0:0:
159,220,111894,5,6,0:0:0:0:
216,84,117411,6,0,P|312:116|343:105,1,97.50000371933,4|8,0:0|0:0,0:0:0:0:
447,85,118273,2,0,L|440:224,1,97.50000371933,0|8,0:0|0:0,0:0:0:0:
387,263,118963,2,0,P|361:266|323:264,1,48.750001859665,0|8,0:0|0:0,0:0:0:0:
242,281,119480,2,0,L|246:350,2,48.750001859665,0|0|8,0:0|0:0|0:0,0:0:0:0:
210,243,119997,1,0,0:0:0:0:
177,206,120170,5,0,0:0:0:0:
219,118,120514,2,0,L|261:79,1,48.750001859665,8|0,0:0|0:0,0:0:0:0:
312,164,121031,2,0,L|343:214,1,48.750001859665,0|8,0:0|0:0,0:0:0:0:
423,161,121549,2,0,P|414:67|319:26,1,195.00000743866,0|0,0:0|0:0,0:0:0:0:
256,86,122583,1,8,0:0:0:0:
180,24,122928,6,0,P|97:67|91:98,1,97.50000371933,4|8,0:0|0:0,0:0:0:0:
40,199,123790,2,0,L|164:195,1,97.50000371933,0|8,0:0|0:0,0:0:0:0:
220,247,124480,2,0,P|229:270|231:323,1,48.750001859665,0|8,0:0|0:0,0:0:0:0:
312,349,124997,2,0,P|316:324|324:302,1,48.750001859665,0|0,0:0|0:0,0:0:0:0:
352,261,125342,2,0,L|347:185,1,48.750001859665,8|0,0:0|0:0,0:0:0:0:
342,163,125687,6,0,P|437:172|490:135,2,146.250005578995,0|0|8,0:0|0:0|0:0,0:0:0:0:
264,103,127066,2,0,B|230:99|230:99|203:106|203:106|166:101,1,97.50000371933,0|8,0:0|0:0,0:0:0:0:
120,90,127583,1,0,0:0:0:0:
72,102,127756,2,0,L|74:186,1,48.750001859665,0|0,0:0|0:0,0:0:0:0:
95,194,128101,2,0,P|100:223|93:261,1,48.750001859665,8|0,0:0|0:0,0:0:0:0:
75,285,128445,6,0,L|215:284,1,97.50000371933,4|8,0:0|0:0,0:0:0:0:
309,335,129307,2,0,P|299:273|327:219,1,97.50000371933,0|8,0:0|0:0,0:0:0:0:
383,176,129997,2,0,L|380:89,1,48.750001859665,0|8,0:0|0:0,0:0:0:0:
435,45,130514,2,0,P|467:44|500:52,2,48.750001859665,0|0|8,0:0|0:0|0:0,0:0:0:0:
385,45,131032,1,0,0:0:0:0:
336,45,131204,5,0,0:0:0:0:
260,106,131549,2,0,L|265:173,1,48.750001859665,8|0,0:0|0:0,0:0:0:0:
340,214,132066,2,0,P|349:248|346:275,1,48.750001859665,0|8,0:0|0:0,0:0:0:0:
251,254,132583,2,0,L|30:241,1,195.00000743866,0|0,0:0|0:0,0:0:0:0:
10,328,133618,1,8,0:0:0:0:
99,366,133963,6,0,P|146:372|201:365,1,97.50000371933,4|8,0:0|0:0,0:0:0:0:
241,349,134480,2,0,P|288:343|343:350,1,97.50000371933,0|0,0:0|0:0,0:0:0:0:
383,364,134997,1,8,0:0:0:0:
427,277,135342,2,0,L|412:146,1,97.50000371933,0|8,0:0|0:0,0:0:0:0:
379,146,135859,1,0,0:0:0:0:
341,114,136032,2,0,P|305:106|262:104,1,48.750001859665,0|0,0:0|0:0,0:0:0:0:
244,103,136376,1,8,0:0:0:0:
153,139,136721,6,0,P|193:187|248:203,2,97.50000371933,0|8|0,0:0|0:0|0:0,0:0:0:0:
156,90,137583,1,0,0:0:0:0:
163,41,137756,2,0,L|230:35,1,48.750001859665,8|0,0:0|0:0,0:0:0:0:
260,36,138101,2,0,L|411:50,2,146.250005578995,0|0|8,0:0|0:0|0:0,0:0:0:0:
312,118,139480,6,0,L|435:130,1,97.50000371933,4|8,0:0|0:0,0:0:0:0:
445,160,139997,2,0,P|457:215|444:267,1,97.50000371933,0|0,0:0|0:0,0:0:0:0:
421,294,140514,1,8,0:0:0:0:
332,333,140859,2,0,B|282:346|282:346|192:329,1,97.50000371933,0|8,0:0|0:0,0:0:0:0:
162,273,141549,2,0,L|166:182,1,48.750001859665,0|0,0:0|0:0,0:0:0:0:
152,176,141894,2,0,L|148:85,1,48.750001859665,8|0,0:0|0:0,0:0:0:0:
148,78,142238,6,0,P|208:85|261:67,2,97.50000371933,0|8|0,0:0|0:0|0:0,0:0:0:0:
98,74,143101,1,0,0:0:0:0:
49,69,143273,1,8,0:0:0:0:
58,167,143618,2,0,L|52:322,2,146.250005578995,0|0|8,0:0|0:0|0:0,0:0:0:0:
152,142,144997,5,4,0:0:0:0:
237,189,145342,1,8,0:0:0:0:
237,189,145514,2,0,P|295:214|363:202,1,97.50000371933,0|0,0:0|0:0,0:0:0:0:
377,205,146032,1,8,0:0:0:0:
431,285,146376,2,0,P|370:298|299:325,1,97.50000371933,0|8,0:0|0:0,0:0:0:0:
291,328,146894,1,0,0:0:0:0:
244,343,147066,2,0,L|166:334,1,48.750001859665,0|0,0:0|0:0,0:0:0:0:
146,332,147411,1,8,0:0:0:0:
103,244,147756,6,0,L|4:248,2,97.50000371933,0|8|0,0:0|0:0|0:0,0:0:0:0:
145,219,148618,1,0,0:0:0:0:
184,190,148790,2,0,P|191:162|189:132,1,48.750001859665,8|0,0:0|0:0,0:0:0:0:
220,103,149135,2,0,P|311:125|373:91,2,146.250005578995,0|0|8,0:0|0:0|0:0,0:0:0:0:
256,192,150514,12,2,156032,0:0:0:0:
