osu file format v14

[General]
AudioFilename: TwoThirds-Bring it Back (www.myfree.cc).mp3
AudioLeadIn: 0
PreviewTime: 89997
Countdown: 0
SampleSet: Soft
StackLeniency: 0.9
Mode: 0
LetterboxInBreaks: 0
WidescreenStoryboard: 0

[Editor]
Bookmarks: 22238,34652,40170,45687,62238,67756,89825,111894,133963,150514,156032
DistanceSpacing: 0.9
BeatDivisor: 4
GridSize: 4
TimelineZoom: 1.7

[Metadata]
Title:Bring it Back
TitleUnicode:Bring it Back
Artist:TwoThirds
ArtistUnicode:TwoThirds
Creator:RyoKazuka
Version:Insane
Source:
Tags:DnB drum and bass chill electronic 006 embrace monstercat cut version
BeatmapID:737570
BeatmapSetID:333019

[Difficulty]
HPDrainRate:7
CircleSize:4
OverallDifficulty:7
ApproachRate:9
SliderMultiplier:1.8
SliderTickRate:1

[Events]
//Background and Video events
0,0,"1874845.jpg",0,0
//Break Periods
2,112238,116811
//Storyboard Layer 0 (Background)
//Storyboard Layer 1 (Fail)
//Storyboard Layer 2 (Pass)
//Storyboard Layer 3 (Foreground)
//Storyboard Sound Samples

[TimingPoints]
170,344.827586206897,4,2,1,30,1,0
170,-125,4,2,1,30,0,0
1549,344.827586206897,4,2,1,30,1,0
1549,-125,4,2,1,30,0,0
22238,-100,4,1,1,60,0,0
45686,-125,4,2,1,60,0,0
67755,-100,4,1,1,60,0,1
89824,-133.333333333333,4,1,1,60,0,0
90083,-133.333333333333,4,1,1,10,0,0
90169,-100,4,1,1,60,0,1
109135,-100,4,1,1,45,0,1
110514,-100,4,1,1,60,0,1
111893,-125,4,1,1,60,0,0
117411,-125,4,1,1,50,0,0
133962,-166.666666666667,4,1,1,50,0,0
134221,-166.666666666667,4,1,1,10,0,0
134307,-125,4,1,1,50,0,0
150514,-125,4,1,1,35,0,0
151893,-125,4,1,1,40,0,0
153273,-125,4,1,1,45,0,0
154652,-125,4,1,1,50,0,0
156031,-125,4,1,1,55,0,0

[Colours]
Combo1 : 128,255,255
Combo2 : 0,128,192
Combo3 : 107,182,182
Combo4 : 128,255,128

[HitObjects]
413,67,170,5,2,0:0:0:0:
389,237,514,1,2,0:0:0:0:
413,67,859,1,2,0:0:0:0:
389,237,1204,1,2,0:0:0:0:
253,131,1549,6,0,P|187:106|97:128,1,144,6|0,0:0|0:0,0:0:0:0:
268,251,2066,2,0,B|389:237|389:237|360:214,1,144,2|0,0:0|0:0,0:0:0:0:
180,201,2583,1,2,0:0:0:0:
180,201,2928,6,0,P|168:268|211:336,1,144,2|0,0:0|0:0,0:0:0:0:
332,183,3445,2,0,P|344:116|301:48,1,144,2|0,0:0|0:0,0:0:0:0:
244,133,3963,1,2,0:0:0:0:
327,283,4307,5,2,0:0:0:0:
327,283,4652,1,0,0:0:0:0:
327,283,4997,1,0,0:0:0:0:
327,283,5342,1,0,0:0:0:0:
164,343,5687,5,2,0:0:0:0:
36,225,6032,1,2,0:0:0:0:
164,343,6376,1,2,0:0:0:0:
36,225,6721,1,2,0:0:0:0:
202,173,7066,6,0,L|359:190,1,144,2|0,0:0|0:0,0:0:0:0:
202,84,7583,2,0,B|169:84|137:111|137:111|104:90|68:92,1,144,2|0,0:0|0:0,0:0:0:0:
146,243,8101,1,2,0:0:0:0:
146,243,8445,6,0,B|216:269|216:269|294:248,1,144,2|0,0:0|0:0,0:0:0:0:
158,328,8963,2,0,B|88:302|88:302|10:323,1,144,2|0,0:0|0:0,0:0:0:0:
237,359,9480,1,2,0:0:0:0:
405,320,9825,5,2,0:0:0:0:
405,320,10170,1,0,0:0:0:0:
405,320,10514,1,0,0:0:0:0:
405,320,10859,1,0,0:0:0:0:
446,152,11204,5,2,0:0:0:0:
273,162,11549,1,2,0:0:0:0:
446,152,11894,1,2,0:0:0:0:
273,162,12239,1,2,0:0:0:0:
351,8,12583,6,0,P|414:14|391:85,1,144,2|0,0:0|0:0,0:0:0:0:
273,162,13101,2,0,L|121:147,1,144,2|0,0:0|0:0,0:0:0:0:
279,254,13618,1,2,0:0:0:0:
279,254,13963,6,0,L|431:239,1,144,2|0,0:0|0:0,0:0:0:0:
277,356,14480,2,0,P|216:323|134:335,1,144,2|0,0:0|0:0,0:0:0:0:
367,336,14997,1,2,0:0:0:0:
418,170,15342,5,2,0:0:0:0:
418,170,15687,1,0,0:0:0:0:
418,170,16032,1,0,0:0:0:0:
418,170,16376,1,0,0:0:0:0:
306,37,16721,5,2,0:0:0:0:
297,209,17066,1,2,0:0:0:0:
306,37,17411,1,2,0:0:0:0:
297,209,17756,1,2,0:0:0:0:
153,115,18101,6,0,B|150:14|150:14|179:54,1,144,2|0,0:0|0:0,0:0:0:0:
170,203,18618,2,0,B|136:209|101:189|101:189|71:201|71:201|19:199,1,144,2|0,0:0|0:0,0:0:0:0:
241,141,19135,1,2,0:0:0:0:
241,141,19480,6,0,P|312:147|382:203,1,144,2|0,0:0|0:0,0:0:0:0:
268,273,19997,2,0,B|213:275|213:275|178:264|178:264|117:267,1,144,2|0,0:0|0:0,0:0:0:0:
28,167,20514,1,2,0:0:0:0:
148,43,20859,5,2,0:0:0:0:
148,43,21204,1,0,0:0:0:0:
148,43,21549,1,0,0:0:0:0:
148,43,21894,1,0,0:0:0:0:
318,174,22238,6,0,L|311:263,1,90,2|8,0:0|0:0,0:0:0:0:
241,116,22583,2,0,P|238:50|261:14,1,90,2|8,0:0|0:0,0:0:0:0:
439,183,22928,1,2,0:0:0:0:
228,209,23101,1,8,0:0:0:0:
325,81,23273,1,2,0:0:0:0:
350,310,23445,1,8,0:0:0:0:
199,192,23618,6,0,P|112:173|22:227,1,180,2|0,0:0|0:0,0:0:0:0:
128,293,24135,1,0,0:0:0:0:
333,297,24307,2,0,L|230:288,1,90,10|2,2:0|0:0,0:0:0:0:
384,208,24652,2,0,L|487:199,1,90,2|2,0:0|0:0,0:0:0:0:
327,109,24997,6,0,P|249:137|153:83,1,180,2|0,0:0|0:0,0:0:0:0:
53,36,25514,2,0,P|72:91|69:134,2,90,2|8|0,0:0|2:0|0:0,0:0:0:0:
10,219,26032,2,0,L|125:216,1,90,2|0,0:0|0:0,0:0:0:0:
318,280,26376,6,0,B|232:253|232:253|133:296,1,180,2|0,0:0|0:0,0:0:0:0:
237,359,26894,1,0,0:0:0:0:
301,169,27066,1,8,2:0:0:0:
301,169,27411,1,0,0:0:0:0:
301,169,27756,6,0,P|392:205|470:171,1,180,2|0,0:0|0:0,0:0:0:0:
294,68,28273,1,0,0:0:0:0:
213,208,28445,2,0,B|204:252|204:252|226:306,1,90,10|0,2:0|0:0,0:0:0:0:
385,99,28790,2,0,B|394:55|394:55|372:1,1,90,0|0,0:0|0:0,0:0:0:0:
301,169,29135,6,0,L|316:351,1,180,2|0,0:0|0:0,0:0:0:0:
393,208,29652,1,0,0:0:0:0:
221,293,29825,1,8,2:0:0:0:
221,293,30170,1,0,0:0:0:0:
221,293,30514,6,0,B|192:299|156:280|156:280|115:291|115:291|73:272|38:288,1,180,2|0,0:0|0:0,0:0:0:0:
208,201,31032,2,0,L|322:213,1,90,2|8,0:0|2:0,0:0:0:0:
130,111,31376,1,0,0:0:0:0:
40,197,31549,2,0,P|34:238|50:292,1,90,2|0,0:0|0:0,0:0:0:0:
208,201,31894,6,0,P|246:121|221:35,1,180,2|0,0:0|0:0,0:0:0:0:
130,111,32411,1,0,0:0:0:0:
334,132,32583,1,8,2:0:0:0:
334,132,32928,1,0,0:0:0:0:
334,132,33273,6,0,P|318:220|321:311,1,180,2|0,0:0|0:0,0:0:0:0:
454,351,33790,1,0,0:0:0:0:
480,195,33963,2,0,P|476:149|459:88,1,90,8|0,2:0|0:0,0:0:0:0:
259,130,34307,2,0,P|248:173|244:218,1,90,0|0,0:0|0:0,0:0:0:0:
361,82,34652,6,0,P|302:26|192:38,1,180,2|0,0:0|0:0,0:0:0:0:
103,128,35170,1,0,0:0:0:0:
136,307,35342,2,0,P|160:252|152:197,1,90,10|2,2:0|0:0,0:0:0:0:
259,130,35687,2,0,L|271:242,1,90,2|2,0:0|0:0,0:0:0:0:
426,290,36032,6,0,P|381:215|397:128,1,180,2|0,0:0|0:0,0:0:0:0:
501,193,36549,1,0,0:0:0:0:
429,48,36721,2,0,P|385:42|344:58,1,90,10|2,2:0|0:0,0:0:0:0:
142,91,37066,2,0,P|186:85|227:101,1,90,2|2,0:0|0:0,0:0:0:0:
268,219,37411,6,0,B|261:358|261:358|225:299,1,180,2|0,0:0|0:0,0:0:0:0:
174,181,37928,1,0,0:0:0:0:
362,257,38101,1,8,2:0:0:0:
362,257,38445,1,0,0:0:0:0:
362,257,38790,6,0,P|405:182|375:73,1,180,2|0,0:0|0:0,0:0:0:0:
261,31,39307,1,0,0:0:0:0:
205,163,39480,2,0,L|295:162,1,90,10|0,2:0|0:0,0:0:0:0:
476,282,39825,2,0,L|386:280,1,90,0|0,0:0|0:0,0:0:0:0:
154,308,40170,6,0,P|230:351|314:326,1,180,2|0,0:0|0:0,0:0:0:0:
294,162,40687,1,0,0:0:0:0:
120,67,40859,2,0,L|109:161,1,90,10|0,2:0|0:0,0:0:0:0:
402,156,41204,2,0,L|392:67,1,90,0|0,0:0|0:0,0:0:0:0:
177,193,41549,5,2,0:0:0:0:
154,308,41721,1,0,0:0:0:0:
358,308,41894,1,0,0:0:0:0:
335,193,42066,1,0,0:0:0:0:
174,328,42238,2,2,P|255:360|338:330,1,180,10|0,2:0|0:0,0:0:0:0:
128,112,42928,6,0,L|73:116,3,45,2|0|0|0,0:0|0:0|0:0|0:0,0:0:0:0:
185,204,43273,2,0,L|140:207,3,45
327,204,43618,6,0,L|382:208,3,45,10|0|0|0,0:0|0:0|0:0|0:0,0:0:0:0:
384,112,43963,2,0,L|439:116,3,45,0|0|0|0,0:0|0:0|0:0|0:0,0:0:0:0:
230,36,44307,6,0,L|238:131,1,90,2|8,0:0|0:0,0:0:0:0:
335,289,44652,2,0,P|340:231|311:188,1,90,2|8,0:0|0:0,0:0:0:0:
129,299,44997,1,2,0:0:0:0:
239,344,45170,1,8,0:0:0:0:
237,125,45342,1,2,0:0:0:0:
127,80,45515,1,8,0:0:0:0:
18,254,45687,6,0,P|11:307|25:358,2,108,6|2|2,0:0|0:0|0:0,0:0:0:0:
137,200,46463,2,0,L|246:210,2,108,2|2|2,0:0|0:0|0:0,0:0:0:0:
190,82,47238,2,0,L|297:72,2,108,2|2|2,0:0|0:0|0:0,0:0:0:0:
137,200,48014,2,0,B|124:260|124:260|135:306,1,108,2|2,0:0|0:0,0:0:0:0:
377,306,48445,6,0,B|388:260|388:260|375:200,2,108,2|2|2,0:0|0:0|0:0,0:0:0:0:
282,216,49221,2,0,L|289:108,1,108,2|2,0:0|0:0,0:0:0:0:
166,66,49738,1,2,0:0:0:0:
166,66,49825,6,0,P|104:87|47:67,2,108,2|2|2,0:0|0:0|0:0,0:0:0:0:
288,22,50601,2,0,P|350:1|407:21,1,108,2|2,0:0|0:0,0:0:0:0:
474,109,51118,1,2,0:0:0:0:
474,109,51204,6,0,P|474:180|480:223,2,108,2|2|2,0:0|0:0|0:0,0:0:0:0:
357,165,51980,2,0,P|299:122|246:121,2,108,2|2|2,0:0|0:0|0:0,0:0:0:0:
268,259,52756,2,0,L|141:249,2,108,2|2|2,0:0|0:0|0:0,0:0:0:0:
192,153,53532,2,0,L|65:143,1,108,2|2,0:0|0:0,0:0:0:0:
320,153,53963,6,0,L|427:144,2,108,2|2|2,0:0|0:0|0:0,0:0:0:0:
409,60,54738,2,0,P|479:75|509:118,1,108,2|2,0:0|0:0,0:0:0:0:
478,228,55256,1,2,0:0:0:0:
478,228,55342,6,0,B|420:251|420:251|355:240,2,108,2|2|2,0:0|0:0|0:0,0:0:0:0:
371,154,56118,2,0,L|253:157,1,108,2|2,0:0|0:0,0:0:0:0:
146,213,56635,1,2,0:0:0:0:
146,213,56721,6,0,P|172:246|179:316,2,108,2|2|2,0:0|0:0|0:0,0:0:0:0:
43,132,57497,2,0,P|17:99|10:29,2,108,2|2|2,0:0|0:0|0:0,0:0:0:0:
138,44,58273,2,0,L|278:59,2,108,2|2|2,0:0|0:0|0:0,0:0:0:0:
208,152,59049,2,0,L|315:140,1,108,2|2,0:0|0:0,0:0:0:0:
225,262,59480,6,0,L|118:250,2,108,2|2|2,0:0|0:0|0:0,0:0:0:0:
349,225,60256,2,0,P|422:214|470:229,1,108,2|2,0:0|0:0,0:0:0:0:
407,342,60773,1,2,0:0:0:0:
407,342,60859,6,0,P|337:347|289:347,2,108,2|2|2,0:0|0:0|0:0,0:0:0:0:
454,221,61635,2,0,B|466:150|466:150|445:90,1,108,2|2,0:0|0:0,0:0:0:0:
381,8,62152,1,2,0:0:0:0:
381,8,62238,6,0,L|372:138,2,108,2|2|2,0:0|0:0|0:0,0:0:0:0:
262,61,63014,2,0,L|271:191,2,108,2|2|2,0:0|0:0|0:0,0:0:0:0:
139,103,63790,2,0,P|58:117|21:103,2,108,2|2|2,0:0|0:0|0:0,0:0:0:0:
200,217,64566,2,0,B|160:210|160:210|129:213|129:213|86:206,1,108,2|2,0:0|0:0,0:0:0:0:
312,217,64997,6,0,B|352:210|352:210|383:213|383:213|418:207,2,108,2|2|2,0:0|0:0|0:0,0:0:0:0:
339,343,65773,2,0,B|375:336|388:322|388:322|401:336|436:343,1,108,2|2,0:0|0:0,0:0:0:0:
502,231,66290,1,2,0:0:0:0:
502,231,66376,6,0,L|494:105,2,108,2|2|2,0:0|0:0|0:0,0:0:0:0:
373,256,67066,6,0,L|320:262,1,36,4|2,0:0|0:0,0:0:0:0:
163,160,67238,2,0,L|216:154,1,36,4|0,0:0|0:0,0:0:0:0:
174,260,67411,6,0,L|139:256,1,36,6|0,0:0|0:0,0:0:0:0:
313,155,67583,2,0,L|349:160,1,36,4|2,0:0|0:0,0:0:0:0:
256,313,67756,6,0,P|177:359|90:311,1,180,4|8,0:0|0:0,0:0:0:0:
337,260,68273,1,0,0:0:0:0:
337,260,68359,1,0,0:0:0:0:
337,260,68445,1,0,0:0:0:0:
226,189,68618,2,0,L|122:195,1,90,0|0,0:0|0:0,0:0:0:0:
366,154,68963,1,8,0:0:0:0:
366,154,69307,6,0,L|468:161,1,90,0|8,0:0|0:0,0:0:0:0:
293,71,69652,1,0,0:0:0:0:
256,176,69825,2,0,P|248:236|265:273,1,90,0|0,0:0|0:0,0:0:0:0:
280,57,70170,2,0,L|172:48,1,90,8|0,0:0|0:0,0:0:0:0:
21,138,70514,6,0,P|108:131|180:204,1,180,0|8,0:0|0:0,0:0:0:0:
76,317,71032,1,0,0:0:0:0:
76,317,71118,1,0,0:0:0:0:
76,317,71204,2,0,P|67:273|76:230,1,90,0|0,0:0|0:0,0:0:0:0:
281,344,71549,2,0,B|241:363|241:363|175:352,1,90,8|0,0:0|0:0,0:0:0:0:
336,241,71894,6,0,L|437:237,2,90,0|0|8,0:0|0:0|0:0,0:0:0:0:
168,137,72411,2,0,B|216:142|246:180|246:180|275:140|319:134,1,180
164,239,72928,1,8,0:0:0:0:
140,48,73101,1,0,0:0:0:0:
341,145,73273,6,0,P|429:157|504:104,1,180,4|8,0:0|0:0,0:0:0:0:
422,243,73790,2,0,P|407:306|429:356,1,90,0|0,0:0|0:0,0:0:0:0:
235,199,74135,2,0,P|245:287|318:362,1,180,0|8,0:0|0:0,0:0:0:0:
303,353,74825,6,0,L|206:347,2,90,0|8|0,0:0|0:0|0:0,0:0:0:0:
170,213,75342,2,0,L|74:222,1,90,0|0,0:0|0:0,0:0:0:0:
211,73,75687,2,0,P|256:65|300:72,1,90,8|0,0:0|0:0,0:0:0:0:
431,221,76032,6,0,B|297:209|297:209|376:182,1,180,0|8,0:0|0:0,0:0:0:0:
481,312,76549,2,0,L|293:295,1,180
130,258,77066,2,0,P|195:250|246:268,1,90,8|0,0:0|0:0,0:0:0:0:
63,329,77411,6,0,P|34:260|85:172,1,180,0|8,0:0|0:0,0:0:0:0:
254,123,77928,1,0,0:0:0:0:
254,123,78014,1,0,0:0:0:0:
254,123,78101,2,0,L|236:233,1,90,0|0,0:0|0:0,0:0:0:0:
42,73,78445,2,0,B|95:55|95:55|156:67,1,90,8|0,0:0|0:0,0:0:0:0:
319,285,78790,6,0,B|230:303|230:303|138:260,1,180,4|8,0:0|0:0,0:0:0:0:
348,130,79307,1,0,0:0:0:0:
348,130,79394,1,0,0:0:0:0:
348,130,79480,1,0,0:0:0:0:
431,277,79652,2,0,L|427:373,1,90,0|0,0:0|0:0,0:0:0:0:
480,167,79997,1,8,0:0:0:0:
480,167,80342,6,0,P|406:159|365:174,1,90,0|8,0:0|0:0,0:0:0:0:
302,192,80687,1,0,0:0:0:0:
235,358,80859,2,0,P|265:326|283:284,1,90,0|0,0:0|0:0,0:0:0:0:
190,50,81204,2,0,P|220:118|253:146,1,90,8|0,0:0|0:0,0:0:0:0:
374,268,81549,6,0,P|318:203|209:224,1,180,0|8,0:0|0:0,0:0:0:0:
88,311,82066,1,0,0:0:0:0:
88,311,82152,1,0,0:0:0:0:
88,311,82238,2,0,L|79:209,1,90,0|0,0:0|0:0,0:0:0:0:
230,128,82583,2,0,L|239:26,1,90,8|0,0:0|0:0,0:0:0:0:
368,122,82928,6,0,P|388:162|426:187,2,90,0|0|8,0:0|0:0|0:0,0:0:0:0:
290,271,83445,2,0,B|342:273|342:273|378:262|378:262|429:286|477:261,1,180,0|0,0:0|0:0,0:0:0:0:
460,98,83963,1,8,0:0:0:0:
256,42,84135,1,0,0:0:0:0:
52,98,84307,6,0,L|63:286,1,180,4|8,0:0|0:0,0:0:0:0:
141,131,84825,2,0,P|145:75|121:31,1,90,0|0,0:0|0:0,0:0:0:0:
219,182,85170,2,0,P|204:268|266:335,1,180,0|8,0:0|0:0,0:0:0:0:
261,333,85859,6,0,L|350:347,2,90,0|8|0,0:0|0:0|0:0,0:0:0:0:
354,239,86376,2,0,L|460:216,1,90,0|0,0:0|0:0,0:0:0:0:
481,67,86721,2,0,L|406:117,1,90,8|0,0:0|0:0,0:0:0:0:
201,189,87066,6,0,B|291:175|291:175|368:253,1,180,0|8,0:0|0:0,0:0:0:0:
198,334,87583,2,0,B|110:365|110:304|22:332,1,180,0|0,0:0|0:0,0:0:0:0:
102,192,88101,2,0,P|127:122|113:75,1,90,8|0,0:0|0:0,0:0:0:0:
245,255,88445,6,0,P|233:166|226:61,1,180,2|10,0:0|0:0,0:0:0:0:
351,140,88963,1,0,0:0:0:0:
351,140,89049,1,0,0:0:0:0:
351,140,89135,2,0,P|398:156|448:156,1,90,2|0,0:0|0:0,0:0:0:0:
125,108,89480,2,0,P|80:110|37:125,1,90,10|0,0:0|0:0,0:0:0:0:
107,249,89825,6,0,B|126:251|141:248|141:248|157:253|157:253|173:247|173:247|192:250|211:246,1,101.250003862381,2|0,0:0|0:0,0:0:0:0:
240,246,90170,5,8,0:0:0:0:
379,339,90342,1,0,0:0:0:0:
434,186,90514,2,0,B|445:141|445:141|431:83,1,90,2|2,0:0|0:0,0:0:0:0:
232,56,90859,2,0,P|278:74|356:64,1,90,10|2,0:0|0:0,0:0:0:0:
195,144,91204,6,0,P|113:112|5:163,1,180,2|8,0:0|0:0,0:0:0:0:
167,267,91721,2,0,B|231:269|231:269|281:256|281:256|357:259,1,180,2|0,0:0|0:0,0:0:0:0:
195,346,92238,2,0,L|96:342,1,90,10|0,0:0|0:0,0:0:0:0:
292,173,92583,6,0,P|381:167|447:268,1,180,2|8,0:0|0:0,0:0:0:0:
395,348,93101,1,0,0:0:0:0:
236,255,93273,1,0,0:0:0:0:
292,78,93445,1,0,0:0:0:0:
345,258,93618,1,8,0:0:0:0:
191,349,93790,1,0,0:0:0:0:
191,349,93876,1,0,0:0:0:0:
191,349,93963,6,0,B|56:339|56:339|107:317,1,180,2|8,0:0|0:0,0:0:0:0:
236,255,94480,1,0,0:0:0:0:
367,338,94652,2,0,P|421:358|470:351,1,90,2|0,0:0|0:0,0:0:0:0:
336,155,94997,1,8,0:0:0:0:
336,155,95170,1,0,0:0:0:0:
215,269,95342,6,0,P|130:287|44:213,1,180,2|8,0:0|0:0,0:0:0:0:
135,32,95859,1,0,0:0:0:0:
135,32,95945,1,0,0:0:0:0:
135,32,96032,1,0,0:0:0:0:
149,185,96204,1,0,0:0:0:0:
293,101,96376,2,0,P|320:44|315:7,1,90,8|0,0:0|0:0,0:0:0:0:
392,178,96721,6,0,B|355:259|355:259|372:356,1,180,2|8,0:0|0:0,0:0:0:0:
228,238,97238,2,0,B|181:215|142:206|93:214|93:214|140:248,1,180,2|0,0:0|0:0,0:0:0:0:
256,349,97756,1,10,0:0:0:0:
303,124,97928,1,0,0:0:0:0:
401,280,98101,6,0,P|481:291|457:194,1,180,2|8,0:0|0:0,0:0:0:0:
303,124,98618,1,0,0:0:0:0:
185,234,98790,2,0,L|196:355,1,90,0|0,0:0|0:0,0:0:0:0:
87,170,99135,2,0,L|95:80,1,90,8|0,0:0|0:0,0:0:0:0:
221,128,99480,6,0,P|300:89|400:117,1,180,2|8,0:0|0:0,0:0:0:0:
291,256,99997,1,0,0:0:0:0:
117,235,100170,2,0,P|101:190|109:137,1,90,2|0,0:0|0:0,0:0:0:0:
369,200,100514,2,0,P|385:245|377:298,1,90,8|0,0:0|0:0,0:0:0:0:
198,179,100859,6,0,P|203:91|277:19,1,180,2|8,0:0|0:0,0:0:0:0:
426,2,101376,1,0,0:0:0:0:
369,200,101549,1,2,0:0:0:0:
203,91,101721,1,2,0:0:0:0:
398,232,101894,2,0,L|518:228,1,90,10|2,0:0|0:0,0:0:0:0:
318,329,102238,6,0,P|234:298|120:322,1,180,2|8,0:0|0:0,0:0:0:0:
28,357,102756,1,0,0:0:0:0:
177,203,102928,2,0,P|118:208|66:178,1,90,2|2,0:0|0:0,0:0:0:0:
310,107,103273,2,0,L|319:5,1,90,10|2,0:0|0:0,0:0:0:0:
463,240,103618,6,0,B|415:248|377:220|377:220|344:230|344:230|319:215|319:215|259:213,1,180,2|8,0:0|0:0,0:0:0:0:
440,140,104135,1,0,0:0:0:0:
440,140,104221,1,0,0:0:0:0:
440,140,104307,1,0,0:0:0:0:
263,306,104480,2,0,L|143:295,1,90,0|8,0:0|0:0,0:0:0:0:
55,205,104825,1,0,0:0:0:0:
234,223,104997,6,0,L|45:204,1,180,2|8,0:0|0:0,0:0:0:0:
164,88,105514,1,0,0:0:0:0:
326,184,105687,2,0,P|331:249|301:295,1,90,2|0,0:0|0:0,0:0:0:0:
177,346,106032,1,8,0:0:0:0:
177,346,106204,1,0,0:0:0:0:
244,128,106376,6,0,P|326:91|428:156,1,180,2|8,0:0|0:0,0:0:0:0:
321,270,106894,1,0,0:0:0:0:
146,160,107066,1,2,0:0:0:0:
157,323,107238,1,0,0:0:0:0:
345,280,107411,1,8,0:0:0:0:
124,141,107583,1,0,0:0:0:0:
138,346,107756,6,0,P|196:348|249:335,1,90,2|0,0:0|0:0,0:0:0:0:
326,184,108101,2,0,P|268:186|215:173,1,90,8|0,0:0|0:0,0:0:0:0:
96,57,108445,2,0,P|121:107|121:159,2,90,2|0|8,0:0|0:0|0:0,0:0:0:0:
34,244,108963,1,0,0:0:0:0:
172,339,109135,6,0,L|231:334,3,45,2|0|0|0,0:0|0:0|0:0|0:0,0:0:0:0:
340,243,109480,2,0,L|281:238,3,45,8|0|0|0,0:0|0:0|0:0|0:0,0:0:0:0:
172,147,109825,6,0,L|231:142,3,45,2|0|0|0,0:0|0:0|0:0|0:0,0:0:0:0:
340,51,110170,2,0,L|281:46,3,45,8|0|0|0,0:0|0:0|0:0|0:0,0:0:0:0:
154,63,110514,6,0,P|104:95|87:138,1,90,2|0,0:0|0:0,0:0:0:0:
295,239,110859,2,0,P|298:194|298:149,1,90,10|0,0:0|0:0,0:0:0:0:
142,215,111204,1,2,0:0:0:0:
165,348,111376,1,0,0:0:0:0:
347,348,111549,1,2,0:0:0:0:
370,215,111721,1,0,0:0:0:0:
256,124,111894,5,6,0:0:0:0:
87,76,117411,6,0,L|244:68,1,144,4|8,0:0|0:0,0:0:0:0:
344,123,117928,1,0,0:0:0:0:
344,123,118014,1,0,0:0:0:0:
344,123,118101,1,0,0:0:0:0:
209,184,118273,2,0,P|142:184|70:246,1,144,0|8,0:0|0:0,0:0:0:0:
81,227,118963,6,0,L|90:316,1,72,0|8,0:0|0:0,0:0:0:0:
184,352,119307,1,0,0:0:0:0:
281,267,119480,2,0,P|232:255|201:244,1,72,0|0,0:0|0:0,0:0:0:0:
371,209,119825,2,0,P|405:198|440:190,1,72,8|0,0:0|0:0,0:0:0:0:
301,118,120170,6,0,P|231:116|167:54,1,144,0|8,0:0|0:0,0:0:0:0:
57,46,120687,1,0,0:0:0:0:
57,46,120773,1,0,0:0:0:0:
57,46,120859,2,0,P|68:100|71:138,1,72,0|0,0:0|0:0,0:0:0:0:
62,233,121204,2,0,L|55:323,1,72,8|0,0:0|0:0,0:0:0:0:
184,183,121549,6,0,P|166:251|208:320,1,144,0|8,0:0|0:0,0:0:0:0:
312,313,122066,2,0,P|345:251|328:183,1,144,0|0,0:0|0:0,0:0:0:0:
256,95,122583,1,8,0:0:0:0:
256,95,122928,6,0,P|331:99|402:41,1,144,4|8,0:0|0:0,0:0:0:0:
166,49,123445,1,0,0:0:0:0:
166,49,123532,1,0,0:0:0:0:
166,49,123618,1,0,0:0:0:0:
116,152,123790,2,0,B|115:206|115:206|125:241|125:241|126:303,1,144,0|8,0:0|0:0,0:0:0:0:
125,294,124480,6,0,P|184:282|221:289,1,72,0|8,0:0|0:0,0:0:0:0:
313,312,124825,1,0,0:0:0:0:
404,169,124997,2,0,L|399:248,1,72,0|0,0:0|0:0,0:0:0:0:
273,134,125342,2,0,P|265:85|241:42,1,72,8|0,0:0|0:0,0:0:0:0:
49,157,125687,6,0,P|118:167|172:123,1,144,0|8,0:0|0:0,0:0:0:0:
128,250,126204,1,0,0:0:0:0:
128,250,126290,1,0,0:0:0:0:
128,250,126376,2,0,P|113:296|121:342,1,72,0|0,0:0|0:0,0:0:0:0:
312,236,126721,2,0,P|287:210|254:194,1,72,8|0,0:0|0:0,0:0:0:0:
222,307,127066,6,0,B|291:324|291:324|388:311,1,144,0|8,0:0|0:0,0:0:0:0:
443,216,127583,2,0,L|426:66,1,144,0|0,0:0|0:0,0:0:0:0:
307,37,128101,1,8,0:0:0:0:
306,37,128445,6,0,P|244:70|173:66,1,144,4|8,0:0|0:0,0:0:0:0:
36,71,128963,1,0,0:0:0:0:
36,71,129049,1,0,0:0:0:0:
36,71,129135,1,0,0:0:0:0:
143,157,129307,2,0,P|196:204|216:272,1,144,0|8,0:0|0:0,0:0:0:0:
216,272,129997,6,0,P|271:245|310:247,1,72,0|8,0:0|0:0,0:0:0:0:
411,241,130342,1,0,0:0:0:0:
360,345,130514,2,0,L|288:345,1,72,0|0,0:0|0:0,0:0:0:0:
374,160,130859,2,0,L|446:160,1,72,8|0,0:0|0:0,0:0:0:0:
305,74,131204,6,0,P|235:62|168:111,1,144,0|8,0:0|0:0,0:0:0:0:
241,225,131721,1,0,0:0:0:0:
241,225,131807,1,0,0:0:0:0:
241,225,131894,2,0,P|255:192|254:157,1,72,0|0,0:0|0:0,0:0:0:0:
97,277,132238,2,0,P|95:312|109:345,1,72,8|0,0:0|0:0,0:0:0:0:
329,313,132583,6,0,P|259:299|187:294,1,144,0|8,0:0|0:0,0:0:0:0:
354,220,133101,2,0,P|424:236|494:168,1,144,0|0,0:0|0:0,0:0:0:0:
322,120,133618,1,8,0:0:0:0:
322,120,133963,6,0,B|298:120|298:120|281:115|281:115|265:120|265:120|241:120,1,80.9999975280763,4|0,0:0|0:0,0:0:0:0:
211,129,134307,5,8,0:0:0:0:
276,278,134480,1,0,0:0:0:0:
308,275,134566,1,0,0:0:0:0:
340,272,134652,1,0,0:0:0:0:
372,269,134738,1,0,0:0:0:0:
404,266,134825,1,0,0:0:0:0:
190,236,134997,2,0,P|181:293|196:333,1,72,8|0,0:0|0:0,0:0:0:0:
300,178,135342,6,0,L|286:31,1,144,0|8,0:0|0:0,0:0:0:0:
174,99,135859,2,0,P|110:130|41:114,1,144,0|0,0:0|0:0,0:0:0:0:
151,242,136376,2,0,L|232:239,1,72,8|0,0:0|0:0,0:0:0:0:
435,344,136721,6,0,L|273:336,1,144,0|8,0:0|0:0,0:0:0:0:
295,176,137238,1,0,0:0:0:0:
325,164,137324,1,0,0:0:0:0:
356,158,137410,1,0,0:0:0:0:
389,158,137496,1,0,0:0:0:0:
420,165,137582,1,0,0:0:0:0:
222,239,137756,2,0,L|151:242,1,72,8|0,0:0|0:0,0:0:0:0:
41,152,138101,5,0,0:0:0:0:
41,152,138273,1,0,0:0:0:0:
186,111,138445,1,8,0:0:0:0:
254,246,138618,2,0,P|315:281|406:267,1,144,0|0,0:0|0:0,0:0:0:0:
205,325,139135,2,0,P|165:307|112:306,1,72,8|0,0:0|0:0,0:0:0:0:
25,191,139480,6,0,L|187:183,1,144,4|8,0:0|0:0,0:0:0:0:
343,183,139997,1,0,0:0:0:0:
375,185,140083,1,0,0:0:0:0:
407,187,140169,1,0,0:0:0:0:
440,188,140255,1,0,0:0:0:0:
472,190,140341,1,0,0:0:0:0:
367,277,140514,2,0,P|312:275|287:260,1,72,8|0,0:0|0:0,0:0:0:0:
127,179,140859,6,0,P|195:178|261:115,1,144,0|8,0:0|0:0,0:0:0:0:
29,147,141376,2,0,B|25:198|25:198|38:234|38:234|37:305,1,144,0|0,0:0|0:0,0:0:0:0:
167,87,141894,2,0,P|118:67|80:67,1,72,8|0,0:0|0:0,0:0:0:0:
252,132,142238,6,0,P|323:130|392:90,1,144,0|8,0:0|0:0,0:0:0:0:
461,177,142756,1,0,0:0:0:0:
459,209,142842,1,0,0:0:0:0:
457,241,142928,1,0,0:0:0:0:
455,273,143014,1,0,0:0:0:0:
453,305,143101,1,0,0:0:0:0:
252,278,143273,2,0,L|350:269,1,72,8|0,0:0|0:0,0:0:0:0:
147,307,143618,5,0,0:0:0:0:
147,307,143790,1,0,0:0:0:0:
187,121,143963,1,8,0:0:0:0:
130,198,144135,2,0,P|203:213|276:155,1,144
431,102,144652,2,0,P|420:154|420:196,1,72,8|0,0:0|0:0,0:0:0:0:
414,359,144997,6,0,P|394:288|346:212,1,144,4|8,0:0|0:0,0:0:0:0:
161,302,145514,1,0,0:0:0:0:
193,306,145601,1,0,0:0:0:0:
225,310,145687,1,0,0:0:0:0:
257,314,145773,1,0,0:0:0:0:
289,318,145859,1,0,0:0:0:0:
201,194,146031,2,0,B|165:182|165:182|99:196,1,72,8|0,0:0|0:0,0:0:0:0:
195,73,146376,6,0,B|247:73|279:103|279:103|308:78|352:82,1,144,0|8,0:0|0:0,0:0:0:0:
379,290,146894,2,0,P|333:238|336:168,1,144,0|0,0:0|0:0,0:0:0:0:
471,265,147411,2,0,L|466:340,1,72,8|0,0:0|0:0,0:0:0:0:
336,167,147756,6,0,L|322:6,1,144,0|8,0:0|0:0,0:0:0:0:
201,96,148273,1,0,0:0:0:0:
171,108,148359,1,0,0:0:0:0:
139,111,148445,1,0,0:0:0:0:
107,104,148531,1,0,0:0:0:0:
79,89,148617,1,0,0:0:0:0:
55,268,148790,2,0,L|40:182,1,72,8|0,0:0|0:0,0:0:0:0:
281,255,149135,5,0,0:0:0:0:
172,242,149307,1,0,0:0:0:0:
390,268,149480,1,8,0:0:0:0:
339,131,149652,2,0,P|272:108|188:94,1,144,0|0,0:0|0:0,0:0:0:0:
101,253,150170,2,0,P|156:246|200:232,1,72,8|0,0:0|0:0,0:0:0:0:
45,160,150514,5,4,0:0:0:0:
256,192,150601,12,2,156032,0:0:0:0:
