osu file format v14

[General]
AudioFilename: TwoThirds-Bring it Back (www.myfree.cc).mp3
AudioLeadIn: 0
PreviewTime: 89997
Countdown: 0
SampleSet: Normal
StackLeniency: 0.7
Mode: 0
LetterboxInBreaks: 0
WidescreenStoryboard: 0

[Editor]
Bookmarks: 22238,34652,40170,45687,62238,67756,89825,111894,133963,150514,156032
DistanceSpacing: 1.2
BeatDivisor: 4
GridSize: 4
TimelineZoom: 1

[Metadata]
Title:Bring it Back
TitleUnicode:Bring it Back
Artist:TwoThirds
ArtistUnicode:TwoThirds
Creator:RyoKazuka
Version:Hard
Source:
Tags:DnB drum and bass chill electronic 006 embrace monstercat cut version
BeatmapID:739906
BeatmapSetID:333019

[Difficulty]
HPDrainRate:5
CircleSize:4
OverallDifficulty:5.5
ApproachRate:7
SliderMultiplier:1.6
SliderTickRate:1

[Events]
//Background and Video events
0,0,"1874845.jpg",0,0
//Break Periods
2,45887,61338
2,112238,116511
//Storyboard Layer 0 (Background)
//Storyboard Layer 1 (Fail)
//Storyboard Layer 2 (Pass)
//Storyboard Layer 3 (Foreground)
//Storyboard Sound Samples

[TimingPoints]
170,344.827586206897,4,2,1,30,1,0
170,-125,4,2,1,30,0,0
1549,344.827586206897,4,2,1,30,1,0
1549,-125,4,2,1,30,0,0
22238,-105.263157894737,4,1,1,60,0,0
34652,-105.263157894737,4,1,1,60,0,0
45686,-105.263157894737,4,2,1,60,0,0
67755,-105.263157894737,4,1,1,60,0,1
89824,-105.263157894737,4,1,1,60,0,0
90169,-105.263157894737,4,1,1,60,0,1
109135,-105.263157894737,4,1,1,45,0,1
110514,-105.263157894737,4,1,1,60,0,1
111893,-125,4,1,1,60,0,0
117411,-125,4,1,1,50,0,0
150514,-125,4,1,1,35,0,0
151893,-125,4,1,1,40,0,0
153273,-125,4,1,1,45,0,0
154652,-125,4,1,1,50,0,0
156031,-125,4,1,1,55,0,0

[Colours]
Combo1 : 128,255,255
Combo2 : 0,128,192
Combo3 : 107,182,182
Combo4 : 128,255,128

[HitObjects]
75,95,170,6,0,L|81:247,1,128,2|2,0:0|0:0,0:0:0:0:
206,310,859,2,0,P|215:241|182:167,1,128,2|2,0:0|0:0,0:0:0:0:
130,47,1549,6,0,B|197:63|197:63|278:52,1,128,6|0,0:0|0:0,0:0:0:0:
331,44,2066,1,2,0:0:0:0:
444,244,2583,1,2,0:0:0:0:
319,333,2928,6,0,L|176:318,1,128,2|0,0:0|0:0,0:0:0:0:
171,245,3445,2,0,L|308:259,1,128,2|0,0:0|0:0,0:0:0:0:
345,196,3963,1,2,0:0:0:0:
242,82,4307,5,2,0:0:0:0:
242,82,5687,6,0,B|318:101|318:101|381:87,1,128,2|2,0:0|0:0,0:0:0:0:
243,182,6376,2,0,P|180:175|167:236,1,128,2|2,0:0|0:0,0:0:0:0:
316,252,7066,6,0,P|343:182|317:113,1,128,2|0,0:0|0:0,0:0:0:0:
286,69,7583,1,2,0:0:0:0:
92,194,8101,1,2,0:0:0:0:
186,314,8445,6,0,P|264:333|324:312,1,128,2|0,0:0|0:0,0:0:0:0:
372,276,8963,2,0,B|377:227|377:227|368:194|368:194|372:122,1,128,2|0,0:0|0:0,0:0:0:0:
395,76,9480,1,2,0:0:0:0:
243,98,9825,5,2,0:0:0:0:
243,98,11204,6,0,P|167:112|107:67,1,128,2|2,0:0|0:0,0:0:0:0:
21,204,11894,2,0,P|94:214|169:232,1,128,2|2,0:0|0:0,0:0:0:0:
299,247,12583,6,0,B|365:243|365:243|401:192,1,128,2|0,0:0|0:0,0:0:0:0:
443,127,13101,1,2,0:0:0:0:
231,36,13618,1,2,0:0:0:0:
132,154,13963,6,0,L|147:305,1,128,2|0,0:0|0:0,0:0:0:0:
219,265,14480,2,0,P|295:259|351:295,1,128,2|0,0:0|0:0,0:0:0:0:
392,338,14997,1,2,0:0:0:0:
461,200,15342,5,2,0:0:0:0:
461,200,16721,6,0,P|388:192|344:131,1,128,2|2,0:0|0:0,0:0:0:0:
264,280,17411,2,0,P|266:202|255:131,1,128,2|2,0:0|0:0,0:0:0:0:
186,288,18101,6,0,P|232:350|301:348,1,128,2|0,0:0|0:0,0:0:0:0:
353,338,18618,1,2,0:0:0:0:
376,108,19135,1,2,0:0:0:0:
239,178,19480,6,0,B|190:178|190:178|156:165|156:165|91:164,1,128,2|0,0:0|0:0,0:0:0:0:
122,240,19997,2,0,B|174:257|174:257|260:256,1,128,2|0,0:0|0:0,0:0:0:0:
310,211,20514,1,2,0:0:0:0:
425,312,20859,5,2,0:0:0:0:
425,312,22238,6,0,P|379:317|334:295,1,75.9999979705811,2|8,0:0|0:0,0:0:0:0:
319,221,22583,2,0,P|357:215|393:225,1,75.9999979705811,2|8,0:0|0:0,0:0:0:0:
263,292,22928,2,0,P|217:297|172:275,1,75.9999979705811,2|8,0:0|0:0,0:0:0:0:
158,201,23273,2,0,P|195:195|231:205,1,75.9999979705811,2|8,0:0|0:0,0:0:0:0:
100,271,23618,6,0,P|68:210|103:128,1,151.999995941162,2|0,0:0|0:0,0:0:0:0:
151,63,24135,1,0,0:0:0:0:
225,10,24307,2,0,P|267:17|309:55,2,75.9999979705811,10|2|2,2:0|0:0|0:0,0:0:0:0:
234,99,24825,1,2,0:0:0:0:
304,156,24997,6,0,B|357:157|357:157|402:144|402:144|489:148,1,151.999995941162,2|0,0:0|0:0,0:0:0:0:
421,231,25514,2,0,P|379:293|401:371,1,151.999995941162,2|0,0:0|0:0,0:0:0:0:
470,310,26032,1,2,0:0:0:0:
300,244,26376,6,0,L|136:251,1,151.999995941162,2|0,0:0|0:0,0:0:0:0:
70,201,26894,1,0,0:0:0:0:
114,121,27066,2,0,P|161:110|206:114,1,75.9999979705811,8|0,2:0|0:0,0:0:0:0:
274,143,27411,2,0,P|310:152|348:153,1,75.9999979705811,0|0,0:0|0:0,0:0:0:0:
407,83,27756,6,0,L|396:234,1,151.999995941162,2|0,0:0|0:0,0:0:0:0:
329,298,28273,1,0,0:0:0:0:
248,254,28445,2,0,P|212:239|175:239,2,75.9999979705811,10|0|0,2:0|0:0|0:0,0:0:0:0:
196,329,28963,1,0,0:0:0:0:
109,304,29135,6,0,P|83:233|132:159,1,151.999995941162,2|0,0:0|0:0,0:0:0:0:
203,141,29652,1,0,0:0:0:0:
294,132,29825,2,0,L|401:143,1,75.9999979705811,8|0,2:0|0:0,0:0:0:0:
346,51,30170,2,0,L|270:43,1,75.9999979705811,0|0,0:0|0:0,0:0:0:0:
179,50,30514,6,0,P|106:67|38:8,1,151.999995941162,2|0,0:0|0:0,0:0:0:0:
24,114,31032,2,0,B|42:187|42:187|30:264,1,151.999995941162,2|0,0:0|0:0,0:0:0:0:
12,352,31549,1,2,0:0:0:0:
186,298,31894,6,0,P|260:287|344:347,1,151.999995941162,2|0,0:0|0:0,0:0:0:0:
398,377,32411,1,0,0:0:0:0:
408,286,32583,2,0,L|393:205,1,75.9999979705811,8|0,2:0|0:0,0:0:0:0:
387,120,32928,2,0,P|390:57|409:24,1,75.9999979705811,0|0,0:0|0:0,0:0:0:0:
307,74,33273,6,0,P|233:98|158:33,1,151.999995941162,2|0,0:0|0:0,0:0:0:0:
245,7,33790,1,0,0:0:0:0:
245,7,33963,2,0,L|230:189,1,151.999995941162,8|0,2:0|0:0,0:0:0:0:
109,293,34652,6,0,B|187:286|171:343|255:334,1,151.999995941162,2|0,0:0|0:0,0:0:0:0:
342,329,35170,1,0,0:0:0:0:
400,259,35342,2,0,P|414:211|414:167,1,75.9999979705811,10|2,2:0|0:0,0:0:0:0:
385,98,35687,1,2,0:0:0:0:
297,72,35859,1,2,0:0:0:0:
226,130,36032,6,0,P|223:205|243:278,1,151.999995941162,2|0,0:0|0:0,0:0:0:0:
288,358,36549,1,0,0:0:0:0:
197,357,36721,2,0,P|137:338|94:339,1,75.9999979705811,10|2,2:0|0:0,0:0:0:0:
66,265,37066,2,0,P|103:259|138:245,1,75.9999979705811,2|2,0:0|0:0,0:0:0:0:
156,155,37411,6,0,L|4:139,1,151.999995941162,2|0,0:0|0:0,0:0:0:0:
49,59,37928,1,0,0:0:0:0:
140,59,38101,2,0,P|182:61|223:85,1,75.9999979705811,8|0,2:0|0:0,0:0:0:0:
272,143,38445,2,0,P|280:184|268:229,1,75.9999979705811,0|0,0:0|0:0,0:0:0:0:
357,256,38790,6,0,P|373:183|339:84,1,151.999995941162,2|0,0:0|0:0,0:0:0:0:
296,38,39307,1,0,0:0:0:0:
212,75,39480,2,0,B|116:91|116:91|36:61,1,151.999995941162,10|0,2:0|0:0,0:0:0:0:
163,225,40170,6,0,B|176:343|176:343|137:312,1,151.999995941162,2|0,0:0|0:0,0:0:0:0:
78,265,40687,1,0,0:0:0:0:
91,174,40859,2,0,P|136:141|179:140,1,75.9999979705811,10|0,2:0|0:0,0:0:0:0:
242,162,41204,2,0,P|287:195|330:196,1,75.9999979705811,0|0,0:0|0:0,0:0:0:0:
394,178,41549,5,2,0:0:0:0:
441,256,41721,1,0,0:0:0:0:
381,325,41893,1,0,0:0:0:0:
297,289,42066,1,0,0:0:0:0:
213,325,42238,2,2,P|140:335|73:275,1,151.999995941162,10|0,2:0|0:0,0:0:0:0:
93,107,42928,6,0,L|139:115,3,37.9999989852906,2|0|0|0,0:0|0:0|0:0|0:0,0:0:0:0:
171,135,43273,2,0,L|217:132,3,37.9999989852906
253,121,43618,2,0,P|277:113|316:115,3,37.9999989852906,10|0|0|0,0:0|0:0|0:0|0:0,0:0:0:0:
333,127,43963,2,0,P|352:142|372:168,3,37.9999989852906
341,193,44307,6,0,P|344:243|363:283,1,75.9999979705811,2|8,0:0|0:0,0:0:0:0:
256,348,44652,2,0,L|256:257,1,75.9999979705811,2|8,0:0|0:0,0:0:0:0:
171,193,44997,2,0,P|170:230|158:266,1,75.9999979705811,2|8,0:0|0:0,0:0:0:0:
161,102,45342,1,2,0:0:0:0:
256,80,45514,1,8,0:0:0:0:
351,102,45687,5,6,0:0:0:0:
256,192,62238,12,4,67066,0:0:0:0:
364,84,67756,6,0,L|351:240,1,151.999995941162,4|8,0:0|0:0,0:0:0:0:
274,284,68273,2,0,L|280:338,2,37.9999989852906,0|0|0,0:0|0:0|0:0,0:0:0:0:
196,234,68618,2,0,P|122:224|60:269,1,151.999995941162,0|8,0:0|0:0,0:0:0:0:
110,90,69307,6,0,L|189:97,1,75.9999979705811,0|8,0:0|0:0,0:0:0:0:
256,155,69652,1,0,0:0:0:0:
326,96,69825,2,0,L|402:90,1,75.9999979705811,0|0,0:0|0:0,0:0:0:0:
429,177,70170,2,0,L|353:183,1,75.9999979705811,8|0,0:0|0:0,0:0:0:0:
501,117,70514,6,0,P|521:186|480:256,1,151.999995941162,0|8,0:0|0:0,0:0:0:0:
395,277,71032,2,0,L|231:266,1,151.999995941162,0|0,0:0|0:0,0:0:0:0:
151,270,71549,2,0,P|141:307|145:345,1,75.9999979705811,8|0,0:0|0:0,0:0:0:0:
194,190,71894,6,0,L|185:30,1,151.999995941162,0|8,0:0|0:0,0:0:0:0:
272,66,72411,1,0,0:0:0:0:
272,66,72583,2,0,P|336:79|368:76,1,75.9999979705811,0|0,0:0|0:0,0:0:0:0:
436,62,72928,1,8,0:0:0:0:
436,62,73273,6,0,L|427:220,1,151.999995941162,4|8,0:0|0:0,0:0:0:0:
379,291,73790,2,0,P|402:301|429:304,2,37.9999989852906,0|0|0,0:0|0:0|0:0,0:0:0:0:
292,259,74135,2,0,P|217:244|122:264,1,151.999995941162,0|8,0:0|0:0,0:0:0:0:
33,109,74825,6,0,L|43:21,1,75.9999979705811,0|8,0:0|0:0,0:0:0:0:
128,62,75170,1,0,0:0:0:0:
128,62,75342,1,0,0:0:0:0:
214,90,75514,2,0,P|268:103|302:96,2,75.9999979705811,0|8|0,0:0|0:0|0:0,0:0:0:0:
350,30,76032,6,0,L|328:201,1,151.999995941162,0|8,0:0|0:0,0:0:0:0:
315,270,76549,1,0,0:0:0:0:
148,192,76894,2,0,P|115:176|77:176,1,75.9999979705811,0|8,0:0|0:0,0:0:0:0:
96,265,77238,1,0,0:0:0:0:
238,175,77411,6,0,B|252:128|254:100|254:100|248:66|229:22,1,151.999995941162,0|8,0:0|0:0,0:0:0:0:
141,10,77928,1,0,0:0:0:0:
51,30,78101,2,0,L|55:105,1,75.9999979705811,0|0,0:0|0:0,0:0:0:0:
10,184,78445,1,8,0:0:0:0:
10,184,78790,6,0,P|81:194|143:126,1,151.999995941162,4|8,0:0|0:0,0:0:0:0:
194,72,79307,2,0,L|183:10,2,37.9999989852906,0|0|0,0:0|0:0|0:0,0:0:0:0:
275,114,79652,2,0,B|313:112|345:86|345:86|364:121|399:137,1,151.999995941162,0|8,0:0|0:0,0:0:0:0:
442,314,80342,6,0,P|396:294|345:293,1,75.9999979705811,0|8,0:0|0:0,0:0:0:0:
279,290,80687,1,0,0:0:0:0:
188,295,80859,2,0,L|87:301,1,75.9999979705811,0|0,0:0|0:0,0:0:0:0:
149,216,81204,2,0,P|197:208|235:222,1,75.9999979705811,8|0,0:0|0:0,0:0:0:0:
370,146,81549,6,0,P|299:160|228:96,1,151.999995941162,0|8,0:0|0:0,0:0:0:0:
317,72,82066,2,0,L|317:230,1,151.999995941162
253,288,82583,2,0,P|218:271|181:269,1,75.9999979705811,8|0,0:0|0:0,0:0:0:0:
326,342,82928,6,0,L|488:337,1,151.999995941162,0|8,0:0|0:0,0:0:0:0:
500,248,83445,1,0,0:0:0:0:
500,248,83618,2,0,P|502:201|497:161,1,75.9999979705811,0|0,0:0|0:0,0:0:0:0:
486,81,83963,1,8,0:0:0:0:
486,81,84307,6,0,B|413:99|413:99|327:73,1,151.999995941162,4|8,0:0|0:0,0:0:0:0:
256,37,84825,2,0,L|256:92,2,37.9999989852906,0|0|0,0:0|0:0|0:0,0:0:0:0:
172,76,85170,2,0,B|99:99|99:99|26:81,1,151.999995941162,0|8,0:0|0:0,0:0:0:0:
125,233,85859,6,0,L|218:222,1,75.9999979705811,0|8,0:0|0:0,0:0:0:0:
291,211,86204,1,0,0:0:0:0:
291,211,86376,1,0,0:0:0:0:
379,193,86549,2,0,P|391:157|387:119,2,75.9999979705811,0|8|0,0:0|0:0|0:0,0:0:0:0:
332,48,87066,6,0,P|410:33|477:100,1,151.999995941162,0|8,0:0|0:0,0:0:0:0:
503,156,87583,2,0,L|491:318,1,151.999995941162,0|0,0:0|0:0,0:0:0:0:
401,323,88101,2,0,P|348:303|303:302,1,75.9999979705811,8|0,0:0|0:0,0:0:0:0:
177,244,88445,6,0,P|252:244|328:208,1,151.999995941162,2|10,0:0|0:0,0:0:0:0:
395,158,88963,1,0,0:0:0:0:
335,88,89135,2,0,L|259:88,1,75.9999979705811,2|0,0:0|0:0,0:0:0:0:
424,71,89480,1,10,0:0:0:0:
424,71,89825,6,0,P|479:124|469:213,1,151.999995941162,2|8,0:0|0:0,0:0:0:0:
408,254,90342,1,0,0:0:0:0:
325,293,90514,2,0,P|270:311|220:314,1,75.9999979705811,2|2,0:0|0:0,0:0:0:0:
167,278,90859,1,10,0:0:0:0:
146,188,91032,1,2,0:0:0:0:
213,126,91204,6,0,P|291:115|386:128,1,151.999995941162,2|8,0:0|0:0,0:0:0:0:
360,30,91721,2,0,P|284:22|209:33,1,151.999995941162,2|0,0:0|0:0,0:0:0:0:
132,83,92238,2,0,P|82:81|51:62,1,75.9999979705811,10|0,0:0|0:0,0:0:0:0:
213,126,92583,6,0,B|214:173|214:173|202:232|202:232|205:295,1,151.999995941162,2|8,0:0|0:0,0:0:0:0:
150,351,93101,2,0,L|63:340,2,75.9999979705811,0|0|0,0:0|0:0|0:0,0:0:0:0:
241,360,93618,2,0,L|328:349,1,75.9999979705811,8|0,0:0|0:0,0:0:0:0:
460,301,93963,6,0,P|387:295|338:203,1,151.999995941162,2|8,0:0|0:0,0:0:0:0:
309,150,94480,2,0,B|234:161|234:161|201:133|164:134,1,151.999995941162
172,225,94997,2,0,L|177:300,1,75.9999979705811,8|0,0:0|0:0,0:0:0:0:
89,185,95342,6,0,P|75:116|126:52,1,151.999995941162,2|8,0:0|0:0,0:0:0:0:
212,47,95859,1,0,0:0:0:0:
212,47,96032,2,0,P|273:50|318:65,1,75.9999979705811,0|0,0:0|0:0,0:0:0:0:
322,137,96376,2,0,P|285:142|247:143,1,75.9999979705811,8|0,0:0|0:0,0:0:0:0:
376,63,96721,6,0,L|364:227,1,151.999995941162,2|8,0:0|0:0,0:0:0:0:
281,252,97238,2,0,P|207:271|127:221,1,151.999995941162,2|0,0:0|0:0,0:0:0:0:
69,182,97756,1,10,0:0:0:0:
57,272,97928,1,0,0:0:0:0:
154,148,98101,6,0,P|156:73|103:9,1,151.999995941162,2|8,0:0|0:0,0:0:0:0:
19,10,98618,1,0,0:0:0:0:
5,100,98790,2,0,L|1:182,1,75.9999979705811,0|0,0:0|0:0,0:0:0:0:
56,249,99135,2,0,L|60:331,1,75.9999979705811,8|0,0:0|0:0,0:0:0:0:
160,202,99480,6,0,P|144:274|185:337,1,151.999995941162,2|8,0:0|0:0,0:0:0:0:
233,259,99997,2,0,P|249:187|208:123,1,151.999995941162,0|0,0:0|0:0,0:0:0:0:
123,95,100514,2,0,L|47:98,1,75.9999979705811,8|0,0:0|0:0,0:0:0:0:
192,35,100859,6,0,B|246:26|246:26|292:36|292:36|361:30,1,151.999995941162,2|8,0:0|0:0,0:0:0:0:
432,19,101376,1,0,0:0:0:0:
487,91,101549,2,0,P|495:139|495:180,1,75.9999979705811,2|2,0:0|0:0,0:0:0:0:
440,239,101894,1,10,0:0:0:0:
350,256,102066,1,2,0:0:0:0:
271,209,102238,6,0,P|266:132|293:36,1,151.999995941162,2|8,0:0|0:0,0:0:0:0:
367,23,102756,1,0,0:0:0:0:
383,112,102928,1,2,0:0:0:0:
383,112,103101,1,2,0:0:0:0:
462,154,103273,2,0,P|473:117|467:80,1,75.9999979705811,10|2,0:0|0:0,0:0:0:0:
386,204,103618,6,0,L|401:368,1,151.999995941162,2|8,0:0|0:0,0:0:0:0:
312,328,104135,1,0,0:0:0:0:
312,328,104307,2,0,L|304:245,1,75.9999979705811,0|0,0:0|0:0,0:0:0:0:
214,238,104652,2,0,P|166:253|116:234,1,75.9999979705811,8|0,0:0|0:0,0:0:0:0:
165,160,104997,6,0,L|317:160,2,151.999995941162,2|8|2,0:0|0:0|0:0,0:0:0:0:
77,186,105859,1,0,0:0:0:0:
98,97,106032,2,0,P|148:70|180:70,1,75.9999979705811,8|0,0:0|0:0,0:0:0:0:
257,68,106376,6,0,P|333:81|419:49,1,151.999995941162,2|8,0:0|0:0,0:0:0:0:
484,16,106894,1,0,0:0:0:0:
480,106,107066,2,0,P|474:162|481:193,1,75.9999979705811,2|0,0:0|0:0,0:0:0:0:
398,227,107411,2,0,P|343:202|293:201,1,75.9999979705811,8|0,0:0|0:0,0:0:0:0:
236,194,107756,5,2,0:0:0:0:
277,275,107928,1,0,0:0:0:0:
186,270,108101,1,8,0:0:0:0:
144,183,108273,1,0,0:0:0:0:
94,259,108445,2,0,P|114:329|210:362,1,151.999995941162,2|8,0:0|0:0,0:0:0:0:
144,183,109135,6,0,L|148:119,3,37.9999989852906,2|0|0|0,0:0|0:0|0:0|0:0,0:0:0:0:
182,116,109480,2,0,P|211:108|235:107,3,37.9999989852906,8|0|0|0,0:0|0:0|0:0|0:0,0:0:0:0:
261,124,109825,2,0,P|290:132|314:133,3,37.9999989852906,2|0|0|0,0:0|0:0|0:0|0:0,0:0:0:0:
343,124,110170,2,0,L|407:117,3,37.9999989852906,8|0|0|0,0:0|0:0|0:0|0:0,0:0:0:0:
421,139,110514,6,0,L|420:231,1,75.9999979705811,2|0,0:0|0:0,0:0:0:0:
328,317,110859,2,0,P|323:280|333:244,1,75.9999979705811,10|0,0:0|0:0,0:0:0:0:
260,123,111204,2,0,P|265:161|256:198,1,75.9999979705811,2|0,0:0|0:0,0:0:0:0:
174,156,111549,1,2,0:0:0:0:
190,66,111721,1,0,0:0:0:0:
102,96,111894,5,6,0:0:0:0:
406,116,117411,6,0,P|423:178|387:258,1,128,4|8,0:0|0:0,0:0:0:0:
345,287,117928,2,0,L|351:337,2,32,0|0|0,0:0|0:0|0:0,0:0:0:0:
273,258,118273,2,0,L|131:271,1,128,0|8,0:0|0:0,0:0:0:0:
44,153,118963,6,0,P|82:137|125:138,1,64,0|8,0:0|0:0,0:0:0:0:
180,140,119307,1,0,0:0:0:0:
256,151,119480,2,0,L|334:162,1,64,0|0,0:0|0:0,0:0:0:0:
396,159,119825,1,8,0:0:0:0:
396,159,120170,6,0,L|407:292,1,128,0|8,0:0|0:0,0:0:0:0:
336,319,120687,2,0,P|277:298|191:319,1,128,0|0,0:0|0:0,0:0:0:0:
137,321,121204,2,0,B|104:324|104:324|57:309,1,64,8|0,0:0|0:0,0:0:0:0:
35,248,121549,6,0,B|18:185|51:185|35:120,1,128,0|8,0:0|0:0,0:0:0:0:
109,100,122066,2,0,P|116:154|111:185,2,64,0|0|0,0:0|0:0|0:0,0:0:0:0:
91,24,122583,1,8,0:0:0:0:
91,24,122928,6,0,L|237:32,1,128,4|8,0:0|0:0,0:0:0:0:
285,69,123445,2,0,L|332:66,2,32
238,130,123790,2,0,P|222:192|253:266,1,128,0|8,0:0|0:0,0:0:0:0:
366,340,124480,6,0,L|296:333,1,64,0|8,0:0|0:0,0:0:0:0:
225,340,124825,1,0,0:0:0:0:
157,303,124997,2,0,P|143:248|152:215,1,64,0|0,0:0|0:0,0:0:0:0:
155,165,125342,1,8,0:0:0:0:
155,165,125687,6,0,B|219:155|219:155|295:174,1,128,0|8,0:0|0:0,0:0:0:0:
309,99,126204,2,0,B|245:82|245:82|284:35,1,128,0|0,0:0|0:0,0:0:0:0:
361,34,126721,2,0,P|390:82|389:119,1,64,8|0,0:0|0:0,0:0:0:0:
396,165,127066,6,0,L|386:292,1,128,0|8,0:0|0:0,0:0:0:0:
314,321,127583,2,0,P|346:358|373:368,2,64,0|0|0,0:0|0:0|0:0,0:0:0:0:
277,252,128101,1,8,0:0:0:0:
277,252,128445,6,0,P|213:274|135:237,1,128,4|8,0:0|0:0,0:0:0:0:
104,200,128963,2,0,L|44:205,2,32,0|0|0,0:0|0:0|0:0,0:0:0:0:
153,141,129307,2,0,P|217:119|295:156,1,128,0|8,0:0|0:0,0:0:0:0:
411,202,129997,6,0,L|408:272,1,64,0|8,0:0|0:0,0:0:0:0:
350,316,130342,1,0,0:0:0:0:
277,341,130514,2,0,P|219:348|197:340,1,64,0|0,0:0|0:0,0:0:0:0:
140,327,130859,1,8,0:0:0:0:
140,327,131204,6,0,L|131:199,1,128,0|8,0:0|0:0,0:0:0:0:
138,122,131721,2,0,B|168:122|195:150|195:150|264:137,1,128,0|0,0:0|0:0,0:0:0:0:
332,123,132238,2,0,P|361:152|370:192,1,64,8|0,0:0|0:0,0:0:0:0:
382,248,132583,6,0,P|365:308|292:343,1,128,0|8,0:0|0:0,0:0:0:0:
234,340,133101,2,0,L|142:332,2,64
276,271,133618,1,8,0:0:0:0:
276,271,133963,6,0,L|131:258,1,128,4|8,0:0|0:0,0:0:0:0:
148,182,134480,2,0,L|275:193,1,128,0|0,0:0|0:0,0:0:0:0:
345,161,134997,1,8,0:0:0:0:
345,161,135342,6,0,P|392:170|426:158,1,64,0|0,0:0|0:0,0:0:0:0:
382,93,135687,1,8,0:0:0:0:
325,41,135859,2,0,L|169:44,1,128,0|0,0:0|0:0,0:0:0:0:
123,66,136376,2,0,P|108:105|114:147,1,64,8|0,0:0|0:0,0:0:0:0:
140,196,136721,6,0,B|156:279|156:279|145:329,2,128,0|8|0,0:0|0:0|0:0,0:0:0:0:
108,126,137583,1,0,0:0:0:0:
184,135,137756,1,8,0:0:0:0:
184,135,138101,6,0,P|245:151|318:129,1,128,0|8,0:0|0:0,0:0:0:0:
374,99,138618,1,0,0:0:0:0:
433,147,138790,2,0,L|437:230,1,64,0|0,0:0|0:0,0:0:0:0:
386,270,139135,2,0,L|382:353,1,64,8|0,0:0|0:0,0:0:0:0:
309,358,139480,6,0,B|261:357|261:357|228:348|228:348|158:350,1,128,4|8,0:0|0:0,0:0:0:0:
114,313,139997,2,0,P|102:254|136:185,1,128,0|0,0:0|0:0,0:0:0:0:
187,144,140514,1,8,0:0:0:0:
187,144,140859,6,0,P|210:182|237:194,1,64,0|0,0:0|0:0,0:0:0:0:
257,120,141204,2,0,P|295:142|324:140,1,64,8|0,0:0|0:0,0:0:0:0:
312,65,141549,2,0,P|273:42|244:44,1,64,0|0,0:0|0:0,0:0:0:0:
182,66,141894,2,0,L|105:69,1,64,8|0,0:0|0:0,0:0:0:0:
55,113,142238,6,0,P|38:174|57:243,2,128,0|8|0,0:0|0:0|0:0,0:0:0:0:
118,68,143101,1,0,0:0:0:0:
151,136,143273,1,8,0:0:0:0:
151,136,143618,6,0,B|211:163|211:163|300:157,1,128,0|8,0:0|0:0,0:0:0:0:
349,153,144135,1,0,0:0:0:0:
408,201,144307,2,0,P|415:237|411:273,1,64,0|0,0:0|0:0,0:0:0:0:
358,318,144652,2,0,L|276:314,1,64,8|0,0:0|0:0,0:0:0:0:
217,314,144997,6,0,L|89:320,1,128,4|8,0:0|0:0,0:0:0:0:
41,258,145514,2,0,P|55:196|94:146,1,128
174,136,146032,1,8,0:0:0:0:
174,136,146376,6,0,P|215:148|266:148,1,64,0|0,0:0|0:0,0:0:0:0:
309,127,146721,1,8,0:0:0:0:
361,183,146894,2,0,B|381:246|342:246|360:310,1,128,0|0,0:0|0:0,0:0:0:0:
292,346,147411,2,0,P|274:325|234:307,1,64,8|0,0:0|0:0,0:0:0:0:
165,303,147756,6,0,L|37:311,2,128,0|8|0,0:0|0:0|0:0,0:0:0:0:
209,239,148618,1,0,0:0:0:0:
173,170,148790,1,8,0:0:0:0:
173,170,149135,6,0,L|185:35,1,128,0|8,0:0|0:0,0:0:0:0:
259,61,149652,1,0,0:0:0:0:
259,61,149825,2,0,P|303:77|324:78,1,64,0|0,0:0|0:0,0:0:0:0:
396,82,150170,2,0,P|388:129|396:172,1,64,8|0,0:0|0:0,0:0:0:0:
411,218,150514,5,4,0:0:0:0:
256,192,150601,12,2,156032,0:0:0:0:
