osu file format v14

[General]
AudioFilename: TwoThirds-Bring it Back (www.myfree.cc).mp3
AudioLeadIn: 0
PreviewTime: 89997
Countdown: 0
SampleSet: Normal
StackLeniency: 0.7
Mode: 0
LetterboxInBreaks: 0
WidescreenStoryboard: 0

[Editor]
Bookmarks: 22238,34652,40170,45687,62238,67756,89825,111894,133963,150514,156032
DistanceSpacing: 1.4
BeatDivisor: 2
GridSize: 4
TimelineZoom: 1

[Metadata]
Title:Bring it Back
TitleUnicode:Bring it Back
Artist:TwoThirds
ArtistUnicode:TwoThirds
Creator:RyoKazuka
Version:Easy
Source:
Tags:DnB drum and bass chill electronic 006 embrace monstercat cut version
BeatmapID:737126
BeatmapSetID:333019

[Difficulty]
HPDrainRate:2
CircleSize:2.5
OverallDifficulty:2.2
ApproachRate:2.5
SliderMultiplier:0.9
SliderTickRate:1

[Events]
//Background and Video events
0,0,"1874845.jpg",0,0
//Break Periods
2,45886,60738
2,112238,115911
//Storyboard Layer 0 (Background)
//Storyboard Layer 1 (Fail)
//Storyboard Layer 2 (Pass)
//Storyboard Layer 3 (Foreground)
//Storyboard Sound Samples

[TimingPoints]
170,344.827586206897,4,2,1,30,1,0
170,-133.333333333333,4,2,1,30,0,0
1549,344.827586206897,4,2,1,30,1,0
1549,-133.333333333333,4,2,1,30,0,0
22238,-133.333333333333,4,1,1,60,0,0
45686,-133.333333333333,4,2,1,60,0,0
67755,-133.333333333333,4,1,1,60,0,1
89824,-133.333333333333,4,1,1,60,0,0
90169,-133.333333333333,4,1,1,60,0,1
111893,-133.333333333333,4,1,1,60,0,0
117411,-133.333333333333,4,1,1,50,0,0
150514,-133.333333333333,4,1,1,35,0,0
151893,-133.333333333333,4,1,1,40,0,0
153273,-133.333333333333,4,1,1,45,0,0
154652,-133.333333333333,4,1,1,50,0,0
156031,-133.333333333333,4,1,1,55,0,0

[Colours]
Combo1 : 128,255,255
Combo2 : 0,128,192
Combo3 : 107,182,182
Combo4 : 128,255,128

[HitObjects]
82,120,170,6,0,L|220:112,1,135.000005149842,2|2,0:0|0:0,0:0:0:0:
304,148,1204,1,2,0:0:0:0:
380,204,1549,6,0,P|392:271|382:327,2,101.250003862381,6|2|2,0:0|0:0|0:0,0:0:0:0:
304,148,2928,2,0,P|292:81|302:25,2,101.250003862381,2|2|2,0:0|0:0|0:0,0:0:0:0:
248,224,4307,2,0,P|169:195|84:288,1,202.500007724762,2|0,0:0|0:0,0:0:0:0:
179,288,5687,2,0,P|252:316|306:297,1,135.000005149842,2|2,0:0|0:0,0:0:0:0:
383,248,6721,1,2,0:0:0:0:
419,160,7066,6,0,B|422:92|422:92|406:52,2,101.250003862381,2|2|2,0:0|0:0|0:0,0:0:0:0:
383,248,8445,2,0,B|380:316|380:316|396:356,2,101.250003862381,2|2|2,0:0|0:0|0:0,0:0:0:0:
290,227,9825,2,0,P|206:278|118:212,1,202.500007724762,2|0,0:0|0:0,0:0:0:0:
174,148,11204,2,0,L|312:134,1,135.000005149842,2|2,0:0|0:0,0:0:0:0:
400,110,12238,1,2,0:0:0:0:
334,41,12583,6,0,L|221:52,2,101.250003862381,2|2|2,0:0|0:0|0:0,0:0:0:0:
400,110,13963,2,0,P|415:173|418:213,2,101.250003862381,2|2|2,0:0|0:0|0:0,0:0:0:0:
309,135,15342,2,0,P|228:179|143:117,1,202.500007724762,2|0,0:0|0:0,0:0:0:0:
74,185,16721,2,0,P|109:242|153:305,1,135.000005149842,2|2,0:0|0:0,0:0:0:0:
242,307,17755,1,2,0:0:0:0:
333,333,18101,6,0,B|407:324|407:324|439:337,2,101.250003862381,2|2|2,0:0|0:0|0:0,0:0:0:0:
242,307,19480,2,0,B|168:316|168:316|136:303,2,101.250003862381,2|2|2,0:0|0:0|0:0,0:0:0:0:
314,246,20859,2,0,B|302:194|338:150|338:150|306:114|318:50,1,202.500007724762,2|0,0:0|0:0,0:0:0:0:
406,86,22238,2,0,P|425:117|430:147,1,67.5000025749208,2|2,0:0|0:0,0:0:0:0:
455,238,22928,2,0,L|442:320,1,67.5000025749208,2|2,0:0|0:0,0:0:0:0:
359,346,23618,6,0,P|292:353|194:364,1,135.000005149842,2|10,0:0|2:0,0:0:0:0:
147,305,24652,1,2,0:0:0:0:
91,228,24997,2,0,P|81:164|89:112,2,101.250003862381,2|2|2,0:0|0:0|0:0,0:0:0:0:
147,305,26376,2,0,B|185:313|224:288|224:288|259:309|259:309|296:288|346:304,1,202.500007724762,2|0,0:0|0:0,0:0:0:0:
417,251,27756,2,0,L|425:107,2,135.000005149842,2|10|0,0:0|2:0|0:0,0:0:0:0:
336,301,29480,6,0,P|297:303|251:305,1,67.5000025749208,2|0,0:0|0:0,0:0:0:0:
191,250,30170,1,0,0:0:0:0:
110,201,30514,2,0,P|103:151|97:93,2,101.250003862381,2|2|2,0:0|0:0|0:0,0:0:0:0:
191,250,31894,2,0,P|296:245|398:241,1,202.500007724762,2|0,0:0|0:0,0:0:0:0:
428,153,33273,2,0,P|401:95|428:27,2,135.000005149842,2|8|2,0:0|2:0|0:0,0:0:0:0:
386,337,35342,6,0,P|347:341|305:345,1,67.5000025749208,10|2,2:0|0:0,0:0:0:0:
231,306,36032,1,2,0:0:0:0:
142,138,36721,2,0,P|180:133|223:130,1,67.5000025749208,10|2,2:0|0:0,0:0:0:0:
297,169,37411,2,0,P|343:228|289:333,1,202.500007724762,2|0,0:0|0:0,0:0:0:0:
197,346,38790,2,0,P|128:350|42:355,2,135.000005149842,2|10|2,0:0|2:0|0:0,0:0:0:0:
365,260,40859,6,0,P|404:207|392:119,1,135.000005149842,10|2,2:0|0:0,0:0:0:0:
253,24,42238,2,0,P|214:77|226:165,1,135.000005149842,10|2,2:0|0:0,0:0:0:0:
365,260,43618,2,0,P|441:268|508:276,1,135.000005149842,10|2,0:0|0:0,0:0:0:0:
399,113,44997,2,0,P|323:105|256:97,1,135.000005149842,2|6,0:0|0:0,0:0:0:0:
256,192,62238,12,4,67756,0:0:0:0:
395,151,69135,6,0,P|397:85|390:45,2,101.250003862381,0|0|8,0:0|0:0|0:0,0:0:0:0:
311,196,70514,2,0,P|231:158|145:237,1,202.500007724762,0|8,0:0|0:0,0:0:0:0:
237,253,71894,2,0,P|250:320|248:368,2,101.250003862381,0|0|8,0:0|0:0|0:0,0:0:0:0:
148,221,73273,6,0,P|128:157|149:82,1,135.000005149842,4|0,0:0|0:0,0:0:0:0:
228,52,74307,1,0,0:0:0:0:
321,66,74652,2,0,P|366:71|408:75,1,67.5000025749208,0|8,0:0|0:0,0:0:0:0:
391,167,75342,2,0,P|424:170|458:174,1,67.5000025749208,0|8,0:0|0:0,0:0:0:0:
476,267,76032,2,0,B|493:347|493:347|429:327|360:357,1,202.500007724762,0|8,0:0|0:0,0:0:0:0:
281,365,77411,2,0,P|213:372|157:359,2,101.250003862381,0|0|8,0:0|0:0|0:0,0:0:0:0:
335,287,78790,6,0,P|338:220|341:142,1,135.000005149842,4|0,0:0|0:0,0:0:0:0:
272,86,79825,1,0,0:0:0:0:
178,69,80170,2,0,B|109:60|109:60|60:72,2,101.250003862381,0|0|8,0:0|0:0|0:0,0:0:0:0:
206,159,81549,2,0,B|214:272|214:272|265:261|310:289,1,202.500007724762,0|8,0:0|0:0,0:0:0:0:
387,323,82928,2,0,P|453:337|490:327,2,101.250003862381,0|0|8,0:0|0:0|0:0,0:0:0:0:
301,283,84307,6,0,P|237:266|156:289,1,135.000005149842,4|0,0:0|0:0,0:0:0:0:
85,320,85342,1,0,0:0:0:0:
92,226,85687,2,0,P|91:190|88:144,1,67.5000025749208,0|8,0:0|0:0,0:0:0:0:
160,96,86376,2,0,P|158:62|157:28,1,67.5000025749208,0|8,0:0|0:0,0:0:0:0:
251,30,87066,2,0,P|337:84|417:28,1,202.500007724762,0|8,0:0|0:0,0:0:0:0:
469,112,88445,2,0,P|418:155|369:171,2,101.250003862381,2|0|10,0:0|0:0|0:0,0:0:0:0:
413,35,89825,6,0,P|345:32|260:29,1,135.000005149842,2|2,0:0|0:0,0:0:0:0:
192,70,90859,1,10,0:0:0:0:
154,156,91204,2,0,P|146:222|162:271,2,101.250003862381,2|2|10,0:0|0:0|0:0,0:0:0:0:
248,152,92583,2,0,L|458:155,1,202.500007724762,0|8,0:0|0:0,0:0:0:0:
430,247,93963,2,0,L|328:245,2,101.250003862381,2|0|8,0:0|0:0|0:0,0:0:0:0:
451,154,95342,6,0,B|446:53|446:53|339:63,1,202.500007724762,2|8,0:0|0:0,0:0:0:0:
251,75,96721,2,0,B|182:90|182:90|136:71,2,101.250003862381,2|2|10,0:0|0:0|0:0,0:0:0:0:
305,152,98101,2,0,P|269:221|341:321,1,202.500007724762,2|8,0:0|0:0,0:0:0:0:
422,302,99480,2,0,P|401:256|361:228,2,101.250003862381,2|0|8,0:0|0:0|0:0,0:0:0:0:
330,317,100859,6,0,L|184:319,1,135.000005149842,2|2,0:0|0:0,0:0:0:0:
105,286,101894,1,10,0:0:0:0:
54,206,102238,2,0,P|48:138|46:59,1,135.000005149842,2|2,0:0|0:0,0:0:0:0:
136,43,103273,1,10,0:0:0:0:
227,68,103618,2,0,P|296:103|395:13,1,202.500007724762,2|8,0:0|0:0,0:0:0:0:
467,92,104997,2,0,P|485:140|498:194,2,101.250003862381,2|0|8,0:0|0:0|0:0,0:0:0:0:
390,38,106376,5,2,0:0:0:0:
418,224,107066,2,0,P|385:281|299:285,1,135.000005149842,2|2,0:0|0:0,0:0:0:0:
144,226,108445,2,0,P|177:169|263:165,1,135.000005149842,2|2,0:0|0:0,0:0:0:0:
418,224,109825,2,0,L|451:376,1,135.000005149842,2|2,0:0|0:0,0:0:0:0:
270,288,111204,2,0,L|237:136,1,135.000005149842,2|6,0:0|0:0,0:0:0:0:
125,81,117411,6,0,P|192:83|286:84,1,135.000005149842,4|0,0:0|0:0,0:0:0:0:
353,100,118445,1,0,0:0:0:0:
412,173,118790,2,0,P|434:268|421:319,2,135.000005149842,0|0|0,0:0|0:0|0:0,0:0:0:0:
353,100,120514,1,8,0:0:0:0:
259,87,120859,2,0,P|221:89|167:83,1,67.5000025749208,0|8,0:0|0:0,0:0:0:0:
109,39,121549,2,0,B|103:104|99:147,2,101.250003862381,0|0|8,0:0|0:0|0:0,0:0:0:0:
202,28,122928,6,0,P|270:29|351:30,1,135.000005149842,4|0,0:0|0:0,0:0:0:0:
413,85,123963,1,0,0:0:0:0:
453,169,124307,2,0,B|468:235|468:235|451:318,2,135.000005149842,0|0|0,0:0|0:0|0:0,0:0:0:0:
358,170,126032,1,8,0:0:0:0:
263,176,126376,2,0,P|205:180|166:181,1,67.5000025749208,0|8,0:0|0:0,0:0:0:0:
100,185,127066,2,0,P|95:254|110:302,2,101.250003862381,0|0|8,0:0|0:0|0:0,0:0:0:0:
128,94,128445,6,0,P|190:68|272:97,1,135.000005149842,4|0,0:0|0:0,0:0:0:0:
332,136,129480,1,0,0:0:0:0:
410,188,129825,2,0,L|428:346,2,135.000005149842
332,136,131549,1,8,0:0:0:0:
237,129,131894,2,0,P|186:138|150:127,1,67.5000025749208,0|8,0:0|0:0,0:0:0:0:
77,148,132583,2,0,B|59:208|59:208|85:269,2,101.250003862381,0|0|8,0:0|0:0|0:0,0:0:0:0:
171,135,133963,6,0,B|189:75|189:75|163:14,2,101.250003862381,4|0|8,0:0|0:0|0:0,0:0:0:0:
224,212,135342,2,0,P|330:200|430:215,1,202.500007724762,0|8,0:0|0:0,0:0:0:0:
440,306,136721,1,0,0:0:0:0:
348,329,137066,2,0,P|277:344|211:326,1,135.000005149842,8|8,0:0|0:0,0:0:0:0:
122,327,138101,2,0,B|53:328|53:328|8:348,2,101.250003862381,0|0|8,0:0|0:0|0:0,0:0:0:0:
217,329,139480,6,0,B|286:328|286:328|331:308,2,101.250003862381,4|0|8,0:0|0:0|0:0,0:0:0:0:
169,246,140859,2,0,P|183:181|151:99,1,135.000005149842,0|0,0:0|0:0,0:0:0:0:
88,59,141894,1,8,0:0:0:0:
172,16,142238,2,0,B|259:31|259:31|321:9,1,135.000005149842,0|0,0:0|0:0,0:0:0:0:
367,84,143273,1,8,0:0:0:0:
430,154,143618,2,0,P|444:217|424:271,2,101.250003862381,0|0|8,0:0|0:0|0:0,0:0:0:0:
367,84,144997,6,0,B|301:75|301:75|245:93,2,101.250003862381,4|0|8,0:0|0:0|0:0,0:0:0:0:
430,154,146376,2,0,P|479:226|416:320,1,202.500007724762,0|8,0:0|0:0,0:0:0:0:
334,342,147756,1,0,0:0:0:0:
239,336,148101,2,0,B|170:322|170:322|78:344,1,135.000005149842,8|8,0:0|0:0,0:0:0:0:
39,270,149135,2,0,L|58:151,2,101.250003862381,0|0|8,0:0|0:0|0:0,0:0:0:0:
256,192,150514,12,2,156032,0:0:0:0:
