osu file format v14

[General]
AudioFilename: audio.ogg
AudioLeadIn: 0
PreviewTime: 66917
Countdown: 0
SampleSet: Soft
StackLeniency: 0.7
Mode: 0
LetterboxInBreaks: 0
WidescreenStoryboard: 0

[Editor]
Bookmarks: 23468,45537,67606,89675,111744,133813,155882,177951,200020,222089,244158,266227,288296,310365
DistanceSpacing: 1
BeatDivisor: 4
GridSize: 32
TimelineZoom: 1.9

[Metadata]
Title:Bring it Back
TitleUnicode:Bring it Back
Artist:TwoThirds
ArtistUnicode:TwoThirds
Creator:AJT
Version:Collab
Source:
Tags:asphyxia fursum midorijeon featured artist monstercat release mappers' guild mpg electronic dnb drum and bass instrumental 006 embrace LVTHER
BeatmapID:3928422
BeatmapSetID:1905153

[Difficulty]
HPDrainRate:5
CircleSize:4.2
OverallDifficulty:9
ApproachRate:9.2
SliderMultiplier:1.9
SliderTickRate:1

[Events]
//Background and Video events
0,0,"DJepj2U.jpg",0,0
//Break Periods
2,48496,56002
//Storyboard Layer 0 (Background)
//Storyboard Layer 1 (Fail)
//Storyboard Layer 2 (Pass)
//Storyboard Layer 3 (Foreground)
//Storyboard Layer 4 (Overlay)
//Storyboard Sound Samples

[TimingPoints]
1400,344.827586206897,4,2,1,55,1,0
1400,-125,4,2,1,55,0,0
1917,-200,4,2,2,55,0,0
2089,-200,4,2,1,55,0,0
2779,-125,4,2,1,55,0,0
3296,-200,4,2,2,55,0,0
3468,-200,4,2,1,55,0,0
6917,-125,4,2,1,55,0,0
7434,-200,4,2,2,55,0,0
7606,-200,4,2,1,55,0,0
8296,-125,4,2,1,55,0,0
8813,-200,4,2,2,55,0,0
8986,-200,4,2,1,55,0,0
12434,-125,4,2,1,55,0,0
12951,-200,4,2,2,55,0,0
13124,-200,4,2,1,55,0,0
13813,-125,4,2,1,55,0,0
14331,-200,4,2,2,55,0,0
14503,-200,4,2,1,55,0,0
17951,-125,4,2,1,55,0,0
18468,-200,4,2,2,55,0,0
18641,-200,4,2,1,55,0,0
19331,-125,4,2,1,55,0,0
19848,-200,4,2,2,55,0,0
20020,-200,4,2,1,55,0,0
23468,-100,4,2,1,65,0,0
23813,-100,4,2,3,65,0,0
23986,-100,4,2,2,65,0,0
24158,-100,4,2,4,65,0,0
24503,-100,4,2,1,65,0,0
25193,-100,4,2,3,65,0,0
25365,-100,4,2,2,65,0,0
25537,-100,4,2,4,65,0,0
25882,-100,4,2,1,65,0,0
26572,-100,4,2,3,65,0,0
26744,-100,4,2,1,65,0,0
26917,-100,4,2,4,65,0,0
27262,-100,4,2,1,65,0,0
27951,-100,4,2,1,65,0,0
28296,-100,4,2,5,65,0,0
28986,-100,4,2,1,65,0,0
29331,-100,4,2,3,65,0,0
29503,-100,4,2,2,65,0,0
29675,-100,4,2,4,65,0,0
30020,-100,4,2,1,65,0,0
30710,-100,4,2,3,65,0,0
30882,-100,4,2,2,65,0,0
31055,-100,4,2,4,65,0,0
31400,-100,4,2,1,65,0,0
32089,-100,4,2,3,65,0,0
32262,-100,4,2,1,65,0,0
32434,-100,4,2,4,65,0,0
32779,-100,4,2,1,65,0,0
33468,-100,4,2,1,65,0,0
33813,-100,4,2,5,65,0,0
34503,-100,4,2,1,65,0,0
34848,-100,4,2,3,65,0,0
35020,-100,4,2,2,65,0,0
35193,-100,4,2,4,65,0,0
35537,-100,4,2,1,65,0,0
36227,-100,4,2,3,65,0,0
36400,-100,4,2,2,65,0,0
36572,-100,4,2,4,65,0,0
36917,-100,4,2,1,65,0,0
37606,-100,4,2,3,65,0,0
37779,-100,4,2,1,65,0,0
37951,-100,4,2,4,65,0,0
38296,-100,4,2,1,65,0,0
38986,-100,4,2,1,65,0,0
39331,-100,4,2,5,65,0,0
40020,-100,4,2,1,65,0,0
40365,-100,4,2,3,65,0,0
40537,-100,4,2,2,65,0,0
40710,-100,4,2,4,65,0,0
41055,-100,4,2,1,65,0,0
41400,-90.9090909090909,4,2,1,65,0,0
41744,-90.9090909090909,4,2,3,65,0,0
41917,-90.9090909090909,4,2,2,65,0,0
42089,-90.9090909090909,4,2,4,65,0,0
42434,-90.9090909090909,4,2,1,65,0,0
42779,-80,4,2,1,65,0,0
43124,-80,4,2,3,65,0,0
43296,-80,4,2,5,65,0,0
43813,-80,4,2,1,65,0,0
44158,-80,4,2,3,65,0,0
44244,-80,4,2,2,65,0,0
44331,-80,4,2,6,65,0,0
44417,-80,4,2,2,65,0,0
44503,-80,4,2,3,65,0,0
44589,-80,4,2,2,65,0,0
44675,-80,4,2,6,65,0,0
44762,-80,4,2,2,65,0,0
44848,-80,4,2,3,65,0,0
44934,-80,4,2,2,65,0,0
45020,-80,4,2,6,65,0,0
45106,-80,4,2,2,65,0,0
45193,-80,4,2,3,65,0,0
45279,-80,4,2,2,65,0,0
45365,-80,4,2,6,65,0,0
45451,-80,4,2,2,65,0,0
45537,-133.333333333333,4,2,4,60,0,0
45796,-133.333333333333,4,2,2,60,0,0
56572,-95.2380952380952,4,2,2,60,0,0
57089,-142.857142857143,4,2,2,60,0,0
57606,-95.2380952380952,4,2,2,60,0,0
58123,-142.857142857143,4,2,2,60,0,0
58641,-95.2380952380952,4,2,2,60,0,0
59158,-142.857142857143,4,2,2,60,0,0
62089,-95.2380952380952,4,2,2,60,0,0
63124,-95.2380952380952,4,2,2,60,0,0
64848,-125,4,2,2,60,0,0
66227,-95.2380952380952,4,2,2,60,0,0
66917,-95.2380952380952,4,2,7,75,0,0
67262,-95.2380952380952,4,2,2,75,0,0
67434,-95.2380952380952,4,2,3,75,0,0
67606,-80,4,2,2,80,0,0
67779,-80,4,2,4,80,0,0
67865,-80,4,2,2,80,0,0
67951,-80,4,2,8,80,0,0
68124,-80,4,2,6,80,0,0
68210,-80,4,2,5,80,0,0
68382,-80,4,2,9,80,0,0
68468,-80,4,2,5,80,0,0
68641,-80,4,2,9,80,0,0
68813,-80,4,2,8,80,0,0
68900,-80,4,2,2,80,0,0
68986,-80,4,2,4,80,0,0
69158,-80,4,2,6,80,0,0
69331,-80,4,2,8,80,0,0
69417,-80,4,2,2,80,0,0
69503,-80,4,2,4,80,0,0
69589,-80,4,2,5,80,0,0
69675,-80,4,2,9,80,0,0
69762,-80,4,2,5,80,0,0
69848,-80,4,2,7,80,0,0
69934,-80,4,2,7,80,0,0
70020,-80,4,2,10,80,0,0
70193,-80,4,2,9,80,0,0
70365,-80,4,2,6,80,0,0
70537,-80,4,2,4,80,0,0
70624,-80,4,2,2,80,0,0
70710,-80,4,2,8,80,0,0
70882,-80,4,2,6,80,0,0
70968,-80,4,2,5,80,0,0
71141,-80,4,2,9,80,0,0
71227,-80,4,2,5,80,0,0
71400,-80,4,2,9,80,0,0
71572,-80,4,2,5,80,0,0
71658,-80,4,2,2,80,0,0
71744,-80,4,2,8,80,0,0
71917,-80,4,2,5,80,0,0
72003,-80,4,2,2,80,0,0
72089,-80,4,2,8,80,0,0
72262,-80,4,2,6,80,0,0
72348,-80,4,2,5,80,0,0
72520,-80,4,2,9,80,0,0
72606,-80,4,2,7,80,0,0
72779,-80,4,2,11,80,0,0
72951,-80,4,2,5,80,0,0
73037,-80,4,2,2,80,0,0
73124,-80,4,2,6,80,0,0
73296,-80,4,2,4,80,0,0
73382,-80,4,2,2,80,0,0
73468,-80,4,2,8,80,0,0
73641,-80,4,2,6,80,0,0
73727,-80,4,2,5,80,0,0
73900,-80,4,2,9,80,0,0
73986,-80,4,2,5,80,0,0
74158,-80,4,2,9,80,0,0
74331,-80,4,2,8,80,0,0
74417,-80,4,2,2,80,0,0
74503,-80,4,2,4,80,0,0
74675,-80,4,2,6,80,0,0
74848,-80,4,2,8,80,0,0
74934,-80,4,2,2,80,0,0
75020,-80,4,2,4,80,0,0
75106,-80,4,2,5,80,0,0
75193,-80,4,2,9,80,0,0
75279,-80,4,2,5,80,0,0
75365,-80,4,2,7,80,0,0
75451,-80,4,2,7,80,0,0
75537,-80,4,2,10,80,0,0
75710,-80,4,2,9,80,0,0
75882,-80,4,2,6,80,0,0
76055,-80,4,2,4,80,0,0
76141,-80,4,2,2,80,0,0
76227,-80,4,2,8,80,0,0
76400,-80,4,2,6,80,0,0
76486,-80,4,2,5,80,0,0
76658,-80,4,2,9,80,0,0
76744,-80,4,2,5,80,0,0
76917,-80,4,2,9,80,0,0
77089,-80,4,2,5,80,0,0
77175,-80,4,2,2,80,0,0
77262,-80,4,2,8,80,0,0
77434,-80,4,2,5,80,0,0
77520,-80,4,2,2,80,0,0
77606,-80,4,2,8,80,0,0
77779,-80,4,2,6,80,0,0
77865,-80,4,2,5,80,0,0
78037,-80,4,2,9,80,0,0
78124,-80,4,2,7,80,0,0
78296,-80,4,2,11,80,0,0
78468,-80,4,2,5,80,0,0
78555,-80,4,2,2,80,0,0
78641,-80,4,2,6,80,0,0
78813,-80,4,2,4,80,0,0
78900,-80,4,2,2,80,0,0
78986,-80,4,2,8,80,0,0
79158,-80,4,2,6,80,0,0
79244,-80,4,2,5,80,0,0
79417,-80,4,2,9,80,0,0
79503,-80,4,2,5,80,0,0
79675,-80,4,2,9,80,0,0
79848,-80,4,2,8,80,0,0
79934,-80,4,2,2,80,0,0
80020,-80,4,2,4,80,0,0
80193,-80,4,2,6,80,0,0
80365,-80,4,2,8,80,0,0
80451,-80,4,2,2,80,0,0
80537,-80,4,2,4,80,0,0
80624,-80,4,2,5,80,0,0
80710,-80,4,2,9,80,0,0
80796,-80,4,2,5,80,0,0
80882,-80,4,2,7,80,0,0
80968,-80,4,2,7,80,0,0
81055,-80,4,2,10,80,0,0
81227,-80,4,2,9,80,0,0
81400,-80,4,2,6,80,0,0
81572,-80,4,2,4,80,0,0
81658,-80,4,2,2,80,0,0
81744,-80,4,2,8,80,0,0
81917,-80,4,2,6,80,0,0
82003,-80,4,2,5,80,0,0
82175,-80,4,2,9,80,0,0
82262,-80,4,2,5,80,0,0
82434,-80,4,2,9,80,0,0
82606,-80,4,2,5,80,0,0
82693,-80,4,2,2,80,0,0
82779,-80,4,2,8,80,0,0
82951,-80,4,2,5,80,0,0
83037,-80,4,2,2,80,0,0
83124,-80,4,2,8,80,0,0
83296,-80,4,2,6,80,0,0
83382,-80,4,2,5,80,0,0
83555,-80,4,2,9,80,0,0
83641,-80,4,2,7,80,0,0
83813,-80,4,2,11,80,0,0
83986,-80,4,2,5,80,0,0
84072,-80,4,2,2,80,0,0
84158,-80,4,2,6,80,0,0
84331,-80,4,2,4,80,0,0
84417,-80,4,2,2,80,0,0
84503,-80,4,2,8,80,0,0
84675,-80,4,2,6,80,0,0
84762,-80,4,2,5,80,0,0
84934,-80,4,2,9,80,0,0
85020,-80,4,2,5,80,0,0
85193,-80,4,2,9,80,0,0
85365,-80,4,2,8,80,0,0
85451,-80,4,2,2,80,0,0
85537,-80,4,2,4,80,0,0
85710,-80,4,2,6,80,0,0
85882,-80,4,2,8,80,0,0
85968,-80,4,2,2,80,0,0
86055,-80,4,2,4,80,0,0
86141,-80,4,2,5,80,0,0
86227,-80,4,2,9,80,0,0
86313,-80,4,2,5,80,0,0
86400,-80,4,2,7,80,0,0
86486,-80,4,2,7,80,0,0
86572,-80,4,2,10,80,0,0
86744,-80,4,2,9,80,0,0
86917,-80,4,2,6,80,0,0
87089,-80,4,2,4,80,0,0
87175,-80,4,2,2,80,0,0
87262,-80,4,2,8,80,0,0
87434,-80,4,2,6,80,0,0
87520,-80,4,2,5,80,0,0
87693,-80,4,2,9,80,0,0
87779,-80,4,2,5,80,0,0
87951,-80,4,2,9,80,0,0
88124,-80,4,2,5,80,0,0
88210,-80,4,2,2,80,0,0
88296,-80,4,2,8,80,0,0
88468,-80,4,2,5,80,0,0
88555,-80,4,2,2,80,0,0
88641,-80,4,2,8,80,0,0
88813,-80,4,2,6,80,0,0
88900,-80,4,2,5,80,0,0
89072,-80,4,2,9,80,0,0
89158,-80,4,2,7,80,0,0
89331,-80,4,2,11,80,0,0
89503,-80,4,2,5,80,0,0
89589,-80,4,2,2,80,0,0
89675,-200,4,2,2,80,0,0
90020,-200,4,2,8,80,0,0
90193,-200,4,2,6,80,0,0
90279,-200,4,2,5,80,0,0
90365,-100,4,2,5,80,0,0
90451,-100,4,2,9,80,0,0
90537,-83.3333333333333,4,2,5,80,0,0
90710,-66.6666666666667,4,2,9,80,0,0
90882,-66.6666666666667,4,2,5,80,0,0
90968,-66.6666666666667,4,2,2,80,0,0
91055,-66.6666666666667,4,2,5,80,0,0
91227,-66.6666666666667,4,2,9,80,0,0
91400,-66.6666666666667,4,2,8,80,0,0
91486,-66.6666666666667,4,2,2,80,0,0
91572,-66.6666666666667,4,2,4,80,0,0
91658,-66.6666666666667,4,2,5,80,0,0
91744,-71.4285714285714,4,2,9,80,0,0
91831,-71.4285714285714,4,2,5,80,0,0
91917,-71.4285714285714,4,2,7,80,0,0
92003,-71.4285714285714,4,2,7,80,0,0
92089,-71.4285714285714,4,2,10,80,0,0
92262,-71.4285714285714,4,2,9,80,0,0
92434,-80,4,2,6,80,0,0
92606,-80,4,2,4,80,0,0
92693,-80,4,2,2,80,0,0
92779,-80,4,2,8,80,0,0
92951,-80,4,2,6,80,0,0
93037,-80,4,2,5,80,0,0
93210,-80,4,2,9,80,0,0
93296,-80,4,2,5,80,0,0
93468,-80,4,2,9,80,0,0
93641,-80,4,2,5,80,0,0
93727,-80,4,2,2,80,0,0
93813,-80,4,2,8,80,0,0
93986,-80,4,2,5,80,0,0
94072,-80,4,2,2,80,0,0
94158,-80,4,2,8,80,0,0
94331,-80,4,2,6,80,0,0
94417,-80,4,2,5,80,0,0
94503,-74.0740740740741,4,2,5,80,0,0
94589,-74.0740740740741,4,2,9,80,0,0
94675,-74.0740740740741,4,2,7,80,0,0
94848,-74.0740740740741,4,2,11,80,0,0
95020,-74.0740740740741,4,2,5,80,0,0
95106,-74.0740740740741,4,2,2,80,0,0
95193,-133.333333333333,4,2,6,80,0,0
95365,-133.333333333333,4,2,4,80,0,0
95451,-133.333333333333,4,2,2,80,0,0
95537,-66.6666666666667,4,2,8,80,0,0
95710,-66.6666666666667,4,2,6,80,0,0
95796,-66.6666666666667,4,2,5,80,0,0
95968,-66.6666666666667,4,2,9,80,0,0
96055,-66.6666666666667,4,2,5,80,0,0
96227,-66.6666666666667,4,2,9,80,0,0
96400,-66.6666666666667,4,2,5,80,0,0
96486,-66.6666666666667,4,2,2,80,0,0
96572,-71.4285714285714,4,2,5,80,0,0
96744,-71.4285714285714,4,2,9,80,0,0
96917,-71.4285714285714,4,2,8,80,0,0
97003,-71.4285714285714,4,2,2,80,0,0
97089,-71.4285714285714,4,2,4,80,0,0
97175,-71.4285714285714,4,2,5,80,0,0
97262,-71.4285714285714,4,2,9,80,0,0
97348,-71.4285714285714,4,2,5,80,0,0
97434,-71.4285714285714,4,2,7,80,0,0
97520,-71.4285714285714,4,2,7,80,0,0
97606,-71.4285714285714,4,2,10,80,0,0
97779,-71.4285714285714,4,2,9,80,0,0
97951,-80,4,2,6,80,0,0
98124,-80,4,2,4,80,0,0
98210,-80,4,2,2,80,0,0
98296,-80,4,2,8,80,0,0
98468,-80,4,2,6,80,0,0
98555,-80,4,2,5,80,0,0
98727,-80,4,2,9,80,0,0
98813,-80,4,2,5,80,0,0
98986,-80,4,2,9,80,0,0
99158,-80,4,2,5,80,0,0
99244,-80,4,2,2,80,0,0
99331,-80,4,2,8,80,0,0
99503,-80,4,2,5,80,0,0
99589,-80,4,2,2,80,0,0
99675,-80,4,2,8,80,0,0
99848,-80,4,2,6,80,0,0
99934,-80,4,2,5,80,0,0
100020,-71.4285714285714,4,2,5,80,0,0
100106,-71.4285714285714,4,2,9,80,0,0
100193,-71.4285714285714,4,2,7,80,0,0
100365,-71.4285714285714,4,2,11,80,0,0
100537,-71.4285714285714,4,2,5,80,0,0
100624,-71.4285714285714,4,2,2,80,0,0
100710,-133.333333333333,4,2,6,80,0,0
100882,-133.333333333333,4,2,4,80,0,0
100968,-133.333333333333,4,2,2,80,0,0
101055,-133.333333333333,4,2,8,80,0,0
101227,-133.333333333333,4,2,6,80,0,0
101313,-133.333333333333,4,2,5,80,0,0
101486,-133.333333333333,4,2,9,80,0,0
101572,-100,4,2,5,80,0,0
101744,-80,4,2,9,80,0,0
101917,-80,4,2,5,80,0,0
102003,-80,4,2,2,80,0,0
102089,-80,4,2,5,80,0,0
102262,-80,4,2,9,80,0,0
102434,-80,4,2,8,80,0,0
102520,-80,4,2,2,80,0,0
102606,-80,4,2,4,80,0,0
102693,-80,4,2,5,80,0,0
102779,-133.333333333333,4,2,9,80,0,0
102865,-133.333333333333,4,2,5,80,0,0
102951,-100,4,2,7,80,0,0
103037,-100,4,2,7,80,0,0
103124,-80,4,2,10,80,0,0
103296,-80,4,2,9,80,0,0
103468,-100,4,2,6,80,0,0
103641,-100,4,2,4,80,0,0
103727,-100,4,2,2,80,0,0
103813,-100,4,2,8,80,0,0
103986,-100,4,2,6,80,0,0
104072,-100,4,2,5,80,0,0
104244,-100,4,2,9,80,0,0
104331,-100,4,2,5,80,0,0
104503,-100,4,2,9,80,0,0
104675,-100,4,2,5,80,0,0
104762,-100,4,2,2,80,0,0
104848,-80,4,2,8,80,0,0
105020,-80,4,2,5,80,0,0
105106,-80,4,2,2,80,0,0
105193,-80,4,2,8,80,0,0
105365,-80,4,2,6,80,0,0
105451,-80,4,2,5,80,0,0
105624,-80,4,2,9,80,0,0
105710,-80,4,2,7,80,0,0
105882,-80,4,2,11,80,0,0
106055,-80,4,2,5,80,0,0
106141,-80,4,2,2,80,0,0
106227,-80,4,2,6,80,0,0
106400,-80,4,2,4,80,0,0
106486,-80,4,2,2,80,0,0
106572,-80,4,2,8,80,0,0
106744,-80,4,2,6,80,0,0
106831,-80,4,2,5,80,0,0
107003,-80,4,2,9,80,0,0
107089,-80,4,2,5,80,0,0
107262,-80,4,2,9,80,0,0
107434,-80,4,2,5,80,0,0
107520,-80,4,2,2,80,0,0
107606,-80,4,2,5,80,0,0
107779,-80,4,2,9,80,0,0
107951,-80,4,2,8,80,0,0
108037,-80,4,2,2,80,0,0
108124,-80,4,2,4,80,0,0
108210,-80,4,2,5,80,0,0
108296,-80,4,2,9,80,0,0
108382,-80,4,2,5,80,0,0
108468,-80,4,2,7,80,0,0
108555,-80,4,2,7,80,0,0
108641,-80,4,2,10,80,0,0
108813,-80,4,2,9,80,0,0
108986,-71.4285714285714,4,2,6,80,0,0
109158,-71.4285714285714,4,2,4,80,0,0
109244,-71.4285714285714,4,2,2,80,0,0
109331,-71.4285714285714,4,2,8,80,0,0
109503,-71.4285714285714,4,2,6,80,0,0
109589,-71.4285714285714,4,2,5,80,0,0
109762,-71.4285714285714,4,2,9,80,0,0
109848,-71.4285714285714,4,2,5,80,0,0
110020,-71.4285714285714,4,2,9,80,0,0
110193,-71.4285714285714,4,2,5,80,0,0
110279,-71.4285714285714,4,2,2,80,0,0
110365,-66.6666666666667,4,2,8,80,0,0
110537,-66.6666666666667,4,2,5,80,0,0
110624,-66.6666666666667,4,2,2,80,0,0
110710,-66.6666666666667,4,2,8,80,0,0
110882,-66.6666666666667,4,2,6,80,0,0
110968,-66.6666666666667,4,2,5,80,0,0
111055,-66.6666666666667,4,2,7,80,0,0
111400,-133.333333333333,4,2,7,80,0,0
111744,-133.333333333333,4,2,7,70,0,0
112089,-133.333333333333,4,2,8,70,0,0
112262,-133.333333333333,4,2,6,70,0,0
112606,-133.333333333333,4,2,9,70,0,0
113124,-133.333333333333,4,2,12,70,0,0
113296,-133.333333333333,4,2,8,70,0,0
113641,-133.333333333333,4,2,12,70,0,0
113986,-133.333333333333,4,2,1,70,0,0
114158,-133.333333333333,4,2,12,70,0,0
114503,-133.333333333333,4,2,2,70,0,0
114675,-100,4,2,6,70,0,0
114848,-100,4,2,8,70,0,0
115020,-100,4,2,6,70,0,0
115365,-100,4,2,9,70,0,0
115882,-100,4,2,10,70,0,0
116227,-133.333333333333,4,2,10,70,0,0
116400,-133.333333333333,4,2,6,70,0,0
116917,-133.333333333333,4,2,13,70,0,0
117262,-133.333333333333,4,2,2,70,0,0
117434,-133.333333333333,4,2,6,70,0,0
117606,-133.333333333333,4,2,8,70,0,0
117779,-133.333333333333,4,2,6,70,0,0
118124,-133.333333333333,4,2,9,70,0,0
118641,-133.333333333333,4,2,12,70,0,0
118813,-133.333333333333,4,2,8,70,0,0
119158,-133.333333333333,4,2,12,70,0,0
119503,-133.333333333333,4,2,1,70,0,0
119675,-133.333333333333,4,2,12,70,0,0
120020,-133.333333333333,4,2,2,70,0,0
120193,-133.333333333333,4,2,6,70,0,0
120365,-133.333333333333,4,2,8,70,0,0
120537,-133.333333333333,4,2,6,70,0,0
120882,-133.333333333333,4,2,9,70,0,0
121917,-133.333333333333,4,2,6,70,0,0
122434,-133.333333333333,4,2,13,70,0,0
122779,-133.333333333333,4,2,2,70,0,0
122951,-133.333333333333,4,2,6,70,0,0
123124,-133.333333333333,4,2,8,70,0,0
123296,-133.333333333333,4,2,6,70,0,0
123641,-133.333333333333,4,2,9,70,0,0
124158,-133.333333333333,4,2,12,70,0,0
124331,-133.333333333333,4,2,8,70,0,0
124675,-133.333333333333,4,2,12,70,0,0
125020,-133.333333333333,4,2,1,70,0,0
125193,-133.333333333333,4,2,12,70,0,0
125537,-100,4,2,2,70,0,0
125710,-100,4,2,6,70,0,0
125882,-100,4,2,8,70,0,0
126055,-100,4,2,6,70,0,0
126400,-100,4,2,9,70,0,0
126917,-100,4,2,10,70,0,0
127262,-133.333333333333,4,2,10,70,0,0
127434,-133.333333333333,4,2,6,70,0,0
127951,-133.333333333333,4,2,13,70,0,0
128296,-100,4,2,2,70,0,0
128468,-100,4,2,6,70,0,0
128641,-100,4,2,8,70,0,0
128813,-100,4,2,6,70,0,0
129158,-100,4,2,9,70,0,0
129675,-100,4,2,12,70,0,0
129848,-100,4,2,8,70,0,0
130193,-100,4,2,12,70,0,0
130537,-100,4,2,1,70,0,0
130710,-100,4,2,12,70,0,0
131055,-100,4,2,2,70,0,0
131227,-100,4,2,6,70,0,0
131400,-100,4,2,8,70,0,0
131572,-100,4,2,6,70,0,0
131917,-100,4,2,9,70,0,0
132951,-100,4,2,6,70,0,0
133468,-100,4,2,13,70,0,0
133813,-100,4,2,14,70,0,0
134158,-83.3333333333333,4,2,14,70,0,0
134331,-83.3333333333333,4,2,4,70,0,0
134417,-83.3333333333333,4,2,5,70,0,0
134675,-83.3333333333333,4,2,5,70,0,0
134848,-83.3333333333333,4,2,8,70,0,0
135193,-83.3333333333333,4,2,10,70,0,0
135710,-83.3333333333333,4,2,6,70,0,0
135796,-83.3333333333333,4,2,5,70,0,0
136055,-83.3333333333333,4,2,7,70,0,0
136227,-83.3333333333333,4,2,11,70,0,0
136572,-83.3333333333333,4,2,2,70,0,0
136744,-83.3333333333333,4,2,6,70,0,0
136917,-83.3333333333333,4,2,8,70,0,0
137089,-83.3333333333333,4,2,4,70,0,0
137175,-83.3333333333333,4,2,5,70,0,0
137434,-83.3333333333333,4,2,5,70,0,0
137606,-83.3333333333333,4,2,8,70,0,0
137951,-83.3333333333333,4,2,10,70,0,0
138468,-83.3333333333333,4,2,4,70,0,0
138555,-83.3333333333333,4,2,5,70,0,0
138813,-83.3333333333333,4,2,7,70,0,0
138986,-83.3333333333333,4,2,10,70,0,0
139331,-83.3333333333333,4,2,2,70,0,0
139503,-83.3333333333333,4,2,6,70,0,0
139675,-83.3333333333333,4,2,8,70,0,0
139848,-83.3333333333333,4,2,4,70,0,0
139934,-83.3333333333333,4,2,5,70,0,0
140193,-83.3333333333333,4,2,5,70,0,0
140365,-83.3333333333333,4,2,8,70,0,0
140710,-83.3333333333333,4,2,10,70,0,0
141227,-83.3333333333333,4,2,6,70,0,0
141313,-83.3333333333333,4,2,5,70,0,0
141572,-83.3333333333333,4,2,7,70,0,0
141744,-83.3333333333333,4,2,11,70,0,0
142089,-83.3333333333333,4,2,2,70,0,0
142262,-83.3333333333333,4,2,6,70,0,0
142434,-83.3333333333333,4,2,8,70,0,0
142606,-83.3333333333333,4,2,4,70,0,0
142693,-83.3333333333333,4,2,5,70,0,0
142951,-83.3333333333333,4,2,5,70,0,0
143124,-83.3333333333333,4,2,8,70,0,0
143468,-83.3333333333333,4,2,9,70,0,0
143986,-83.3333333333333,4,2,4,70,0,0
144072,-83.3333333333333,4,2,5,70,0,0
144158,-125,4,2,5,70,0,0
144331,-125,4,2,7,70,0,0
144503,-125,4,2,10,70,0,0
144848,-83.3333333333333,4,2,2,70,0,0
145020,-83.3333333333333,4,2,6,70,0,0
145193,-83.3333333333333,4,2,8,70,0,0
145365,-83.3333333333333,4,2,4,70,0,0
145451,-83.3333333333333,4,2,5,70,0,0
145710,-83.3333333333333,4,2,5,70,0,0
145882,-83.3333333333333,4,2,8,70,0,0
146227,-83.3333333333333,4,2,10,70,0,0
146744,-83.3333333333333,4,2,6,70,0,0
146831,-83.3333333333333,4,2,5,70,0,0
147089,-83.3333333333333,4,2,7,70,0,0
147262,-83.3333333333333,4,2,11,70,0,0
147606,-83.3333333333333,4,2,2,70,0,0
147779,-83.3333333333333,4,2,6,70,0,0
147951,-83.3333333333333,4,2,8,70,0,0
148124,-83.3333333333333,4,2,4,70,0,0
148210,-83.3333333333333,4,2,5,70,0,0
148468,-83.3333333333333,4,2,5,70,0,0
148641,-83.3333333333333,4,2,8,70,0,0
148986,-83.3333333333333,4,2,10,70,0,0
149503,-83.3333333333333,4,2,4,70,0,0
149589,-83.3333333333333,4,2,5,70,0,0
149848,-83.3333333333333,4,2,7,70,0,0
150020,-83.3333333333333,4,2,10,70,0,0
150365,-83.3333333333333,4,2,2,70,0,0
150537,-83.3333333333333,4,2,6,70,0,0
150710,-83.3333333333333,4,2,8,70,0,0
150882,-83.3333333333333,4,2,4,70,0,0
150968,-83.3333333333333,4,2,5,70,0,0
151227,-83.3333333333333,4,2,5,70,0,0
151400,-83.3333333333333,4,2,8,70,0,0
151744,-83.3333333333333,4,2,10,70,0,0
152262,-83.3333333333333,4,2,6,70,0,0
152348,-83.3333333333333,4,2,5,70,0,0
152606,-83.3333333333333,4,2,7,70,0,0
152779,-83.3333333333333,4,2,11,70,0,0
153124,-83.3333333333333,4,2,2,70,0,0
153296,-83.3333333333333,4,2,6,70,0,0
153468,-83.3333333333333,4,2,8,70,0,0
153641,-83.3333333333333,4,2,4,70,0,0
153727,-83.3333333333333,4,2,5,70,0,0
153986,-83.3333333333333,4,2,5,70,0,0
154158,-83.3333333333333,4,2,8,70,0,0
154503,-83.3333333333333,4,2,10,70,0,0
154848,-83.3333333333333,4,2,14,70,0,0
155020,-83.3333333333333,4,2,4,70,0,0
155106,-83.3333333333333,4,2,5,70,0,0
155193,-83.3333333333333,4,2,9,70,0,0
155279,-83.3333333333333,4,2,5,70,0,0
155365,-83.3333333333333,4,2,7,70,0,0
155537,-83.3333333333333,4,2,11,70,0,0
155882,-200,4,2,4,60,0,0
156400,-200,4,2,2,60,0,0
177951,-133.333333333333,4,2,2,60,0,0
178468,-200,4,2,2,60,0,0
179331,-133.333333333333,4,2,2,60,0,0
179848,-200,4,2,2,60,0,0
180710,-250,4,2,2,60,0,0
182089,-181.818181818182,4,2,2,60,0,0
182434,-142.857142857143,4,2,2,60,0,0
182779,-117.647058823529,4,2,2,60,0,0
183986,-100,4,2,2,60,0,0
184848,-125,4,2,2,60,0,0
185365,-166.666666666667,4,2,2,60,0,0
186227,-222.222222222222,4,2,2,60,0,0
187951,-166.666666666667,4,2,2,60,0,0
188296,-125,4,2,2,60,0,0
189503,-200,4,2,2,60,0,0
190365,-133.333333333333,4,2,2,60,0,0
190882,-200,4,2,2,60,0,0
191744,-250,4,2,2,60,0,0
193468,-181.818181818182,4,2,2,60,0,0
193813,-133.333333333333,4,2,2,60,0,0
195020,-100,4,2,2,60,0,0
195537,-133.333333333333,4,2,2,60,0,0
196917,-200,4,2,2,60,0,0
197262,-200,4,2,2,60,0,0
198986,-133.333333333333,4,2,2,60,0,0
199331,-133.333333333333,4,2,7,75,0,0
199675,-133.333333333333,4,2,2,75,0,0
199848,-133.333333333333,4,2,3,75,0,0
200020,-200,4,2,2,80,0,0
200193,-200,4,2,4,80,0,0
200365,-200,4,2,8,80,0,0
200537,-200,4,2,4,80,0,0
200624,-200,4,2,5,80,0,0
200710,-100,4,2,9,80,0,0
200796,-100,4,2,5,80,0,0
200882,-83.3333333333333,4,2,5,80,0,0
201055,-66.6666666666667,4,2,9,80,0,0
201400,-66.6666666666667,4,2,6,80,0,0
201572,-66.6666666666667,4,2,7,80,0,0
201744,-66.6666666666667,4,2,8,80,0,0
201917,-66.6666666666667,4,2,6,80,0,0
202003,-66.6666666666667,4,2,5,80,0,0
202089,-76.9230769230769,4,2,5,80,0,0
202262,-76.9230769230769,4,2,7,80,0,0
202434,-76.9230769230769,4,2,11,80,0,0
202606,-76.9230769230769,4,2,5,80,0,0
202779,-83.3333333333333,4,2,6,80,0,0
202951,-83.3333333333333,4,2,4,80,0,0
203124,-83.3333333333333,4,2,8,80,0,0
203296,-83.3333333333333,4,2,4,80,0,0
203382,-83.3333333333333,4,2,5,80,0,0
203641,-83.3333333333333,4,2,5,80,0,0
203813,-83.3333333333333,4,2,8,80,0,0
203986,-83.3333333333333,4,2,5,80,0,0
204158,-76.9230769230769,4,2,8,80,0,0
204331,-76.9230769230769,4,2,5,80,0,0
204503,-76.9230769230769,4,2,8,80,0,0
204675,-76.9230769230769,4,2,4,80,0,0
204762,-76.9230769230769,4,2,5,80,0,0
204848,-66.6666666666667,4,2,9,80,0,0
204934,-66.6666666666667,4,2,5,80,0,0
205020,-100,4,2,7,80,0,0
205193,-100,4,2,10,80,0,0
205365,-100,4,2,5,80,0,0
205537,-66.6666666666667,4,2,6,80,0,0
205710,-66.6666666666667,4,2,4,80,0,0
205882,-83.3333333333333,4,2,8,80,0,0
206055,-83.3333333333333,4,2,4,80,0,0
206141,-83.3333333333333,4,2,5,80,0,0
206400,-83.3333333333333,4,2,5,80,0,0
206572,-83.3333333333333,4,2,5,80,0,0
206744,-83.3333333333333,4,2,8,80,0,0
206917,-83.3333333333333,4,2,6,80,0,0
207089,-83.3333333333333,4,2,7,80,0,0
207262,-83.3333333333333,4,2,8,80,0,0
207434,-100,4,2,6,80,0,0
207520,-100,4,2,5,80,0,0
207779,-100,4,2,7,80,0,0
207951,-100,4,2,11,80,0,0
208124,-100,4,2,5,80,0,0
208296,-66.6666666666667,4,2,6,80,0,0
208468,-66.6666666666667,4,2,4,80,0,0
208641,-66.6666666666667,4,2,8,80,0,0
208813,-66.6666666666667,4,2,4,80,0,0
208900,-66.6666666666667,4,2,5,80,0,0
209158,-83.3333333333333,4,2,5,80,0,0
209331,-66.6666666666667,4,2,8,80,0,0
209503,-66.6666666666667,4,2,5,80,0,0
209675,-83.3333333333333,4,2,8,80,0,0
209848,-83.3333333333333,4,2,5,80,0,0
210020,-83.3333333333333,4,2,8,80,0,0
210193,-83.3333333333333,4,2,4,80,0,0
210279,-83.3333333333333,4,2,5,80,0,0
210365,-83.3333333333333,4,2,9,80,0,0
210451,-83.3333333333333,4,2,5,80,0,0
210537,-83.3333333333333,4,2,7,80,0,0
210710,-83.3333333333333,4,2,10,80,0,0
210882,-83.3333333333333,4,2,5,80,0,0
211055,-66.6666666666667,4,2,6,80,0,0
211227,-66.6666666666667,4,2,4,80,0,0
211400,-66.6666666666667,4,2,8,80,0,0
211572,-100,4,2,4,80,0,0
211658,-100,4,2,5,80,0,0
211744,-100,4,2,9,80,0,0
211831,-100,4,2,5,80,0,0
211917,-100,4,2,5,80,0,0
212089,-76.9230769230769,4,2,9,80,0,0
212434,-66.6666666666667,4,2,6,80,0,0
212606,-66.6666666666667,4,2,7,80,0,0
212779,-66.6666666666667,4,2,8,80,0,0
212951,-66.6666666666667,4,2,4,80,0,0
213037,-66.6666666666667,4,2,5,80,0,0
213124,-100,4,2,9,80,0,0
213210,-100,4,2,5,80,0,0
213296,-100,4,2,7,80,0,0
213468,-76.9230769230769,4,2,11,80,0,0
213641,-76.9230769230769,4,2,9,80,0,0
213813,-66.6666666666667,4,2,6,80,0,0
213986,-66.6666666666667,4,2,4,80,0,0
214158,-66.6666666666667,4,2,8,80,0,0
214331,-100,4,2,4,80,0,0
214417,-100,4,2,5,80,0,0
214675,-100,4,2,5,80,0,0
214848,-100,4,2,8,80,0,0
215020,-100,4,2,5,80,0,0
215193,-83.3333333333333,4,2,8,80,0,0
215365,-83.3333333333333,4,2,5,80,0,0
215537,-83.3333333333333,4,2,8,80,0,0
215710,-83.3333333333333,4,2,4,80,0,0
215796,-83.3333333333333,4,2,5,80,0,0
215882,-100,4,2,9,80,0,0
215968,-100,4,2,5,80,0,0
216055,-100,4,2,7,80,0,0
216227,-100,4,2,10,80,0,0
216400,-100,4,2,5,80,0,0
216572,-66.6666666666667,4,2,6,80,0,0
216744,-66.6666666666667,4,2,4,80,0,0
216917,-66.6666666666667,4,2,8,80,0,0
217089,-66.6666666666667,4,2,4,80,0,0
217175,-66.6666666666667,4,2,5,80,0,0
217262,-71.4285714285714,4,2,9,80,0,0
217348,-71.4285714285714,4,2,5,80,0,0
217434,-71.4285714285714,4,2,5,80,0,0
217606,-71.4285714285714,4,2,5,80,0,0
217779,-71.4285714285714,4,2,8,80,0,0
217951,-76.9230769230769,4,2,6,80,0,0
218124,-76.9230769230769,4,2,7,80,0,0
218296,-76.9230769230769,4,2,8,80,0,0
218468,-76.9230769230769,4,2,4,80,0,0
218555,-76.9230769230769,4,2,5,80,0,0
218641,-83.3333333333333,4,2,9,80,0,0
218727,-83.3333333333333,4,2,5,80,0,0
218813,-83.3333333333333,4,2,7,80,0,0
218986,-83.3333333333333,4,2,10,80,0,0
219158,-83.3333333333333,4,2,5,80,0,0
219331,-90.9090909090909,4,2,6,80,0,0
219503,-90.9090909090909,4,2,4,80,0,0
219675,-90.9090909090909,4,2,8,80,0,0
219848,-90.9090909090909,4,2,4,80,0,0
219934,-90.9090909090909,4,2,5,80,0,0
220020,-100,4,2,9,80,0,0
220106,-100,4,2,5,80,0,0
220193,-100,4,2,5,80,0,0
220365,-100,4,2,8,80,0,0
220537,-100,4,2,5,80,0,0
220710,-83.3333333333333,4,2,8,80,0,0
220882,-83.3333333333333,4,2,5,80,0,0
221055,-83.3333333333333,4,2,9,80,0,0
221227,-83.3333333333333,4,2,4,80,0,0
221313,-83.3333333333333,4,2,5,80,0,0
221400,-83.3333333333333,4,2,9,80,0,0
221486,-83.3333333333333,4,2,5,80,0,0
221572,-83.3333333333333,4,2,7,80,0,0
221744,-100,4,2,11,80,0,0
221917,-100,4,2,5,80,0,0
222089,-250,4,2,2,80,0,0
222434,-250,4,2,8,80,0,0
222606,-250,4,2,6,80,0,0
222693,-250,4,2,5,80,0,0
222951,-166.666666666667,4,2,5,80,0,0
223124,-133.333333333333,4,2,9,80,0,0
223296,-100,4,2,8,80,0,0
223468,-66.6666666666667,4,2,6,80,0,0
223641,-66.6666666666667,4,2,7,80,0,0
223813,-66.6666666666667,4,2,8,80,0,0
223986,-71.4285714285714,4,2,6,80,0,0
224072,-71.4285714285714,4,2,5,80,0,0
224331,-71.4285714285714,4,2,7,80,0,0
224503,-71.4285714285714,4,2,11,80,0,0
224675,-71.4285714285714,4,2,5,80,0,0
224848,-76.9230769230769,4,2,6,80,0,0
225020,-76.9230769230769,4,2,4,80,0,0
225193,-76.9230769230769,4,2,8,80,0,0
225365,-76.9230769230769,4,2,4,80,0,0
225451,-76.9230769230769,4,2,5,80,0,0
225710,-76.9230769230769,4,2,5,80,0,0
225882,-76.9230769230769,4,2,8,80,0,0
226055,-76.9230769230769,4,2,5,80,0,0
226227,-133.333333333333,4,2,8,80,0,0
226400,-133.333333333333,4,2,5,80,0,0
226572,-100,4,2,9,80,0,0
226744,-100,4,2,4,80,0,0
226831,-100,4,2,5,80,0,0
226917,-80,4,2,9,80,0,0
227003,-80,4,2,5,80,0,0
227089,-80,4,2,7,80,0,0
227262,-80,4,2,11,80,0,0
227434,-80,4,2,5,80,0,0
227606,-66.6666666666667,4,2,6,80,0,0
227779,-66.6666666666667,4,2,4,80,0,0
227951,-66.6666666666667,4,2,8,80,0,0
228124,-66.6666666666667,4,2,6,80,0,0
228210,-66.6666666666667,4,2,5,80,0,0
228468,-66.6666666666667,4,2,5,80,0,0
228641,-66.6666666666667,4,2,9,80,0,0
228813,-66.6666666666667,4,2,8,80,0,0
228986,-66.6666666666667,4,2,6,80,0,0
229158,-66.6666666666667,4,2,7,80,0,0
229331,-66.6666666666667,4,2,8,80,0,0
229503,-74.0740740740741,4,2,6,80,0,0
229589,-74.0740740740741,4,2,5,80,0,0
229848,-74.0740740740741,4,2,7,80,0,0
230020,-90.9090909090909,4,2,11,80,0,0
230193,-90.9090909090909,4,2,5,80,0,0
230365,-90.9090909090909,4,2,6,80,0,0
230537,-90.9090909090909,4,2,4,80,0,0
230710,-90.9090909090909,4,2,8,80,0,0
230882,-90.9090909090909,4,2,4,80,0,0
230968,-90.9090909090909,4,2,5,80,0,0
231227,-90.9090909090909,4,2,5,80,0,0
231400,-90.9090909090909,4,2,8,80,0,0
231572,-90.9090909090909,4,2,5,80,0,0
231744,-133.333333333333,4,2,8,80,0,0
231917,-133.333333333333,4,2,5,80,0,0
232089,-100,4,2,9,80,0,0
232262,-100,4,2,4,80,0,0
232348,-100,4,2,5,80,0,0
232434,-80,4,2,9,80,0,0
232520,-80,4,2,5,80,0,0
232606,-80,4,2,7,80,0,0
232779,-80,4,2,11,80,0,0
232951,-80,4,2,5,80,0,0
233124,-133.333333333333,4,2,6,80,0,0
233296,-133.333333333333,4,2,4,80,0,0
233468,-133.333333333333,4,2,8,80,0,0
233641,-133.333333333333,4,2,6,80,0,0
233727,-133.333333333333,4,2,5,80,0,0
233986,-100,4,2,5,80,0,0
234158,-100,4,2,9,80,0,0
234331,-71.4285714285714,4,2,8,80,0,0
234503,-71.4285714285714,4,2,6,80,0,0
234675,-71.4285714285714,4,2,7,80,0,0
234848,-71.4285714285714,4,2,8,80,0,0
235020,-71.4285714285714,4,2,6,80,0,0
235106,-71.4285714285714,4,2,5,80,0,0
235193,-133.333333333333,4,2,5,80,0,0
235365,-100,4,2,7,80,0,0
235537,-100,4,2,11,80,0,0
235710,-100,4,2,5,80,0,0
235882,-100,4,2,6,80,0,0
236055,-100,4,2,4,80,0,0
236227,-100,4,2,8,80,0,0
236400,-100,4,2,4,80,0,0
236486,-100,4,2,5,80,0,0
236744,-100,4,2,5,80,0,0
236917,-100,4,2,8,80,0,0
237089,-100,4,2,5,80,0,0
237262,-90.9090909090909,4,2,8,80,0,0
237434,-90.9090909090909,4,2,5,80,0,0
237606,-90.9090909090909,4,2,9,80,0,0
237779,-90.9090909090909,4,2,4,80,0,0
237865,-90.9090909090909,4,2,5,80,0,0
237951,-80,4,2,9,80,0,0
238037,-80,4,2,5,80,0,0
238124,-80,4,2,7,80,0,0
238296,-80,4,2,11,80,0,0
238468,-80,4,2,5,80,0,0
238641,-133.333333333333,4,2,6,80,0,0
238813,-133.333333333333,4,2,4,80,0,0
238986,-83.3333333333333,4,2,8,80,0,0
239158,-83.3333333333333,4,2,6,80,0,0
239244,-83.3333333333333,4,2,5,80,0,0
239503,-83.3333333333333,4,2,5,80,0,0
239675,-83.3333333333333,4,2,9,80,0,0
239848,-83.3333333333333,4,2,8,80,0,0
240020,-83.3333333333333,4,2,6,80,0,0
240193,-83.3333333333333,4,2,7,80,0,0
240365,-83.3333333333333,4,2,8,80,0,0
240537,-83.3333333333333,4,2,6,80,0,0
240624,-83.3333333333333,4,2,5,80,0,0
240710,-74.0740740740741,4,2,5,80,0,0
240882,-74.0740740740741,4,2,7,80,0,0
241055,-74.0740740740741,4,2,11,80,0,0
241227,-74.0740740740741,4,2,5,80,0,0
241400,-66.6666666666667,4,2,6,80,0,0
241572,-66.6666666666667,4,2,4,80,0,0
241744,-66.6666666666667,4,2,8,80,0,0
241917,-66.6666666666667,4,2,4,80,0,0
242003,-66.6666666666667,4,2,5,80,0,0
242089,-66.6666666666667,4,2,9,80,0,0
242175,-66.6666666666667,4,2,5,80,0,0
242262,-66.6666666666667,4,2,5,80,0,0
242434,-66.6666666666667,4,2,8,80,0,0
242606,-66.6666666666667,4,2,5,80,0,0
242779,-60.6060606060606,4,2,8,80,0,0
242951,-60.6060606060606,4,2,5,80,0,0
243124,-60.6060606060606,4,2,8,80,0,0
243296,-60.6060606060606,4,2,4,80,0,0
243382,-60.6060606060606,4,2,5,80,0,0
243468,-60.6060606060606,4,2,7,80,0,0
243813,-100,4,2,7,80,0,0
244158,-100,4,2,7,80,0,0
244503,-100,4,2,8,80,0,0
244675,-80,4,2,6,80,0,0
244762,-80,4,2,5,80,0,0
244934,-80,4,2,9,80,0,0
245020,-80,4,2,5,80,0,0
245193,-80,4,2,9,80,0,0
245365,-80,4,2,5,80,0,0
245451,-80,4,2,2,80,0,0
245537,-80,4,2,5,80,0,0
245710,-80,4,2,9,80,0,0
245882,-80,4,2,8,80,0,0
245968,-80,4,2,2,80,0,0
246055,-80,4,2,4,80,0,0
246141,-80,4,2,5,80,0,0
246227,-80,4,2,9,80,0,0
246313,-80,4,2,5,80,0,0
246400,-80,4,2,7,80,0,0
246486,-80,4,2,7,80,0,0
246572,-80,4,2,10,80,0,0
246744,-80,4,2,9,80,0,0
246917,-80,4,2,6,80,0,0
247089,-80,4,2,4,80,0,0
247175,-80,4,2,2,80,0,0
247262,-80,4,2,8,80,0,0
247434,-80,4,2,6,80,0,0
247520,-80,4,2,5,80,0,0
247693,-80,4,2,9,80,0,0
247779,-80,4,2,5,80,0,0
247951,-80,4,2,9,80,0,0
248124,-80,4,2,5,80,0,0
248210,-80,4,2,2,80,0,0
248296,-80,4,2,8,80,0,0
248468,-80,4,2,5,80,0,0
248555,-80,4,2,2,80,0,0
248641,-80,4,2,8,80,0,0
248813,-80,4,2,6,80,0,0
248900,-80,4,2,5,80,0,0
249072,-80,4,2,9,80,0,0
249158,-80,4,2,7,80,0,0
249331,-80,4,2,11,80,0,0
249503,-80,4,2,5,80,0,0
249589,-80,4,2,2,80,0,0
249675,-80,4,2,6,80,0,0
249848,-80,4,2,4,80,0,0
249934,-80,4,2,2,80,0,0
250020,-80,4,2,8,80,0,0
250193,-80,4,2,6,80,0,0
250279,-80,4,2,5,80,0,0
250451,-80,4,2,9,80,0,0
250537,-80,4,2,5,80,0,0
250710,-80,4,2,9,80,0,0
250882,-80,4,2,5,80,0,0
250968,-80,4,2,2,80,0,0
251055,-80,4,2,5,80,0,0
251227,-80,4,2,9,80,0,0
251400,-80,4,2,8,80,0,0
251486,-80,4,2,2,80,0,0
251572,-80,4,2,4,80,0,0
251658,-80,4,2,5,80,0,0
251744,-80,4,2,9,80,0,0
251831,-80,4,2,5,80,0,0
251917,-80,4,2,7,80,0,0
252003,-80,4,2,7,80,0,0
252089,-80,4,2,10,80,0,0
252262,-80,4,2,9,80,0,0
252434,-80,4,2,6,80,0,0
252606,-80,4,2,4,80,0,0
252693,-80,4,2,2,80,0,0
252779,-80,4,2,8,80,0,0
252951,-80,4,2,6,80,0,0
253037,-80,4,2,5,80,0,0
253210,-80,4,2,9,80,0,0
253296,-80,4,2,5,80,0,0
253468,-80,4,2,9,80,0,0
253641,-80,4,2,5,80,0,0
253727,-80,4,2,2,80,0,0
253813,-80,4,2,8,80,0,0
253986,-80,4,2,5,80,0,0
254072,-80,4,2,2,80,0,0
254158,-80,4,2,8,80,0,0
254331,-80,4,2,6,80,0,0
254417,-80,4,2,5,80,0,0
254589,-80,4,2,9,80,0,0
254675,-80,4,2,7,80,0,0
254848,-80,4,2,11,80,0,0
255020,-80,4,2,5,80,0,0
255106,-80,4,2,2,80,0,0
255193,-80,4,2,6,80,0,0
255365,-80,4,2,4,80,0,0
255451,-80,4,2,2,80,0,0
255537,-80,4,2,8,80,0,0
255710,-80,4,2,6,80,0,0
255796,-80,4,2,5,80,0,0
255968,-80,4,2,9,80,0,0
256055,-80,4,2,5,80,0,0
256227,-80,4,2,9,80,0,0
256400,-80,4,2,5,80,0,0
256486,-80,4,2,2,80,0,0
256572,-80,4,2,5,80,0,0
256744,-80,4,2,9,80,0,0
256917,-80,4,2,8,80,0,0
257003,-80,4,2,2,80,0,0
257089,-80,4,2,4,80,0,0
257175,-80,4,2,5,80,0,0
257262,-80,4,2,9,80,0,0
257348,-80,4,2,5,80,0,0
257434,-80,4,2,7,80,0,0
257520,-80,4,2,7,80,0,0
257606,-80,4,2,10,80,0,0
257779,-80,4,2,9,80,0,0
257951,-80,4,2,6,80,0,0
258124,-80,4,2,4,80,0,0
258210,-80,4,2,2,80,0,0
258296,-80,4,2,8,80,0,0
258468,-80,4,2,6,80,0,0
258555,-80,4,2,5,80,0,0
258727,-80,4,2,9,80,0,0
258813,-80,4,2,5,80,0,0
258986,-80,4,2,9,80,0,0
259158,-80,4,2,5,80,0,0
259244,-80,4,2,2,80,0,0
259331,-80,4,2,8,80,0,0
259503,-80,4,2,5,80,0,0
259589,-80,4,2,2,80,0,0
259675,-80,4,2,8,80,0,0
259848,-80,4,2,6,80,0,0
259934,-80,4,2,5,80,0,0
260106,-80,4,2,9,80,0,0
260193,-80,4,2,7,80,0,0
260365,-80,4,2,11,80,0,0
260537,-80,4,2,5,80,0,0
260624,-80,4,2,2,80,0,0
260710,-80,4,2,6,80,0,0
260882,-80,4,2,4,80,0,0
260968,-80,4,2,2,80,0,0
261055,-80,4,2,8,80,0,0
261227,-80,4,2,6,80,0,0
261313,-80,4,2,5,80,0,0
261486,-80,4,2,9,80,0,0
261572,-80,4,2,5,80,0,0
261744,-80,4,2,9,80,0,0
261917,-80,4,2,5,80,0,0
262003,-80,4,2,2,80,0,0
262089,-80,4,2,5,80,0,0
262262,-80,4,2,9,80,0,0
262434,-80,4,2,8,80,0,0
262520,-80,4,2,2,80,0,0
262606,-80,4,2,4,80,0,0
262693,-80,4,2,5,80,0,0
262779,-80,4,2,9,80,0,0
262865,-80,4,2,5,80,0,0
262951,-80,4,2,7,80,0,0
263037,-80,4,2,7,80,0,0
263124,-80,4,2,10,80,0,0
263296,-80,4,2,9,80,0,0
263468,-80,4,2,6,80,0,0
263641,-80,4,2,4,80,0,0
263727,-80,4,2,2,80,0,0
263813,-80,4,2,8,80,0,0
263986,-80,4,2,6,80,0,0
264072,-80,4,2,5,80,0,0
264244,-80,4,2,9,80,0,0
264331,-80,4,2,5,80,0,0
264503,-80,4,2,9,80,0,0
264675,-80,4,2,5,80,0,0
264762,-80,4,2,2,80,0,0
264848,-80,4,2,8,80,0,0
265020,-80,4,2,5,80,0,0
265106,-80,4,2,2,80,0,0
265193,-80,4,2,8,80,0,0
265365,-80,4,2,6,80,0,0
265451,-80,4,2,5,80,0,0
265624,-80,4,2,9,80,0,0
265710,-80,4,2,7,80,0,0
265882,-80,4,2,11,80,0,0
266055,-80,4,2,5,80,0,0
266141,-80,4,2,2,80,0,0
266227,-200,4,2,2,80,0,0
266572,-200,4,2,8,80,0,0
266744,-200,4,2,6,80,0,0
266831,-200,4,2,5,80,0,0
266917,-100,4,2,5,80,0,0
267003,-100,4,2,9,80,0,0
267089,-83.3333333333333,4,2,5,80,0,0
267262,-66.6666666666667,4,2,9,80,0,0
267434,-66.6666666666667,4,2,5,80,0,0
267520,-66.6666666666667,4,2,2,80,0,0
267606,-66.6666666666667,4,2,5,80,0,0
267779,-66.6666666666667,4,2,9,80,0,0
267951,-66.6666666666667,4,2,8,80,0,0
268037,-66.6666666666667,4,2,2,80,0,0
268124,-66.6666666666667,4,2,4,80,0,0
268210,-66.6666666666667,4,2,5,80,0,0
268295,-76.9230769230769,4,2,9,80,0,0
268382,-76.9230769230769,4,2,5,80,0,0
268468,-76.9230769230769,4,2,7,80,0,0
268555,-76.9230769230769,4,2,7,80,0,0
268641,-76.9230769230769,4,2,10,80,0,0
268813,-76.9230769230769,4,2,9,80,0,0
268986,-83.3333333333333,4,2,6,80,0,0
269158,-83.3333333333333,4,2,4,80,0,0
269244,-83.3333333333333,4,2,2,80,0,0
269331,-83.3333333333333,4,2,8,80,0,0
269503,-83.3333333333333,4,2,6,80,0,0
269589,-83.3333333333333,4,2,5,80,0,0
269762,-83.3333333333333,4,2,9,80,0,0
269848,-83.3333333333333,4,2,5,80,0,0
270020,-83.3333333333333,4,2,9,80,0,0
270193,-83.3333333333333,4,2,5,80,0,0
270279,-83.3333333333333,4,2,2,80,0,0
270365,-71.4285714285714,4,2,8,80,0,0
270537,-71.4285714285714,4,2,5,80,0,0
270624,-71.4285714285714,4,2,2,80,0,0
270710,-71.4285714285714,4,2,8,80,0,0
270882,-71.4285714285714,4,2,6,80,0,0
270968,-71.4285714285714,4,2,5,80,0,0
271055,-76.9230769230769,4,2,5,80,0,0
271141,-76.9230769230769,4,2,9,80,0,0
271227,-76.9230769230769,4,2,7,80,0,0
271400,-76.9230769230769,4,2,11,80,0,0
271572,-76.9230769230769,4,2,5,80,0,0
271658,-76.9230769230769,4,2,2,80,0,0
271744,-66.6666666666667,4,2,6,80,0,0
271917,-66.6666666666667,4,2,4,80,0,0
272003,-66.6666666666667,4,2,2,80,0,0
272089,-66.6666666666667,4,2,8,80,0,0
272262,-66.6666666666667,4,2,6,80,0,0
272348,-66.6666666666667,4,2,5,80,0,0
272520,-66.6666666666667,4,2,9,80,0,0
272606,-66.6666666666667,4,2,5,80,0,0
272779,-66.6666666666667,4,2,9,80,0,0
272951,-66.6666666666667,4,2,5,80,0,0
273037,-66.6666666666667,4,2,2,80,0,0
273124,-83.3333333333333,4,2,5,80,0,0
273296,-83.3333333333333,4,2,9,80,0,0
273468,-83.3333333333333,4,2,8,80,0,0
273555,-83.3333333333333,4,2,2,80,0,0
273641,-83.3333333333333,4,2,4,80,0,0
273727,-83.3333333333333,4,2,5,80,0,0
273813,-76.9230769230769,4,2,9,80,0,0
273900,-76.9230769230769,4,2,5,80,0,0
273986,-76.9230769230769,4,2,7,80,0,0
274072,-76.9230769230769,4,2,7,80,0,0
274158,-76.9230769230769,4,2,10,80,0,0
274331,-76.9230769230769,4,2,9,80,0,0
274503,-83.3333333333333,4,2,6,80,0,0
274675,-83.3333333333333,4,2,4,80,0,0
274762,-83.3333333333333,4,2,2,80,0,0
274848,-83.3333333333333,4,2,8,80,0,0
275020,-83.3333333333333,4,2,6,80,0,0
275106,-83.3333333333333,4,2,5,80,0,0
275279,-83.3333333333333,4,2,9,80,0,0
275365,-83.3333333333333,4,2,5,80,0,0
275537,-83.3333333333333,4,2,9,80,0,0
275710,-83.3333333333333,4,2,5,80,0,0
275796,-83.3333333333333,4,2,2,80,0,0
275882,-83.3333333333333,4,2,8,80,0,0
276055,-83.3333333333333,4,2,5,80,0,0
276141,-83.3333333333333,4,2,2,80,0,0
276227,-83.3333333333333,4,2,8,80,0,0
276400,-83.3333333333333,4,2,6,80,0,0
276486,-83.3333333333333,4,2,5,80,0,0
276572,-66.6666666666667,4,2,5,80,0,0
276658,-66.6666666666667,4,2,9,80,0,0
276744,-66.6666666666667,4,2,7,80,0,0
276917,-66.6666666666667,4,2,11,80,0,0
277089,-66.6666666666667,4,2,5,80,0,0
277175,-66.6666666666667,4,2,2,80,0,0
277262,-83.3333333333333,4,2,6,80,0,0
277434,-83.3333333333333,4,2,4,80,0,0
277520,-83.3333333333333,4,2,2,80,0,0
277606,-83.3333333333333,4,2,8,80,0,0
277779,-83.3333333333333,4,2,6,80,0,0
277865,-83.3333333333333,4,2,5,80,0,0
278037,-83.3333333333333,4,2,9,80,0,0
278124,-83.3333333333333,4,2,5,80,0,0
278296,-71.4285714285714,4,2,9,80,0,0
278468,-71.4285714285714,4,2,5,80,0,0
278555,-71.4285714285714,4,2,2,80,0,0
278641,-66.6666666666667,4,2,5,80,0,0
278813,-66.6666666666667,4,2,9,80,0,0
278986,-66.6666666666667,4,2,8,80,0,0
279072,-66.6666666666667,4,2,2,80,0,0
279158,-66.6666666666667,4,2,4,80,0,0
279244,-66.6666666666667,4,2,5,80,0,0
279331,-100,4,2,9,80,0,0
279417,-100,4,2,5,80,0,0
279503,-100,4,2,7,80,0,0
279589,-100,4,2,7,80,0,0
279675,-83.3333333333333,4,2,10,80,0,0
279848,-83.3333333333333,4,2,9,80,0,0
280020,-76.9230769230769,4,2,6,80,0,0
280193,-76.9230769230769,4,2,4,80,0,0
280279,-76.9230769230769,4,2,2,80,0,0
280365,-76.9230769230769,4,2,8,80,0,0
280537,-76.9230769230769,4,2,6,80,0,0
280624,-76.9230769230769,4,2,5,80,0,0
280796,-76.9230769230769,4,2,9,80,0,0
280882,-76.9230769230769,4,2,5,80,0,0
281054,-83.3333333333333,4,2,9,80,0,0
281227,-83.3333333333333,4,2,5,80,0,0
281313,-83.3333333333333,4,2,2,80,0,0
281400,-83.3333333333333,4,2,8,80,0,0
281572,-83.3333333333333,4,2,5,80,0,0
281658,-83.3333333333333,4,2,2,80,0,0
281744,-83.3333333333333,4,2,8,80,0,0
281917,-83.3333333333333,4,2,6,80,0,0
282003,-83.3333333333333,4,2,5,80,0,0
282175,-83.3333333333333,4,2,9,80,0,0
282262,-83.3333333333333,4,2,7,80,0,0
282434,-83.3333333333333,4,2,11,80,0,0
282606,-83.3333333333333,4,2,5,80,0,0
282693,-83.3333333333333,4,2,2,80,0,0
282779,-66.6666666666667,4,2,6,80,0,0
282951,-66.6666666666667,4,2,4,80,0,0
283037,-66.6666666666667,4,2,2,80,0,0
283124,-66.6666666666667,4,2,8,80,0,0
283296,-83.3333333333333,4,2,6,80,0,0
283382,-83.3333333333333,4,2,5,80,0,0
283555,-83.3333333333333,4,2,9,80,0,0
283641,-83.3333333333333,4,2,5,80,0,0
283813,-83.3333333333333,4,2,9,80,0,0
283986,-83.3333333333333,4,2,5,80,0,0
284072,-83.3333333333333,4,2,2,80,0,0
284158,-71.4285714285714,4,2,5,80,0,0
284331,-71.4285714285714,4,2,9,80,0,0
284503,-71.4285714285714,4,2,8,80,0,0
284589,-71.4285714285714,4,2,2,80,0,0
284675,-71.4285714285714,4,2,4,80,0,0
284762,-71.4285714285714,4,2,5,80,0,0
284848,-71.4285714285714,4,2,9,80,0,0
284934,-71.4285714285714,4,2,5,80,0,0
285020,-71.4285714285714,4,2,7,80,0,0
285106,-71.4285714285714,4,2,7,80,0,0
285193,-71.4285714285714,4,2,10,80,0,0
285365,-71.4285714285714,4,2,9,80,0,0
285538,-66.6666666666667,4,2,6,80,0,0
285710,-66.6666666666667,4,2,4,80,0,0
285796,-66.6666666666667,4,2,2,80,0,0
285882,-66.6666666666667,4,2,8,80,0,0
286055,-66.6666666666667,4,2,6,80,0,0
286141,-66.6666666666667,4,2,5,80,0,0
286313,-66.6666666666667,4,2,9,80,0,0
286400,-66.6666666666667,4,2,5,80,0,0
286572,-66.6666666666667,4,2,9,80,0,0
286744,-66.6666666666667,4,2,5,80,0,0
286831,-66.6666666666667,4,2,2,80,0,0
286917,-58.8235294117647,4,2,8,80,0,0
287089,-58.8235294117647,4,2,5,80,0,0
287175,-58.8235294117647,4,2,2,80,0,0
287262,-58.8235294117647,4,2,8,80,0,0
287434,-58.8235294117647,4,2,6,80,0,0
287520,-58.8235294117647,4,2,5,80,0,0
287693,-58.8235294117647,4,2,9,80,0,0
287779,-58.8235294117647,4,2,7,80,0,0
287951,-133.333333333333,4,2,11,80,0,0
288124,-133.333333333333,4,2,5,80,0,0
288210,-133.333333333333,4,2,2,80,0,0
288296,-133.333333333333,4,2,2,70,0,0
288641,-83.3333333333333,4,2,8,70,0,0
288813,-83.3333333333333,4,2,4,70,0,0
288900,-83.3333333333333,4,2,5,70,0,0
288986,-83.3333333333333,4,2,9,70,0,0
289072,-83.3333333333333,4,2,5,70,0,0
289158,-83.3333333333333,4,2,8,70,0,0
289331,-83.3333333333333,4,2,9,70,0,0
289675,-83.3333333333333,4,2,8,70,0,0
289848,-83.3333333333333,4,2,5,70,0,0
290020,-83.3333333333333,4,2,8,70,0,0
290193,-83.3333333333333,4,2,6,70,0,0
290279,-83.3333333333333,4,2,5,70,0,0
290537,-83.3333333333333,4,2,7,70,0,0
290710,-83.3333333333333,4,2,11,70,0,0
290882,-83.3333333333333,4,2,5,70,0,0
291055,-83.3333333333333,4,2,6,70,0,0
291227,-83.3333333333333,4,2,4,70,0,0
291400,-83.3333333333333,4,2,8,70,0,0
291572,-83.3333333333333,4,2,4,70,0,0
291658,-83.3333333333333,4,2,5,70,0,0
291917,-83.3333333333333,4,2,5,70,0,0
292089,-83.3333333333333,4,2,8,70,0,0
292262,-83.3333333333333,4,2,5,70,0,0
292434,-83.3333333333333,4,2,8,70,0,0
292606,-83.3333333333333,4,2,5,70,0,0
292779,-83.3333333333333,4,2,8,70,0,0
292951,-83.3333333333333,4,2,4,70,0,0
293037,-83.3333333333333,4,2,5,70,0,0
293124,-83.3333333333333,4,2,9,70,0,0
293210,-83.3333333333333,4,2,5,70,0,0
293296,-83.3333333333333,4,2,7,70,0,0
293468,-83.3333333333333,4,2,10,70,0,0
293641,-83.3333333333333,4,2,5,70,0,0
293813,-83.3333333333333,4,2,6,70,0,0
293986,-83.3333333333333,4,2,4,70,0,0
294158,-83.3333333333333,4,2,8,70,0,0
294331,-83.3333333333333,4,2,4,70,0,0
294417,-83.3333333333333,4,2,5,70,0,0
294675,-83.3333333333333,4,2,5,70,0,0
294848,-83.3333333333333,4,2,8,70,0,0
295020,-83.3333333333333,4,2,5,70,0,0
295193,-83.3333333333333,4,2,8,70,0,0
295365,-83.3333333333333,4,2,5,70,0,0
295537,-83.3333333333333,4,2,8,70,0,0
295710,-83.3333333333333,4,2,6,70,0,0
295796,-83.3333333333333,4,2,5,70,0,0
296055,-83.3333333333333,4,2,7,70,0,0
296227,-83.3333333333333,4,2,11,70,0,0
296400,-83.3333333333333,4,2,5,70,0,0
296572,-83.3333333333333,4,2,6,70,0,0
296744,-83.3333333333333,4,2,4,70,0,0
296917,-83.3333333333333,4,2,8,70,0,0
297089,-83.3333333333333,4,2,4,70,0,0
297175,-83.3333333333333,4,2,5,70,0,0
297434,-83.3333333333333,4,2,5,70,0,0
297606,-83.3333333333333,4,2,8,70,0,0
297779,-83.3333333333333,4,2,5,70,0,0
297951,-83.3333333333333,4,2,8,70,0,0
298124,-83.3333333333333,4,2,5,70,0,0
298296,-83.3333333333333,4,2,8,70,0,0
298468,-83.3333333333333,4,2,4,70,0,0
298555,-83.3333333333333,4,2,5,70,0,0
298641,-83.3333333333333,4,2,9,70,0,0
298727,-83.3333333333333,4,2,5,70,0,0
298813,-83.3333333333333,4,2,7,70,0,0
298986,-83.3333333333333,4,2,10,70,0,0
299158,-83.3333333333333,4,2,5,70,0,0
299331,-83.3333333333333,4,2,6,70,0,0
299503,-83.3333333333333,4,2,4,70,0,0
299675,-83.3333333333333,4,2,8,70,0,0
299848,-83.3333333333333,4,2,4,70,0,0
299934,-83.3333333333333,4,2,5,70,0,0
300020,-83.3333333333333,4,2,9,70,0,0
300106,-83.3333333333333,4,2,5,70,0,0
300193,-83.3333333333333,4,2,8,70,0,0
300365,-83.3333333333333,4,2,9,70,0,0
300710,-83.3333333333333,4,2,8,70,0,0
300882,-83.3333333333333,4,2,5,70,0,0
301055,-83.3333333333333,4,2,8,70,0,0
301227,-83.3333333333333,4,2,4,70,0,0
301313,-83.3333333333333,4,2,5,70,0,0
301400,-83.3333333333333,4,2,9,70,0,0
301486,-83.3333333333333,4,2,5,70,0,0
301572,-83.3333333333333,4,2,6,70,0,0
301744,-83.3333333333333,4,2,11,70,0,0
301917,-83.3333333333333,4,2,9,70,0,0
302089,-83.3333333333333,4,2,6,70,0,0
302262,-83.3333333333333,4,2,4,70,0,0
302434,-83.3333333333333,4,2,8,70,0,0
302606,-83.3333333333333,4,2,4,70,0,0
302693,-83.3333333333333,4,2,5,70,0,0
302951,-83.3333333333333,4,2,5,70,0,0
303124,-83.3333333333333,4,2,8,70,0,0
303296,-83.3333333333333,4,2,5,70,0,0
303468,-83.3333333333333,4,2,8,70,0,0
303641,-83.3333333333333,4,2,5,70,0,0
303813,-83.3333333333333,4,2,8,70,0,0
303986,-83.3333333333333,4,2,4,70,0,0
304072,-83.3333333333333,4,2,5,70,0,0
304158,-83.3333333333333,4,2,9,70,0,0
304244,-83.3333333333333,4,2,5,70,0,0
304331,-83.3333333333333,4,2,7,70,0,0
304503,-83.3333333333333,4,2,10,70,0,0
304675,-83.3333333333333,4,2,5,70,0,0
304848,-83.3333333333333,4,2,6,70,0,0
305020,-83.3333333333333,4,2,4,70,0,0
305193,-83.3333333333333,4,2,8,70,0,0
305365,-83.3333333333333,4,2,4,70,0,0
305451,-83.3333333333333,4,2,5,70,0,0
305537,-83.3333333333333,4,2,9,70,0,0
305624,-83.3333333333333,4,2,5,70,0,0
305710,-83.3333333333333,4,2,5,70,0,0
305882,-83.3333333333333,4,2,8,70,0,0
306055,-83.3333333333333,4,2,5,70,0,0
306227,-83.3333333333333,4,2,8,70,0,0
306400,-83.3333333333333,4,2,5,70,0,0
306572,-83.3333333333333,4,2,8,70,0,0
306744,-83.3333333333333,4,2,4,70,0,0
306831,-83.3333333333333,4,2,5,70,0,0
306917,-83.3333333333333,4,2,9,70,0,0
307003,-83.3333333333333,4,2,5,70,0,0
307089,-83.3333333333333,4,2,7,70,0,0
307262,-83.3333333333333,4,2,10,70,0,0
307434,-83.3333333333333,4,2,5,70,0,0
307606,-83.3333333333333,4,2,6,70,0,0
307779,-83.3333333333333,4,2,4,70,0,0
307951,-83.3333333333333,4,2,8,70,0,0
308124,-83.3333333333333,4,2,4,70,0,0
308210,-83.3333333333333,4,2,5,70,0,0
308296,-83.3333333333333,4,2,9,70,0,0
308382,-83.3333333333333,4,2,5,70,0,0
308468,-83.3333333333333,4,2,5,70,0,0
308641,-83.3333333333333,4,2,8,70,0,0
308813,-83.3333333333333,4,2,5,70,0,0
308986,-66.6666666666667,4,2,8,70,0,0
309158,-66.6666666666667,4,2,5,70,0,0
309331,-66.6666666666667,4,2,8,70,0,0
309503,-83.3333333333333,4,2,4,70,0,0
309589,-83.3333333333333,4,2,5,70,0,0
309675,-83.3333333333333,4,2,9,70,0,0
309762,-83.3333333333333,4,2,5,70,0,0
309848,-83.3333333333333,4,2,7,70,0,0
310020,-83.3333333333333,4,2,10,70,0,0
310193,-83.3333333333333,4,2,5,70,0,0
310365,-200,4,2,2,70,0,0
315882,-200,4,2,2,5,0,0

[Colours]
Combo1 : 210,105,0
Combo2 : 255,142,30
Combo3 : 171,86,86
Combo4 : 244,66,92

[HitObjects]
90,260,1400,6,0,L|68:79,1,152,6|2,2:2|2:3,0:0:0:0:
106,37,1917,6,0,P|145:26|192:65,1,95,2|0,2:2|0:0,0:0:0:0:
187,54,2434,1,2,2:2:0:0:
191,322,2779,6,0,L|169:141,1,152,2|2,2:2|2:3,0:0:0:0:
247,128,3296,6,0,P|275:162|380:143,1,142.5,2|2,2:2|2:2,0:0:0:0:
512,198,4158,6,0,B|514:165|501:127|458:112|422:106|386:127|361:165|366:205|379:228|379:228|325:219|283:245|272:286,1,380,2|2,2:2|2:2,0:0:0:0:
246,348,5882,1,2,2:2:0:0:
119,331,6227,1,2,2:2:0:0:
202,286,6572,1,2,2:2:0:0:
330,348,6917,6,0,P|347:277|295:227,1,152,2|2,2:2|2:3,0:0:0:0:
202,286,7434,6,0,L|102:260,1,95,2|0,2:2|0:0,0:0:0:0:
232,173,7951,1,2,2:2:0:0:
13,235,8296,6,0,P|-4:164|47:114,1,152,2|2,2:2|2:3,0:0:0:0:
135,144,8813,6,0,P|152:214|100:264,1,142.5,2|2,2:2|2:2,0:0:0:0:
107,261,9675,6,0,B|194:255|266:287|329:360|329:360|304:282|323:219,1,380,2|2,2:2|2:2,0:0:0:0:
383,192,11400,1,2,2:2:0:0:
337,131,11744,1,2,2:2:0:0:
353,56,12089,1,2,2:2:0:0:
465,0,12434,6,0,P|475:75|482:150,1,152,2|2,2:2|2:3,0:0:0:0:
430,210,12951,6,0,P|466:237|511:227,1,95,2|0,2:2|0:0,0:0:0:0:
344,268,13468,1,2,2:2:0:0:
344,268,13813,6,0,P|333:192|326:117,1,152,2|2,2:2|2:3,0:0:0:0:
249,168,14331,6,0,P|221:204|231:249,1,95,2|0,2:2|0:0,0:0:0:0:
279,315,14848,1,2,2:2:0:0:
279,315,15193,6,0,P|222:345|126:134,1,380,2|2,2:2|2:2,0:0:0:0:
191,109,16917,1,2,2:2:0:0:
133,59,17262,1,2,2:2:0:0:
201,26,17606,1,2,2:2:0:0:
309,107,17951,6,0,B|399:112|363:150|450:153,1,152,2|2,2:2|2:3,0:0:0:0:
270,182,18468,6,0,P|227:186|167:201,1,95,2|0,2:2|0:0,0:0:0:0:
314,251,18986,1,2,2:2:0:0:
314,251,19331,6,0,B|224:256|260:294|172:297,1,152,2|2,2:2|2:3,0:0:0:0:
334,330,19848,6,0,P|377:334|437:349,1,95,2|0,2:2|0:0,0:0:0:0:
278,384,20365,1,2,2:2:0:0:
278,384,20710,6,0,P|270:334|225:56,1,332.5,2|0,2:2|0:0,0:0:0:0:
316,99,22089,5,10,2:1:0:0:
336,5,22262,1,8,2:2:0:0:
466,128,22434,5,10,2:1:0:0:
374,157,22607,1,8,2:2:0:0:
402,66,22779,5,10,2:1:0:0:
402,66,22951,1,8,2:2:0:0:
297,186,23124,5,10,2:1:0:0:
449,224,23296,1,8,2:2:0:0:
275,269,23468,6,0,B|221:274|196:214|214:210|189:152|126:161,1,190,10|10,2:1|2:2,0:0:0:0:
53,200,23986,1,10,2:1:0:0:
157,74,24158,1,10,2:2:0:0:
157,74,24331,1,0,0:0:0:0:
136,160,24503,1,2,2:2:0:0:
32,291,24675,1,0,0:0:0:0:
0,135,24848,6,0,P|78:155|120:270,1,190,10|10,2:1|2:2,0:0:0:0:
266,348,25365,2,0,P|334:330|327:225,1,190,10|0,2:1|0:0,0:0:0:0:
206,140,25882,2,0,P|223:196|227:242,1,95,2|0,2:2|0:0,0:0:0:0:
384,336,26227,6,0,B|404:141|489:303|504:81,1,285,10|8,2:1|2:1,0:0:0:0:
467,18,26917,1,10,2:2:0:0:
512,180,27089,1,0,0:0:0:0:
512,180,27434,1,0,0:0:0:0:
389,59,27606,6,0,P|280:86|317:154,1,190,10|10,2:1|2:2,0:0:0:0:
378,154,28124,1,8,2:1:0:0:
187,229,28296,2,0,P|87:202|54:201,2,95,10|0|2,2:2|0:0|2:2,0:0:0:0:
187,229,28986,6,0,B|296:198|264:307|372:273,1,190,10|10,2:1|2:2,0:0:0:0:
444,352,29503,2,0,P|468:214|484:155,1,190,10|0,2:1|0:0,0:0:0:0:
358,276,30020,2,0,P|341:363|334:383,1,95,2|0,2:2|0:0,0:0:0:0:
192,372,30365,6,0,P|122:354|154:245,1,190,10|10,2:1|2:2,0:0:0:0:
0,150,30882,2,0,P|50:98|128:180,1,190,10|0,2:1|0:0,0:0:0:0:
294,187,31400,2,0,P|247:209|201:204,1,95,2|0,2:2|0:0,0:0:0:0:
57,235,31744,6,0,P|219:267|345:319,1,285,10|8,2:1|2:1,0:0:0:0:
401,371,32434,1,10,2:2:0:0:
263,258,32606,1,0,0:0:0:0:
263,258,32951,1,0,0:0:0:0:
401,371,33124,6,0,B|426:262|494:356|522:202,1,190,10|10,2:1|2:2,0:0:0:0:
433,118,33641,1,8,2:1:0:0:
453,305,33813,2,0,P|434:251|407:194,1,95,10|0,2:2|0:0,0:0:0:0:
433,118,34158,1,2,2:2:0:0:
433,118,34503,6,0,P|293:149|241:154,1,190,10|10,2:1|2:2,0:0:0:0:
162,126,35020,1,10,2:1:0:0:
250,234,35193,1,10,2:2:0:0:
250,234,35365,1,0,0:0:0:0:
251,149,35537,1,2,2:2:0:0:
156,41,35710,1,0,0:0:0:0:
71,126,35882,6,0,P|96:262|109:344,1,190,10|10,2:1|2:2,0:0:0:0:
37,364,36400,1,10,2:1:0:0:
184,308,36572,1,10,2:2:0:0:
184,308,36744,1,0,0:0:0:0:
19,246,36917,1,2,2:2:0:0:
101,209,37089,1,0,0:0:0:0:
184,308,37262,6,0,P|273:291|217:125,1,285,10|8,2:1|2:1,0:0:0:0:
172,123,37951,1,10,2:2:0:0:
327,175,38124,1,0,0:0:0:0:
327,175,38468,1,0,0:0:0:0:
166,120,38641,6,0,P|128:163|169:216,1,95,10|0,2:1|0:0,0:0:0:0:
210,235,38986,1,10,2:2:0:0:
210,235,39158,1,8,2:1:0:0:
320,325,39331,2,0,P|324:279|290:249,1,95,10|0,2:2|0:0,0:0:0:0:
210,235,39675,1,2,2:2:0:0:
210,235,40020,6,0,P|83:264|52:271,1,142.5,10|0,2:1|0:0,0:0:0:0:
63,272,40365,1,10,2:2:0:0:
3,216,40537,1,10,2:1:0:0:
114,336,40710,2,0,P|160:325|206:313,1,95,10|0,2:2|0:0,0:0:0:0:
169,168,41055,2,0,P|122:178|76:190,1,95,2|0,2:2|0:0,0:0:0:0:
272,384,41400,6,0,P|302:248|326:199,1,156.750004783631,10|0,2:1|0:0,0:0:0:0:
318,229,41744,1,10,2:2:0:0:
210,235,41917,1,10,2:1:0:0:
363,317,42089,2,0,P|406:276|400:221,1,104.500003189087,10|0,2:2|0:0,0:0:0:0:
252,151,42434,2,0,P|209:192|215:247,1,104.500003189087,2|0,2:2|0:0,0:0:0:0:
102,368,42779,6,0,P|20:335|52:231,1,178.125,10|0,2:1|0:0,0:0:0:0:
31,250,43124,1,10,2:2:0:0:
7,170,43296,1,8,2:1:0:0:
105,291,43468,2,0,P|194:311|237:330,1,118.75,10|0,2:2|0:0,0:0:0:0:
119,132,43813,2,0,P|51:158|-25:175,1,118.75,2|0,2:3|0:0,0:0:0:0:
201,208,44158,5,10,2:1:0:0:
201,208,44244,1,8,2:2:0:0:
201,208,44331,2,0,L|216:141,1,59.375,8|8,2:2|2:2,0:0:0:0:
296,222,44503,5,8,2:1:0:0:
296,222,44589,1,8,2:2:0:0:
296,222,44676,2,0,L|311:155,1,59.375,8|8,2:2|2:2,0:0:0:0:
372,51,44848,5,10,2:1:0:0:
372,51,44934,1,8,2:2:0:0:
372,51,45021,2,0,L|387:118,1,59.375,8|8,2:2|2:2,0:0:0:0:
474,38,45193,5,8,2:1:0:0:
474,38,45279,1,8,2:2:0:0:
474,38,45366,2,0,L|489:105,1,59.375,8|8,2:2|2:2,0:0:0:0:
448,192,45537,5,14,2:1:0:0:
256,192,45624,12,2,48296,2:2:0:0:
320,128,56572,6,0,B|403:162|357:186|438:217,1,149.624995433808,2|2,2:2|2:2,0:0:0:0:
258,186,57089,6,0,P|216:175|148:173,1,99.7499969558717,2|2,2:2|2:2,0:0:0:0:
356,190,57606,6,0,B|345:100|388:129|376:43,1,149.624995433808,2|2,2:2|2:2,0:0:0:0:
436,216,58123,6,0,P|446:258|477:318,1,99.7499969558717,2|2,2:2|2:2,0:0:0:0:
512,348,58641,5,2,2:2:0:0:
362,333,58900,5,2,2:2:0:0:
263,320,59158,5,2,2:2:0:0:
224,384,59331,6,0,P|213:341|182:281,1,99.7499969558717,2|2,2:2|2:2,0:0:0:0:
64,160,59848,2,0,P|106:149|166:118,1,99.7499969558717,2|2,2:2|2:2,0:0:0:0:
156,124,60365,1,2,2:2:0:0:
288,0,60624,1,2,2:2:0:0:
288,0,60710,2,0,P|298:42|329:102,1,99.7499969558717,2|2,2:2|2:2,0:0:0:0:
448,224,61227,2,0,P|405:234|345:265,1,99.7499969558717,2|2,2:2|2:2,0:0:0:0:
224,384,61744,2,0,P|214:341|183:281,1,99.7499969558717,2|2,2:2|2:2,0:0:0:0:
117,233,62089,6,0,B|34:267|80:291|-1:322,2,149.624995433808,2|2|2,2:2|2:2|2:2,0:0:0:0:
156,124,62865,6,0,B|122:41|98:87|67:6,2,149.624995433808,2|2|2,2:2|2:2|2:2,0:0:0:0:
117,233,63641,6,0,B|34:267|80:291|-1:322,2,149.624995433808,2|2|2,2:2|2:2|2:2,0:0:0:0:
224,384,64417,5,2,2:2:0:0:
271,230,64676,1,2,2:2:0:0:
348,264,64848,6,0,P|374:278|389:294,2,38,6|4|4,2:3|2:3|2:3,0:0:0:0:
271,230,65106,2,0,P|242:229|221:236,2,38,6|4|4,2:3|2:3|2:3,0:0:0:0:
407,207,65365,6,0,P|433:221|448:237,2,38,6|4|4,2:3|2:3|2:3,0:0:0:0:
254,154,65624,2,0,P|225:153|204:160,2,38,6|4|4,2:3|2:3|2:3,0:0:0:0:
407,207,65882,6,0,P|424:214|439:226,1,38,6|4,2:3|2:3,0:0:0:0:
254,154,66055,2,0,P|235:152|216:154,1,38,4|6,2:3|2:3,0:0:0:0:
448,298,66227,6,0,B|507:233|452:238|509:164,2,149.624995433808,6|6|6,2:3|2:3|2:3,0:0:0:0:
390,384,66917,5,8,2:2:0:0:
408,337,67003,1,10,2:2:0:0:
413,288,67089,1,8,2:2:0:0:
404,238,67175,1,8,2:2:0:0:
387,203,67261,1,10,2:3:0:0:
361,173,67348,1,8,2:3:0:0:
325,154,67434,1,4,2:3:0:0:
288,144,67520,1,6,2:3:0:0:
248,144,67606,1,10,2:1:0:0:
73,255,67779,5,2,2:3:0:0:
73,255,67865,1,2,2:2:0:0:
73,255,67951,2,0,P|97:322|104:329,1,59.375,14|0,2:2|0:0,0:0:0:0:
223,256,68124,6,0,B|175:269|145:317|183:325|155:361|108:386,1,178.125,2|2,2:2|2:2,0:0:0:0:
103,384,68468,2,0,P|39:371|19:319,1,118.75,10|2,2:1|2:2,0:0:0:0:
240,331,68813,1,10,2:2:0:0:
240,331,68900,2,0,P|307:339|383:366,1,118.75,2|0,2:2|0:0,0:0:0:0:
404,136,69158,6,0,P|371:139|341:158,2,59.375,10|0|10,2:1|0:0|2:2,0:0:0:0:
450,241,69417,2,0,P|463:210|462:175,2,59.375,2|2|2,2:2|2:3|2:3,0:0:0:0:
334,229,69675,2,0,P|353:256|384:272,2,59.375,2|2|10,2:2|2:3|2:1,0:0:0:0:
237,307,69934,2,0,P|250:277|249:242,2,59.375,2|10|0,2:2|2:2|0:0,0:0:0:0:
355,353,70193,2,0,P|322:355|292:374,1,59.375,2|0,2:2|0:0,0:0:0:0:
119,357,70365,6,0,P|125:298|141:241,1,118.75,10|2,2:1|2:3,0:0:0:0:
207,182,70624,2,0,P|213:124|172:84,1,118.75,2|0,2:2|0:0,0:0:0:0:
71,136,70882,2,0,P|95:217|188:204,1,178.125,2|2,2:2|2:2,0:0:0:0:
283,215,71227,1,10,2:1:0:0:
276,225,71313,1,0,0:0:0:0:
271,236,71400,2,0,P|327:204|427:177,1,118.75,10|2,2:2|2:3,0:0:0:0:
511,286,71658,1,2,2:2:0:0:
511,286,71744,6,0,P|454:293|416:251,1,118.75,10|2,2:1|2:3,0:0:0:0:
280,147,72003,2,0,P|224:159|203:212,1,118.75,2|0,2:2|0:0,0:0:0:0:
427,241,72262,2,0,P|425:183|377:153,1,118.75,2|2,2:2|2:3,0:0:0:0:
255,281,72520,2,0,P|299:317|354:301,1,118.75,2|0,2:2|0:0,0:0:0:0:
321,226,72779,2,0,P|307:168|298:109,1,118.75,10|2,2:2|2:3,0:0:0:0:
386,47,73037,1,2,2:2:0:0:
386,47,73124,1,10,2:1:0:0:
140,28,73296,5,2,2:3:0:0:
140,28,73382,1,2,2:2:0:0:
140,28,73468,2,0,P|164:95|171:102,1,59.375,10|0,2:2|0:0,0:0:0:0:
129,156,73641,6,0,B|85:132|57:96|95:88|65:40|17:27,1,178.125,2|2,2:2|2:2,0:0:0:0:
0,102,73986,2,0,P|19:153|71:203,1,118.75,10|2,2:1|2:2,0:0:0:0:
232,259,74331,1,10,2:2:0:0:
232,259,74417,2,0,P|174:260|136:304,1,118.75,2|0,2:2|0:0,0:0:0:0:
63,333,74675,6,0,P|82:360|113:376,2,59.375,10|0|10,2:1|0:0|2:2,0:0:0:0:
306,235,74934,2,0,P|311:267|301:301,2,59.375,2|2|2,2:2|2:3|2:3,0:0:0:0:
334,361,75193,6,0,P|359:345|376:321,2,59.375,2|2|10,2:2|2:3|2:1,0:0:0:0:
231,316,75452,2,0,P|225:287|232:259,2,59.375,2|10|0,2:2|2:2|0:0,0:0:0:0:
306,235,75710,2,0,P|311:267|301:301,1,59.375,2|0,2:2|0:0,0:0:0:0:
148,153,75882,6,0,P|172:100|228:87,1,118.75,10|2,2:1|2:3,0:0:0:0:
311,35,76141,2,0,P|317:94|333:151,1,118.75,2|0,2:2|0:0,0:0:0:0:
512,96,76400,6,0,B|496:142|466:176|451:140|409:178|405:228,1,178.125,2|2,2:2|2:2,0:0:0:0:
470,348,76745,1,10,2:1:0:0:
459,353,76831,1,0,0:0:0:0:
447,357,76917,2,0,P|390:348|361:298,1,118.75,10|2,2:2|2:3,0:0:0:0:
182,353,77175,1,2,2:2:0:0:
182,353,77262,6,0,P|259:359|317:372,1,118.75,10|2,2:1|2:3,0:0:0:0:
268,277,77520,2,0,P|209:266|150:262,1,118.75,2|0,2:2|0:0,0:0:0:0:
0,40,77779,6,0,P|58:29|117:25,1,118.75,2|2,2:2|2:3,0:0:0:0:
309,57,78037,2,0,P|250:67|191:71,1,118.75,2|0,2:2|0:0,0:0:0:0:
381,8,78296,2,0,B|430:12|468:54|432:69|466:99|516:116,1,178.125,10|2,2:2|2:2,0:0:0:0:
512,114,78641,1,10,2:1:0:0:
454,351,78813,5,2,2:3:0:0:
454,351,78899,1,2,2:2:0:0:
454,351,78985,2,0,P|387:327|380:320,1,59.375,10|0,2:2|0:0,0:0:0:0:
352,260,79158,2,0,P|289:257|330:338,1,178.125,2|2,2:2|2:2,0:0:0:0:
476,352,79503,2,0,P|495:309|441:264,1,118.75,10|2,2:1|2:2,0:0:0:0:
181,123,79848,1,10,2:2:0:0:
181,123,79934,2,0,P|238:139|297:145,1,118.75,2|0,2:2|0:0,0:0:0:0:
345,79,80193,6,0,P|390:62|422:66,2,59.375,10|0|10,2:1|0:0|2:2,0:0:0:0:
343,225,80451,2,0,P|388:242|420:238,2,59.375,2|2|2,2:2|2:3|2:3,0:0:0:0:
297,145,80710,6,0,P|252:128|220:132,2,59.375,2|2|10,2:2|2:3|2:1,0:0:0:0:
299,291,80968,2,0,P|254:308|222:304,2,59.375,2|10|0,2:2|2:2|0:0,0:0:0:0:
249,217,81227,2,0,P|219:220|193:234,1,59.375,2|0,2:2|0:0,0:0:0:0:
71,317,81400,6,0,P|65:258|49:201,1,118.75,10|2,2:1|2:3,0:0:0:0:
160,81,81659,2,0,P|119:39|62:44,1,118.75,2|0,2:2|0:0,0:0:0:0:
30,129,81917,2,0,P|80:196|163:152,1,178.125,2|2,2:2|2:2,0:0:0:0:
259,30,82262,1,10,2:1:0:0:
268,23,82348,1,0,0:0:0:0:
278,17,82434,2,0,P|335:12|375:54,1,118.75,10|2,2:2|2:3,0:0:0:0:
327,247,82693,1,2,2:2:0:0:
338,250,82779,6,0,P|378:243|469:217,1,118.75,10|2,2:1|2:3,0:0:0:0:
233,212,83037,2,0,P|193:219|102:245,1,118.75,2|0,2:2|0:0,0:0:0:0:
356,331,83296,6,0,P|396:324|487:298,1,118.75,2|2,2:2|2:3,0:0:0:0:
180,315,83555,2,0,P|140:322|49:348,1,118.75,2|0,2:2|0:0,0:0:0:0:
331,165,83813,2,0,P|371:158|462:132,1,118.75,10|2,2:2|2:3,0:0:0:0:
280,78,84072,1,2,2:2:0:0:
280,78,84158,1,10,2:1:0:0:
511,1,84331,5,2,2:3:0:0:
511,1,84417,1,2,2:2:0:0:
511,1,84503,2,0,P|487:68|480:75,1,59.375,10|0,2:2|0:0,0:0:0:0:
355,29,84675,6,0,B|404:33|442:75|406:90|440:120|490:137,1,178.125,2|2,2:2|2:2,0:0:0:0:
352,108,85020,2,0,P|285:95|220:75,1,118.75,10|2,2:1|2:2,0:0:0:0:
0,65,85366,1,10,2:2:0:0:
0,65,85452,2,0,P|38:21|95:20,1,118.75,2|0,2:2|0:0,0:0:0:0:
168,50,85710,6,0,P|151:74|126:90,2,59.375,10|0|10,2:1|0:0|2:2,0:0:0:0:
250,136,85968,2,0,P|236:109|235:80,2,59.375,2|2|2,2:2|2:3|2:3,0:0:0:0:
138,163,86227,2,0,P|167:164|193:178,2,59.375,2|2|10,2:2|2:3|2:1,0:0:0:0:
103,274,86486,2,0,P|89:247|88:218,2,59.375,2|10|0,2:2|2:2|0:0,0:0:0:0:
227,257,86744,2,0,P|210:281|185:297,1,59.375,2|0,2:2|0:0,0:0:0:0:
387,351,86917,6,0,P|374:284|354:219,1,118.75,10|2,2:1|2:3,0:0:0:0:
283,182,87176,2,0,P|306:128|362:114,1,118.75,2|0,2:2|0:0,0:0:0:0:
438,161,87434,2,0,P|472:208|382:255,1,178.125,2|2,2:2|2:2,0:0:0:0:
248,341,87779,1,10,2:1:0:0:
248,341,87865,1,0,0:0:0:0:
248,341,87951,2,0,P|227:285|198:233,1,118.75,10|2,2:2|2:3,0:0:0:0:
145,127,88210,1,2,2:2:0:0:
145,127,88296,6,0,P|202:120|240:162,1,118.75,10|2,2:1|2:3,0:0:0:0:
180,275,88555,2,0,P|124:263|103:210,1,118.75,2|0,2:2|0:0,0:0:0:0:
304,87,88813,6,0,P|328:161|332:236,1,118.75,2|2,2:2|2:3,0:0:0:0:
0,274,89072,2,0,P|8:215|28:159,1,118.75,2|0,2:2|0:0,0:0:0:0:
114,130,89331,6,0,B|160:146|194:176|158:191|196:233|246:237,1,178.125,10|2,2:2|2:2,0:0:0:0:
332,201,89675,6,0,P|388:190|438:178,1,95,2|14,2:2|2:2,0:0:0:0:
506,269,90193,1,2,2:2:0:0:
506,269,90279,1,2,2:3:0:0:
506,269,90365,6,0,P|444:261|429:271,1,47.5,2|2,2:3|2:2,0:0:0:0:
383,283,90537,2,0,P|406:351|408:365,1,56.9999982604981,10|0,2:1|0:0,0:0:0:0:
424,181,90710,2,0,P|357:209|324:217,1,71.2500027179719,10|0,2:2|0:0,0:0:0:0:
327,365,90882,2,0,P|314:324|303:298,1,71.2500027179719,2|2,2:3|2:2,0:0:0:0:
190,106,91055,6,0,P|122:101|126:203,2,142.500005435944,10|2|10,2:1|2:2|2:2,0:0:0:0:
183,187,91486,1,2,2:2:0:0:
187,196,91572,2,0,P|265:211|303:221,1,71.2500027179719,2|2,2:3|2:3,0:0:0:0:
338,102,91744,2,0,B|415:89|363:43|455:33,1,132.999995941162,2|10,2:2|2:1,0:0:0:0:
503,101,92003,1,2,2:2:0:0:
503,101,92089,2,0,P|479:184|476:206,1,66.4999979705811,10|0,2:2|0:0,0:0:0:0:
335,97,92262,2,0,P|311:22|305:12,1,66.4999979705811,2|0,2:2|0:0,0:0:0:0:
375,254,92434,6,0,P|404:139|445:28,1,237.5,10|10,2:1|2:2,0:0:0:0:
225,29,92951,1,2,2:2:0:0:
238,57,93037,1,2,2:3:0:0:
247,85,93123,1,2,2:3:0:0:
254,114,93209,1,2,2:2:0:0:
258,143,93295,1,10,2:1:0:0:
176,285,93468,2,0,P|109:249|129:197,1,118.75,10|2,2:2|2:3,0:0:0:0:
94,49,93727,1,2,2:2:0:0:
86,43,93813,6,0,P|29:90|61:127,1,118.75,10|2,2:1|2:3,0:0:0:0:
138,127,94072,1,2,2:2:0:0:
138,127,94158,1,10,2:2:0:0:
291,229,94331,1,2,2:2:0:0:
291,229,94417,1,2,2:3:0:0:
291,229,94503,2,0,P|375:272|386:283,1,64.1250002446175,2|2,2:3|2:2,0:0:0:0:
412,303,94675,1,10,2:1:0:0:
237,328,94848,2,0,P|211:243|179:179,1,128.250000489235,10|2,2:2|2:3,0:0:0:0:
153,54,95106,1,2,2:2:0:0:
153,54,95193,6,0,B|217:60|188:100|249:109,1,106.875004076958,10|2,2:1|2:2,0:0:0:0:
138,127,95537,2,0,P|46:144|30:150,1,71.2500027179719,10|0,2:2|0:0,0:0:0:0:
0,181,95710,1,2,2:2:0:0:
2,215,95796,1,2,2:3:0:0:
28,238,95882,1,2,2:3:0:0:
63,241,95968,1,2,2:2:0:0:
92,222,96054,1,10,2:1:0:0:
240,107,96227,2,0,P|337:140|328:211,1,142.500005435944,10|2,2:2|2:3,0:0:0:0:
230,307,96486,1,2,2:2:0:0:
230,307,96572,6,0,P|249:252|267:161,2,132.999995941162,10|2|10,2:1|2:2|2:2,0:0:0:0:
151,350,97003,1,2,2:2:0:0:
151,350,97089,2,0,P|153:276|173:255,1,66.4999979705811,2|2,2:3|2:3,0:0:0:0:
304,351,97262,2,0,P|350:277|401:227,1,132.999995941162,2|10,2:2|2:1,0:0:0:0:
411,155,97520,1,2,2:2:0:0:
411,155,97606,2,0,P|315:153|307:149,1,66.4999979705811,10|0,2:2|0:0,0:0:0:0:
234,102,97779,1,2,2:2:0:0:
75,285,97951,6,0,B|147:299|181:243|162:236|197:165|268:179,1,237.5,10|10,2:1|2:2,0:0:0:0:
440,65,98468,1,2,2:2:0:0:
411,73,98554,1,2,2:3:0:0:
382,78,98640,1,2,2:3:0:0:
352,78,98726,1,2,2:2:0:0:
323,74,98812,1,10,2:1:0:0:
200,24,98986,2,0,P|136:60|149:107,1,118.75,10|2,2:2|2:3,0:0:0:0:
251,257,99244,1,2,2:2:0:0:
257,249,99331,6,0,P|161:200|102:194,1,118.75,10|2,2:1|2:3,0:0:0:0:
38,211,99589,1,2,2:2:0:0:
38,211,99675,1,10,2:2:0:0:
130,321,99848,2,0,P|192:296|208:297,1,59.375,2|2,2:2|2:3,0:0:0:0:
303,190,100020,1,2,2:3:0:0:
309,183,100106,2,0,P|370:272|328:304,1,132.999995941162,2|0,2:2|0:0,0:0:0:0:
355,357,100365,2,0,P|411:242|472:171,1,199.499993911743,10|2,2:2|2:2,0:0:0:0:
508,77,100710,6,0,P|444:51|386:0,1,142.500005435944,10|10,2:1|2:2,0:0:0:0:
246,20,101227,1,2,2:2:0:0:
246,20,101313,1,2,2:3:0:0:
246,20,101400,2,0,P|198:49|196:56,1,35.625001358986,2|2,2:3|2:2,0:0:0:0:
325,57,101572,2,0,P|291:104|291:114,1,47.5,10|0,2:1|0:0,0:0:0:0:
227,178,101744,6,0,P|185:130|183:116,1,59.375,10|0,2:2|0:0,0:0:0:0:
91,141,101917,2,0,P|102:77|116:65,1,59.375,2|2,2:3|2:2,0:0:0:0:
59,8,102089,6,0,P|108:164|124:253,1,237.5,10|10,2:1|2:2,0:0:0:0:
41,343,102606,1,2,2:3:0:0:
41,343,102693,1,2,2:3:0:0:
41,343,102779,2,0,P|27:293|26:290,1,35.625001358986,2|2,2:2|2:3,0:0:0:0:
135,383,102951,2,0,P|152:324|158:310,1,47.5,10|2,2:1|2:2,0:0:0:0:
207,228,103124,6,0,P|229:290|232:303,1,59.375,10|0,2:2|0:0,0:0:0:0:
338,223,103296,2,0,P|320:290|321:304,1,59.375,2|0,2:2|0:0,0:0:0:0:
275,373,103468,6,0,P|377:298|457:337,1,190,10|10,2:1|2:2,0:0:0:0:
509,205,103986,1,2,2:2:0:0:
507,169,104072,1,2,2:3:0:0:
486,141,104158,1,2,2:3:0:0:
453,130,104244,1,2,2:2:0:0:
420,140,104330,1,10,2:1:0:0:
341,223,104503,2,0,P|242:193|214:189,1,95,10|2,2:2|2:3,0:0:0:0:
67,220,104762,1,2,2:2:0:0:
67,220,104848,6,0,B|77:162|115:195|133:121,1,118.75,10|2,2:1|2:3,0:0:0:0:
32,51,105106,1,2,2:2:0:0:
32,51,105192,2,0,P|58:121|65:143,1,59.375,10|0,2:2|0:0,0:0:0:0:
142,249,105365,1,2,2:2:0:0:
189,59,105537,1,2,2:3:0:0:
189,59,105624,2,0,P|255:70|259:126,1,118.75,2|0,2:2|0:0,0:0:0:0:
344,223,105882,2,0,P|399:188|401:173,1,59.375,10|0,2:2|0:0,0:0:0:0:
383,106,106055,1,2,2:3:0:0:
383,106,106141,1,2,2:2:0:0:
383,106,106227,6,0,P|336:278|325:351,1,237.5,10|10,2:1|2:2,0:0:0:0:
180,374,106744,1,2,2:2:0:0:
180,374,106831,1,2,2:3:0:0:
180,374,106917,2,0,P|157:309|148:291,1,59.375,2|2,2:3|2:2,0:0:0:0:
97,257,107089,1,10,2:1:0:0:
281,180,107262,2,0,B|206:167|243:218|152:206,1,118.75,10|2,2:2|2:3,0:0:0:0:
19,226,107520,1,2,2:2:0:0:
19,226,107606,6,0,P|-9:131|-12:118,1,59.375,10|0,2:1|0:0,0:0:0:0:
61,369,107779,2,0,P|90:288|112:228,1,118.75,2|10,2:2|2:2,0:0:0:0:
82,82,108037,2,0,P|162:110|154:167,1,118.75,2|2,2:2|2:3,0:0:0:0:
267,262,108296,2,0,P|349:290|406:310,1,118.75,2|10,2:2|2:1,0:0:0:0:
485,212,108555,1,2,2:2:0:0:
485,212,108641,2,0,P|465:142|461:129,1,59.375,10|0,2:2|0:0,0:0:0:0:
447,83,108813,1,2,2:2:0:0:
247,173,108986,6,0,P|327:137|318:84,1,132.999995941162,10|2,2:1|2:3,0:0:0:0:
190,10,109244,1,2,2:2:0:0:
190,10,109331,2,0,P|167:82|187:93,1,66.4999979705811,10|0,2:2|0:0,0:0:0:0:
171,136,109503,1,2,2:2:0:0:
133,316,109675,1,2,2:3:0:0:
133,316,109762,2,0,P|109:205|88:159,1,132.999995941162,2|0,2:2|0:0,0:0:0:0:
327,103,110020,2,0,P|351:214|372:260,1,132.999995941162,10|2,2:2|2:3,0:0:0:0:
279,377,110279,1,2,2:2:0:0:
279,377,110365,6,0,P|230:182|188:35,1,285.000010871888,10|10,2:1|2:2,0:0:0:0:
337,13,110882,1,2,2:2:0:0:
337,13,110968,1,2,2:3:0:0:
337,13,111055,1,8,2:2:0:0:
389,5,111141,1,10,2:2:0:0:
434,31,111227,1,8,2:2:0:0:
456,79,111313,1,8,2:2:0:0:
444,130,111400,6,0,L|387:113,1,35.625001358986,10|0,2:2|0:0,0:0:0:0:
337,158,111572,6,0,L|280:141,1,35.625001358986,8|2,2:2|2:2,0:0:0:0:
288,224,112089,6,0,B|291:143|243:189|244:92,1,142.500005435944,12|0,2:2|0:0,0:0:0:0:
256,0,112606,2,0,P|294:19|321:48,1,71.2500027179719,10|0,2:1|0:0,0:0:0:0:
237,200,112951,2,0,P|227:240|219:282,1,71.2500027179719,8|2,2:2|2:2,0:0:0:0:
64,384,113296,1,8,2:1:0:0:
155,294,113468,6,0,B|233:323|203:284|302:318,1,142.500005435944,8|0,2:2|0:0,0:0:0:0:
356,364,113986,1,8,2:1:0:0:
223,266,114158,2,0,P|231:231|239:197,1,71.2500027179719,10|0,2:2|0:0,0:0:0:0:
384,160,114503,5,10,2:1:0:0:
384,160,114675,2,0,P|435:146|480:142,1,95,2|8,2:3|2:2,0:0:0:0:
370,297,115020,2,0,P|319:283|274:279,1,95,2|0,2:3|0:0,0:0:0:0:
192,192,115365,1,10,2:1:0:0:
85,352,115537,2,0,P|132:356|177:369,1,95,8|0,2:2|0:0,0:0:0:0:
277,279,115882,1,10,2:1:0:0:
512,384,116227,6,0,B|419:351|471:396|360:357,1,142.500005435944,8|0,2:2|0:0,0:0:0:0:
341,180,116745,1,8,2:1:0:0:
256,192,116917,2,0,P|262:154|275:113,1,71.2500027179719,10|0,2:2|0:0,0:0:0:0:
311,302,117262,5,10,2:1:0:0:
205,381,117434,1,2,2:3:0:0:
323,284,117606,5,8,2:2:0:0:
208,281,117779,2,0,B|109:282|165:312|59:315,2,142.500005435944,2|10|8,2:3|2:1|2:2,0:0:0:0:
100,92,118813,1,8,2:1:0:0:
256,192,118985,2,0,P|250:230|237:271,2,71.2500027179719,8|2|0,2:2|2:2|0:0,0:0:0:0:
150,179,119503,1,8,2:1:0:0:
306,79,119675,2,0,P|300:41|287:0,1,71.2500027179719,10|0,2:2|0:0,0:0:0:0:
150,179,120020,5,10,2:1:0:0:
288,288,120192,1,2,2:3:0:0:
192,320,120364,5,8,2:2:0:0:
265,182,120537,2,0,B|364:181|308:151|414:148,1,142.500005435944,2|10,2:3|2:1,0:0:0:0:
480,224,121055,2,0,P|474:262|461:303,1,71.2500027179719,8|0,2:2|0:0,0:0:0:0:
256,384,121400,6,0,P|247:346|245:303,1,71.2500027179719,10|0,2:1|0:0,0:0:0:0:
160,256,121744,2,0,P|86:264|19:280,1,142.500005435944,8|0,2:2|0:0,0:0:0:0:
106,351,122262,1,8,2:1:0:0:
45,188,122434,2,0,P|79:179|115:177,1,71.2500027179719,10|0,2:2|0:0,0:0:0:0:
106,351,122779,1,10,2:1:0:0:
245,279,122951,6,0,P|243:243|233:209,1,71.2500027179719,2|8,2:3|2:2,0:0:0:0:
267,105,123296,2,0,P|268:140|278:174,1,71.2500027179719,2|0,2:3|0:0,0:0:0:0:
416,224,123641,2,0,P|380:225|346:235,1,71.2500027179719,10|0,2:1|0:0,0:0:0:0:
96,160,123986,2,0,P|131:158|165:148,1,71.2500027179719,8|2,2:2|2:2,0:0:0:0:
320,352,124331,1,8,2:1:0:0:
448,288,124503,6,0,B|477:210|438:240|472:141,1,142.500005435944,8|0,2:2|0:0,0:0:0:0:
384,32,125021,1,8,2:1:0:0:
427,177,125193,2,0,P|423:214|411:246,1,71.2500027179719,10|0,2:2|0:0,0:0:0:0:
320,352,125538,5,10,2:1:0:0:
389,384,125710,2,0,P|375:333|371:288,1,95,2|8,2:3|2:2,0:0:0:0:
288,224,126055,2,0,P|237:210|192:206,1,95,2|0,2:3|0:0,0:0:0:0:
64,288,126400,1,10,2:1:0:0:
192,352,126572,2,0,B|181:214|158:302|150:155,1,190,8|10,2:2|2:1,0:0:0:0:
512,0,127262,6,0,B|419:33|471:-12|360:27,1,142.500005435944,8|0,2:2|0:0,0:0:0:0:
341,204,127780,1,8,2:1:0:0:
256,192,127952,2,0,P|262:230|275:271,1,71.2500027179719,10|0,2:2|0:0,0:0:0:0:
311,82,128297,5,10,2:1:0:0:
170,0,128469,1,2,2:3:0:0:
256,192,128641,5,8,2:2:0:0:
320,0,128814,2,0,B|348:125|361:35|398:169,1,190,2|10,2:3|2:1,0:0:0:0:
416,352,129503,1,8,2:2:0:0:
416,352,129848,5,8,2:1:0:0:
512,192,130020,2,0,P|474:198|320:230,1,190,8|0,2:2|0:0,0:0:0:0:
179,281,130538,1,8,2:1:0:0:
264,358,130710,2,0,P|285:305|237:182,1,190,10|10,2:2|2:1,0:0:0:0:
69,235,131227,5,2,2:3:0:0:
241,185,131400,1,8,2:2:0:0:
160,384,131572,2,0,B|285:382|214:344|349:340,1,190,2|10,2:3|2:1,0:0:0:0:
384,256,132090,6,0,P|378:218|361:163,1,95,8|0,2:2|0:0,0:0:0:0:
128,128,132434,2,0,P|134:166|151:221,1,95,10|0,2:1|0:0,0:0:0:0:
320,64,132779,2,0,P|282:70|227:87,1,95,8|2,2:2|2:3,0:0:0:0:
192,320,133123,1,2,0:0:0:0:
352,256,133295,1,8,2:1:0:0:
224,384,133469,2,0,B|267:305|224:273|268:198,1,190,10|2,2:2|2:2,0:0:0:0:
266,201,134158,5,8,2:2:0:0:
165,325,134331,1,2,2:3:0:0:
137,329,134417,1,6,2:3:0:0:
109,328,134503,1,2,2:3:0:0:
81,320,134589,1,6,2:3:0:0:
57,306,134675,1,10,2:1:0:0:
34,288,134762,1,0,0:0:0:0:
20,264,134848,2,0,P|38:184|69:108,1,113.999996520996,10|0,2:2|0:0,0:0:0:0:
348,232,135193,6,0,P|333:298|307:361,2,113.999996520996,10|0|8,2:1|0:0|2:2,0:0:0:0:
206,186,135710,1,2,2:2:0:0:
206,186,135796,1,6,2:3:0:0:
206,186,135882,2,0,P|224:220|216:263,1,56.9999982604981,2|6,2:3|2:3,0:0:0:0:
118,141,136055,2,0,P|139:109|180:94,1,56.9999982604981,10|0,2:1|0:0,0:0:0:0:
181,309,136227,1,10,2:2:0:0:
459,192,136400,1,0,0:0:0:0:
459,192,136486,1,0,0:0:0:0:
459,192,136572,6,0,B|428:226|414:268|451:262|440:316|400:344,1,170.999994781494,10|0,2:1|0:0,0:0:0:0:
400,343,136917,1,8,2:2:0:0:
348,168,137089,1,2,2:3:0:0:
348,168,137175,1,6,2:3:0:0:
348,168,137262,6,0,P|366:134|376:104,1,56.9999982604981,2|6,2:3|2:3,0:0:0:0:
309,52,137434,2,0,P|298:25|284:0,1,56.9999982604981,10|0,2:1|0:0,0:0:0:0:
126,120,137606,2,0,P|55:110|1:92,1,113.999996520996,10|0,2:2|0:0,0:0:0:0:
419,58,137951,6,0,B|450:92|464:134|427:128|438:182|478:210,1,170.999994781494,10|0,2:1|0:0,0:0:0:0:
477,209,138296,1,8,2:2:0:0:
134,312,138468,1,2,2:3:0:0:
134,312,138555,1,6,2:3:0:0:
134,312,138641,6,0,P|90:302|71:290,1,56.9999982604981,2|6,2:3|2:3,0:0:0:0:
359,305,138813,2,0,P|403:315|422:327,1,56.9999982604981,10|0,2:1|0:0,0:0:0:0:
152,223,138986,1,10,2:2:0:0:
443,140,139158,1,0,0:0:0:0:
223,0,139331,6,0,P|183:50|200:101,1,113.999996520996,10|2,2:1|2:3,0:0:0:0:
253,146,139589,1,0,0:0:0:0:
253,146,139675,2,0,P|318:126|339:109,1,56.9999982604981,8|0,2:2|0:0,0:0:0:0:
376,72,139848,5,2,2:3:0:0:
394,59,139934,1,6,2:3:0:0:
415,50,140020,1,2,2:3:0:0:
437,45,140106,1,6,2:3:0:0:
459,47,140193,1,10,2:1:0:0:
480,52,140279,1,0,0:0:0:0:
499,63,140365,1,10,2:2:0:0:
376,185,140537,1,0,0:0:0:0:
500,340,140710,6,0,P|439:318|374:312,1,113.999996520996,10|0,2:1|0:0,0:0:0:0:
312,348,140968,1,0,0:0:0:0:
312,348,141055,2,0,P|288:308|300:273,1,56.9999982604981,8|0,2:2|0:0,0:0:0:0:
193,358,141227,5,2,2:2:0:0:
156,331,141313,1,6,2:3:0:0:
136,289,141400,1,2,2:3:0:0:
128,244,141486,1,6,2:3:0:0:
140,200,141572,1,10,2:1:0:0:
165,162,141658,1,0,0:0:0:0:
203,137,141744,1,10,2:2:0:0:
80,42,141917,1,0,0:0:0:0:
303,134,142089,5,10,2:1:0:0:
128,244,142262,1,2,2:3:0:0:
128,244,142348,1,0,0:0:0:0:
128,244,142434,1,8,2:2:0:0:
307,285,142606,1,2,2:3:0:0:
307,285,142693,1,6,2:3:0:0:
307,285,142779,2,0,P|356:273|377:256,1,56.9999982604981,2|6,2:3|2:3,0:0:0:0:
485,185,142951,2,0,P|470:233|475:260,1,56.9999982604981,10|0,2:1|0:0,0:0:0:0:
303,134,143124,2,0,P|295:70|269:1,1,113.999996520996,10|0,2:2|0:0,0:0:0:0:
449,37,143468,5,10,2:1:0:0:
403,162,143641,1,0,0:0:0:0:
403,162,143727,1,0,0:0:0:0:
403,162,143813,1,8,2:2:0:0:
218,129,143986,1,2,2:3:0:0:
218,129,144072,1,6,2:3:0:0:
218,129,144158,2,0,P|176:139|158:153,1,38,2|6,2:3|2:3,0:0:0:0:
114,232,144331,2,0,P|126:190|122:168,1,38,10|0,2:1|0:0,0:0:0:0:
40,69,144503,2,0,P|78:108|104:117,1,76,10|0,2:2|0:0,0:0:0:0:
321,64,144848,5,10,2:1:0:0:
321,64,145020,1,2,2:3:0:0:
221,212,145193,1,8,2:2:0:0:
478,182,145365,1,2,2:3:0:0:
454,166,145451,1,6,2:3:0:0:
426,157,145537,1,2,2:3:0:0:
397,159,145624,1,6,2:3:0:0:
370,168,145710,1,10,2:1:0:0:
347,186,145796,1,0,0:0:0:0:
330,209,145882,2,0,P|316:268|354:324,1,113.999996520996,10|0,2:2|0:0,0:0:0:0:
65,344,146227,6,0,P|118:324|174:312,2,113.999996520996,10|0|8,2:1|0:0|2:2,0:0:0:0:
0,212,146744,1,2,2:2:0:0:
0,212,146830,1,6,2:3:0:0:
0,212,146916,2,0,P|18:178|10:135,1,56.9999982604981,2|6,2:3|2:3,0:0:0:0:
30,4,147089,2,0,P|12:38|20:81,1,56.9999982604981,10|0,2:1|0:0,0:0:0:0:
185,174,147261,1,10,2:2:0:0:
98,56,147434,1,0,0:0:0:0:
98,56,147520,1,0,0:0:0:0:
98,56,147606,6,0,P|164:72|308:76,1,170.999994781494,10|0,2:1|0:0,0:0:0:0:
266,79,147951,1,8,2:2:0:0:
492,26,148124,1,2,2:3:0:0:
492,26,148210,1,6,2:3:0:0:
492,26,148296,2,0,P|510:60|502:103,1,56.9999982604981,2|6,2:3|2:3,0:0:0:0:
364,147,148468,2,0,P|346:113|354:70,1,56.9999982604981,10|0,2:1|0:0,0:0:0:0:
512,192,148641,2,0,P|503:250|432:252,1,113.999996520996,10|0,2:2|0:0,0:0:0:0:
122,282,148986,6,0,B|170:277|213:312|181:331|219:354|264:360,1,170.999994781494,10|0,2:1|0:0,0:0:0:0:
264,360,149331,1,8,2:2:0:0:
138,363,149503,1,2,2:3:0:0:
138,363,149590,1,6,2:3:0:0:
138,363,149676,6,0,P|112:374|83:378,1,56.9999982604981,2|6,2:3|2:3,0:0:0:0:
196,112,149848,2,0,P|240:122|259:134,1,56.9999982604981,10|0,2:1|0:0,0:0:0:0:
138,363,150020,2,0,P|68:346|15:324,1,113.999996520996,10|0,2:2|0:0,0:0:0:0:
209,167,150365,6,0,P|204:138|195:111,3,56.9999982604981,10|0|2|0,2:1|0:0|2:3|0:0,0:0:0:0:
195,110,150710,1,8,2:2:0:0:
203,154,150796,1,0,0:0:0:0:
229,190,150882,1,2,2:3:0:0:
263,220,150968,1,6,2:3:0:0:
305,237,151055,1,2,2:3:0:0:
350,241,151141,1,6,2:3:0:0:
393,228,151227,1,10,2:1:0:0:
432,205,151313,1,0,0:0:0:0:
461,169,151400,1,10,2:2:0:0:
477,126,151486,1,0,0:0:0:0:
486,81,151572,1,0,0:0:0:0:
478,36,151658,1,0,0:0:0:0:
445,4,151744,6,0,P|435:30|431:59,3,56.9999982604981,10|0|0|0,2:1|0:0|0:0|0:0,0:0:0:0:
431,58,152089,5,8,2:2:0:0:
409,38,152175,1,0,0:0:0:0:
382,26,152262,1,2,2:2:0:0:
354,18,152348,1,6,2:3:0:0:
325,19,152434,1,2,2:3:0:0:
297,26,152520,1,6,2:3:0:0:
272,40,152606,1,10,2:1:0:0:
251,59,152693,1,0,0:0:0:0:
235,82,152779,1,10,2:2:0:0:
224,108,152865,1,0,0:0:0:0:
216,135,152951,1,0,0:0:0:0:
217,163,153037,1,0,0:0:0:0:
229,190,153124,6,0,P|224:161|215:134,3,56.9999982604981,10|0|2|0,2:1|0:0|2:3|0:0,0:0:0:0:
215,134,153468,1,8,2:2:0:0:
226,147,153555,1,0,0:0:0:0:
239,156,153641,1,2,2:3:0:0:
253,164,153727,1,6,2:3:0:0:
269,169,153813,1,2,2:3:0:0:
286,171,153900,1,6,2:3:0:0:
303,171,153986,1,10,2:1:0:0:
319,167,154072,1,0,0:0:0:0:
334,159,154158,1,10,2:2:0:0:
349,151,154244,1,0,0:0:0:0:
360,138,154331,1,0,0:0:0:0:
371,125,154417,1,0,0:0:0:0:
376,108,154503,6,0,P|365:71|349:51,1,56.9999982604981,10|0,2:1|0:0,0:0:0:0:
332,342,154675,5,0,0:0:0:0:
332,342,154762,1,0,0:0:0:0:
332,342,154848,2,0,P|354:361|380:371,1,56.9999982604981,10|0,2:2|0:0,0:0:0:0:
230,122,155020,5,2,2:3:0:0:
230,122,155107,1,6,2:3:0:0:
230,122,155193,2,0,P|201:119|174:126,1,56.9999982604981,2|6,2:2|2:3,0:0:0:0:
437,243,155365,5,10,2:1:0:0:
437,243,155451,1,0,0:0:0:0:
437,243,155537,2,0,P|438:214|450:188,1,56.9999982604981,10|0,2:2|0:0,0:0:0:0:
199,267,155710,5,0,0:0:0:0:
199,267,155796,1,0,0:0:0:0:
199,267,155882,6,0,B|280:288|229:294|329:320,2,142.5,14|2|2,2:1|2:2|2:2,0:0:0:0:
131,328,157262,2,0,B|49:349|100:355|0:381,2,142.5,2|2|2,2:2|2:2|2:2,0:0:0:0:
192,384,158641,6,0,B|217:369|230:322|207:272|207:272|233:279|272:272|302:238|312:198|297:165|270:127|230:125|199:136,1,380,2|2,2:2|2:2,0:0:0:0:
128,192,160365,1,2,2:2:0:0:
17,126,160710,1,2,2:2:0:0:
111,117,161055,1,2,2:2:0:0:
32,250,161400,6,0,B|53:331|59:280|85:380,2,142.5,2|2|2,2:2|2:2|2:2,0:0:0:0:
128,192,162779,2,0,B|149:110|155:161|181:61,2,142.5,2|2|2,2:2|2:2|2:2,0:0:0:0:
186,315,164158,6,0,P|15:307|27:138,1,380,2|2,2:2|2:2,0:0:0:0:
128,192,165882,1,2,2:2:0:0:
186,142,166227,1,2,2:2:0:0:
118,109,166571,1,2,2:2:0:0:
232,231,166917,6,0,B|246:152|269:74,1,142.5,2|2,2:2|2:2,0:0:0:0:
160,0,167951,1,2,2:2:0:0:
344,107,168296,2,0,B|329:185|306:263,1,142.5,2|2,2:2|2:2,0:0:0:0:
160,384,169331,1,2,2:2:0:0:
512,329,169675,6,0,B|369:377|297:191|140:241,1,380,2|2,2:2|2:2,0:0:0:0:
96,288,171400,2,0,B|110:333|120:393,2,95,2|2|2,2:2|2:2|2:2,0:0:0:0:
280,231,172434,6,0,B|265:152|242:74,1,142.5,2|2,2:2|2:2,0:0:0:0:
352,0,173468,1,2,2:2:0:0:
168,107,173813,2,0,B|182:185|205:263,1,142.5,2|2,2:2|2:2,0:0:0:0:
352,384,174848,1,2,2:2:0:0:
0,320,175192,5,2,2:2:0:0:
256,192,175365,12,2,177606,2:2:0:0:
69,254,177951,6,0,P|65:215|159:188,1,142.500005435944,2|0,2:2|0:0,0:0:0:0:
219,221,178468,2,0,P|280:205|363:192,1,142.5,2|2,2:2|2:2,0:0:0:0:
149,18,179331,6,0,P|162:96|229:106,1,142.500005435944,2|0,2:2|0:0,0:0:0:0:
284,75,179848,2,0,P|350:83|436:91,1,142.5,2|2,2:2|2:2,0:0:0:0:
455,189,180710,6,0,B|412:152|362:167|344:227|358:227|370:227|364:293|308:320|262:278,1,266,2|0,2:2|0:0,0:0:0:0:
195,332,182089,6,0,P|182:284|175:270,1,52.2500015945435,2|0,2:2|0:0,0:0:0:0:
208,205,182434,2,0,P|166:185|130:188,1,66.4999979705811,2|0,2:2|0:0,0:0:0:0:
82,126,182779,2,0,P|38:158|38:184,1,80.750001540184,2|0,2:2|0:0,0:0:0:0:
58,263,183124,1,2,2:2:0:0:
58,263,183468,6,0,P|187:208|243:201,1,161.500003080368,2|0,2:2|0:0,0:0:0:0:
277,256,183986,2,0,B|291:146|375:207|375:80,1,190,2|0,2:2|0:0,0:0:0:0:
315,50,184503,1,2,2:2:0:0:
371,247,184848,6,0,B|357:170|290:189|283:108,1,152,2|0,2:2|0:0,0:0:0:0:
310,46,185365,2,0,P|208:63|202:127,1,170.999994781494,2|2,2:2|2:2,0:0:0:0:
444,290,186227,6,0,B|449:248|491:232|491:232|416:181|324:201|295:268,1,299.249990867615,2|0,2:2|0:0,0:0:0:0:
251,334,187606,6,0,P|214:320|203:317,1,42.7499986953736,2|0,2:2|0:0,0:0:0:0:
137,349,187951,2,0,P|107:313|98:303,1,56.9999982604981,2|0,2:2|0:0,0:0:0:0:
24,291,188296,2,0,P|14:230|9:213,1,76,2|0,2:2|0:0,0:0:0:0:
38,145,188641,1,2,2:2:0:0:
38,145,188986,6,0,P|117:132|218:108,1,152,2|0,2:2|0:0,0:0:0:0:
185,28,189503,2,0,P|267:50|279:115,1,142.5,2|2,2:2|2:2,0:0:0:0:
95,220,190365,6,0,P|189:233|247:244,1,142.5,2|0,2:2|0:0,0:0:0:0:
222,329,190882,2,0,P|304:307|316:242,1,142.5,2|2,2:2|2:2,0:0:0:0:
145,55,191744,2,0,B|131:4|46:11|31:101|113:170|193:121,1,266,2|0,2:2|0:0,0:0:0:0:
275,118,193124,6,0,P|286:81|292:68,1,38,2|0,2:2|0:0,0:0:0:0:
327,193,193468,2,0,P|353:221|361:232,1,52.2500015945435,2|0,2:2|0:0,0:0:0:0:
234,203,193813,2,0,P|180:215|160:217,1,71.2500027179719,2|0,2:2|0:0,0:0:0:0:
86,247,194158,1,2,2:2:0:0:
86,247,194503,6,0,P|192:267|209:317,1,142.500005435944,2|0,2:2|0:0,0:0:0:0:
86,371,195020,2,0,P|60:258|28:159,1,190,2|0,2:2|0:0,0:0:0:0:
74,109,195537,2,0,P|60:64|51:30,1,71.2500027179719,2|0,2:2|0:0,0:0:0:0:
168,167,195882,6,0,P|229:141|232:57,1,142.500005435944,2|0,2:2|0:0,0:0:0:0:
315,15,196400,2,0,P|381:10|406:95,1,142.500005435944,2|0,2:2|0:0,0:0:0:0:
329,102,196917,2,0,P|334:137|339:162,1,47.5,2|0,2:2|0:0,0:0:0:0:
352,228,197262,6,0,L|359:268,15,23.75,6|4|4|4|4|4|4|4|4|4|4|4|4|4|4|4,2:3|2:3|2:3|2:3|2:3|2:3|2:3|2:3|2:3|2:3|2:3|2:3|2:3|2:3|2:3|2:3,0:0:0:0:
307,318,198641,6,0,L|277:308,3,23.75,6|4|4|4,2:3|2:3|2:3|2:3,0:0:0:0:
220,262,198986,2,0,L|180:270,3,35.625001358986,6|4|4|4,2:3|2:3|2:3|2:3,0:0:0:0:
109,233,199331,5,10,2:2:0:0:
54,224,199417,1,8,2:2:0:0:
10,255,199503,1,8,2:2:0:0:
0,308,199589,1,8,2:2:0:0:
26,353,199675,5,10,2:3:0:0:
46,343,199761,1,8,2:3:0:0:
67,335,199847,1,4,2:3:0:0:
87,330,199933,1,4,2:3:0:0:
110,327,200020,6,0,P|157:345|223:350,1,95,10|14,2:1|2:2,0:0:0:0:
405,222,200537,1,2,2:3:0:0:
405,222,200623,1,2,2:3:0:0:
405,222,200710,6,0,P|388:249|383:280,1,47.5,2|2,2:2|2:3,0:0:0:0:
479,212,200882,2,0,P|471:184|455:161,1,56.9999982604981,10|0,2:1|0:0,0:0:0:0:
328,316,201055,6,0,P|350:342|384:342,1,71.2500027179719,2|0,2:2|0:0,0:0:0:0:
224,178,201227,2,0,P|189:177|166:203,1,71.2500027179719,10|0,2:2|0:0,0:0:0:0:
94,365,201400,6,0,P|15:351|29:267,2,142.500005435944,2|10|10,2:2|2:1|2:2,0:0:0:0:
197,327,201831,1,0,0:0:0:0:
197,327,201917,2,0,P|201:291|215:259,1,71.2500027179719,2|2,2:2|2:3,0:0:0:0:
106,215,202089,6,0,P|142:211|174:197,1,61.7499971733095,2|2,2:3|2:3,0:0:0:0:
328,316,202262,2,0,P|312:255|262:202,1,123.499994346619,10|10,2:1|2:2,0:0:0:0:
512,10,202606,1,2,2:3:0:0:
512,10,202693,1,0,0:0:0:0:
512,10,202779,6,0,B|452:30|407:69|454:89|405:144|339:149,1,227.999993041992,10|10,2:1|2:2,0:0:0:0:
40,71,203296,1,2,2:3:0:0:
67,75,203382,1,2,2:3:0:0:
94,83,203468,1,2,2:3:0:0:
119,96,203555,1,2,2:3:0:0:
143,110,203641,1,10,2:1:0:0:
252,293,203813,2,0,P|305:281|322:229,1,113.999996520996,10|2,2:2|2:3,0:0:0:0:
243,176,204072,1,0,0:0:0:0:
243,176,204158,6,0,P|220:243|205:366,1,185.249991519928,10|0,2:1|0:0,0:0:0:0:
204,356,204503,1,10,2:2:0:0:
436,342,204675,1,2,2:3:0:0:
436,342,204762,1,2,2:3:0:0:
436,342,204848,2,0,P|475:328|498:283,1,71.2500027179719,2|2,2:2|2:3,0:0:0:0:
455,135,205020,6,0,P|446:101|441:71,1,47.5,10|0,2:1|0:0,0:0:0:0:
384,170,205193,2,0,P|393:204|398:234,1,47.5,10|0,2:2|0:0,0:0:0:0:
426,70,205365,2,0,P|430:46|437:23,1,47.5,2|0,2:3|0:0,0:0:0:0:
290,134,205537,6,0,P|194:158|75:189,1,213.750008153916,10|0,2:1|0:0,0:0:0:0:
82,186,205882,1,10,2:2:0:0:
87,4,206055,1,2,2:3:0:0:
54,12,206141,1,2,2:3:0:0:
26,32,206227,1,2,2:3:0:0:
7,60,206313,1,2,2:3:0:0:
0,93,206400,1,10,2:1:0:0:
205,187,206572,1,2,2:3:0:0:
0,352,206744,1,10,2:2:0:0:
0,352,206831,1,0,0:0:0:0:
0,352,206917,6,0,P|16:284|29:223,1,113.999996520996,2|10,2:2|2:1,0:0:0:0:
309,228,207262,1,10,2:2:0:0:
232,100,207434,5,2,2:2:0:0:
232,100,207520,1,2,2:3:0:0:
232,100,207606,2,0,P|168:97|149:138,1,95,2|10,2:3|2:1,0:0:0:0:
211,276,207951,1,10,2:2:0:0:
409,205,208124,1,2,2:3:0:0:
409,205,208210,1,0,0:0:0:0:
409,205,208296,6,0,P|408:153|447:60,2,142.500005435944,10|2|10,2:1|2:3|2:2,0:0:0:0:
504,361,208813,1,2,2:3:0:0:
504,361,208900,1,2,2:3:0:0:
504,361,208986,2,0,P|445:347|414:334,1,71.2500027179719,2|2,2:3|2:3,0:0:0:0:
304,369,209158,6,0,P|363:383|394:396,1,56.9999982604981,10|0,2:1|0:0,0:0:0:0:
325,196,209331,2,0,P|250:218|186:234,1,142.500005435944,10|2,2:2|2:3,0:0:0:0:
0,107,209675,6,0,B|34:137|75:151|71:114|123:125|151:165,1,170.999994781494,10|0,2:1|0:0,0:0:0:0:
187,233,210020,1,10,2:2:0:0:
221,16,210193,1,2,2:3:0:0:
221,16,210279,1,2,2:3:0:0:
221,16,210365,2,0,P|239:52|238:82,1,56.9999982604981,2|2,2:2|2:3,0:0:0:0:
434,91,210537,2,0,P|395:78|375:56,1,56.9999982604981,10|0,2:1|0:0,0:0:0:0:
244,155,210710,2,0,P|271:201|324:195,1,113.999996520996,10|2,2:2|2:3,0:0:0:0:
398,228,210968,1,0,0:0:0:0:
398,228,211055,6,0,P|417:141|446:59,2,142.500005435944,10|2|10,2:1|2:3|2:2,0:0:0:0:
477,371,211572,5,2,2:3:0:0:
477,371,211658,1,2,2:3:0:0:
477,371,211744,2,0,P|464:318|463:284,1,47.5,2|2,2:2|2:3,0:0:0:0:
510,250,211917,2,0,P|505:227|498:205,1,47.5,10|0,2:1|0:0,0:0:0:0:
304,251,212089,6,0,P|273:257|245:269,1,61.7499971733095,2|0,2:2|0:0,0:0:0:0:
214,173,212262,2,0,P|244:166|272:154,1,61.7499971733095,10|0,2:2|0:0,0:0:0:0:
148,339,212434,6,0,P|35:340|30:249,1,213.750008153916,2|0,2:2|0:0,0:0:0:0:
23,260,212779,1,10,2:2:0:0:
143,95,212951,1,2,2:3:0:0:
143,95,213037,1,2,2:3:0:0:
143,95,213124,6,0,P|119:89|97:81,1,47.5,2|2,2:2|2:3,0:0:0:0:
42,145,213296,2,0,P|49:167|52:191,1,47.5,10|0,2:1|0:0,0:0:0:0:
259,86,213468,6,0,P|232:56|201:32,1,61.7499971733095,10|0,2:2|0:0,0:0:0:0:
81,278,213640,2,0,P|119:269|156:255,1,61.7499971733095,2|0,2:2|0:0,0:0:0:0:
356,23,213813,6,0,P|333:124|314:297,1,213.750008153916,10|0,2:1|0:0,0:0:0:0:
318,233,214158,1,10,2:2:0:0:
415,372,214331,1,2,2:3:0:0:
442,378,214417,1,2,2:3:0:0:
470,372,214503,1,2,2:3:0:0:
494,358,214589,1,2,2:3:0:0:
512,336,214675,1,10,2:1:0:0:
421,221,214848,1,10,2:2:0:0:
498,88,215020,1,2,2:3:0:0:
498,88,215106,1,0,0:0:0:0:
498,88,215193,6,0,P|452:39|344:55,1,170.999994781494,10|0,2:1|0:0,0:0:0:0:
300,0,215537,2,0,P|316:54|321:111,1,113.999996520996,10|2,2:2|2:3,0:0:0:0:
272,172,215796,1,2,2:3:0:0:
272,172,215882,6,0,P|197:163|212:105,1,142.5,2|0,2:2|0:0,0:0:0:0:
262,67,216227,2,0,P|309:60|354:46,1,95,10|2,2:2|2:3,0:0:0:0:
29,25,216572,6,0,P|16:107|-10:170,2,142.500005435944,10|2|10,2:1|2:3|2:2,0:0:0:0:
134,270,217089,1,2,2:3:0:0:
134,270,217175,1,2,2:3:0:0:
134,270,217262,2,0,P|88:246|56:238,1,66.4999979705811,2|2,2:2|2:3,0:0:0:0:
117,157,217434,2,0,P|148:168|176:185,1,66.4999979705811,10|0,2:1|0:0,0:0:0:0:
202,344,217606,2,0,P|263:349|304:288,1,132.999995941162,2|10,2:3|2:2,0:0:0:0:
512,184,217951,6,0,P|450:176|392:157,2,123.499994346619,2|10|10,2:2|2:1|2:2,0:0:0:0:
328,20,218468,1,2,2:3:0:0:
328,20,218555,1,2,2:3:0:0:
328,20,218641,2,0,P|321:67|316:84,1,56.9999982604981,2|2,2:2|2:3,0:0:0:0:
406,66,218813,2,0,P|413:19|418:2,1,56.9999982604981,10|0,2:1|0:0,0:0:0:0:
180,86,218986,2,0,P|102:106|42:115,1,113.999996520996,10|2,2:2|2:3,0:0:0:0:
199,316,219331,6,0,P|257:335|318:342,2,104.500003189087,10|2|10,2:1|2:3|2:2,0:0:0:0:
355,282,219848,1,2,2:3:0:0:
355,282,219934,1,2,2:3:0:0:
355,282,220020,2,0,P|377:319|377:338,1,47.5,2|2,2:2|2:3,0:0:0:0:
418,218,220193,2,0,P|432:237|452:249,1,47.5,10|0,2:1|0:0,0:0:0:0:
274,220,220365,2,0,P|290:156|327:124,1,95,10|2,2:2|2:3,0:0:0:0:
6,17,220710,6,0,P|21:83|24:147,1,113.999996520996,10|2,2:1|2:3,0:0:0:0:
216,347,221055,2,0,P|201:281|198:217,1,113.999996520996,10|2,2:2|2:3,0:0:0:0:
197,234,221313,1,2,2:3:0:0:
197,234,221400,1,2,2:2:0:0:
124,328,221572,1,10,2:1:0:0:
288,237,221744,2,0,P|337:232|350:316,1,142.5,10|0,2:2|0:0,0:0:0:0:
364,312,222089,6,0,P|345:331|297:330,1,76,2|14,2:2|2:2,0:0:0:0:
469,294,222606,1,2,2:2:0:0:
469,294,222693,1,2,2:3:0:0:
469,294,222779,6,0,L|497:300,1,19,2|2,2:3|2:3,0:0:0:0:
394,223,222951,2,0,L|349:235,1,28.4999991302491,10|0,2:1|0:0,0:0:0:0:
478,147,223124,2,0,L|513:154,1,35.625001358986,2|0,2:2|0:0,0:0:0:0:
332,78,223296,2,0,L|287:90,1,47.5,10|0,2:2|0:0,0:0:0:0:
435,0,223468,6,0,L|390:170,1,142.500005435944,2|10,2:2|2:1,0:0:0:0:
209,260,223813,1,10,2:2:0:0:
217,50,223986,2,0,P|272:140|283:210,1,132.999995941162,2|2,2:2|2:3,0:0:0:0:
205,267,224331,1,10,2:1:0:0:
2,168,224503,2,0,P|96:132|179:199,1,199.499993911743,10|0,2:2|0:0,0:0:0:0:
108,266,224848,6,0,B|158:240|205:283|187:293|226:334|280:308,1,185.249991519928,10|0,2:1|0:0,0:0:0:0:
344,256,225193,1,10,2:2:0:0:
387,116,225365,2,0,P|367:197|364:219,1,61.7499971733095,2|2,2:3|2:3,0:0:0:0:
435,255,225537,1,2,2:3:0:0:
435,255,225624,1,2,2:3:0:0:
435,255,225710,1,10,2:1:0:0:
278,306,225882,2,0,P|183:289|126:285,1,123.499994346619,10|2,2:2|2:3,0:0:0:0:
77,56,226227,6,0,P|27:82|42:144,1,106.875004076958,10|0,2:1|0:0,0:0:0:0:
247,105,226572,6,0,P|249:39|178:18,1,142.5,10|2,2:2|2:3,0:0:0:0:
86,229,226917,6,0,P|144:202|164:202,1,59.375,2|2,2:2|2:3,0:0:0:0:
148,122,227089,1,10,2:1:0:0:
296,219,227262,2,0,P|368:229|399:131,1,178.125,10|0,2:2|0:0,0:0:0:0:
408,62,227606,6,0,P|446:227|468:316,1,213.750008153916,10|0,2:1|0:0,0:0:0:0:
512,326,227951,1,10,2:2:0:0:
297,382,228124,1,2,2:2:0:0:
262,385,228210,1,2,2:3:0:0:
232,366,228296,1,2,2:3:0:0:
220,334,228382,1,2,2:3:0:0:
230,300,228468,2,0,P|308:331|301:381,1,142.500005435944,10|2,2:1|2:2,0:0:0:0:
134,203,228813,1,10,2:2:0:0:
82,374,228986,6,0,P|-6:311|42:233,1,213.750008153916,2|0,2:2|0:0,0:0:0:0:
124,199,229331,2,0,P|108:286|108:301,1,71.2500027179719,10|0,2:2|0:0,0:0:0:0:
91,376,229503,2,0,P|45:171|17:88,1,256.50000097847,2|10,2:2|2:1,0:0:0:0:
244,313,230020,2,0,P|226:238|188:138,1,156.750004783631,10|0,2:2|0:0,0:0:0:0:
187,84,230365,6,0,B|277:66|247:145|339:122,1,156.750004783631,10|0,2:1|0:0,0:0:0:0:
415,97,230710,1,10,2:2:0:0:
505,153,230882,1,2,2:3:0:0:
494,179,230968,1,2,2:3:0:0:
485,207,231054,1,2,2:3:0:0:
477,235,231140,1,2,2:3:0:0:
469,263,231226,1,10,2:1:0:0:
415,97,231400,2,0,P|391:39|376:-8,1,104.500003189087,10|2,2:2|2:3,0:0:0:0:
377,211,231744,6,0,P|310:196|272:237,1,106.875004076958,10|0,2:1|0:0,0:0:0:0:
230,76,232089,6,0,P|169:103|177:178,1,142.5,10|2,2:2|2:3,0:0:0:0:
354,351,232434,6,0,P|296:311|278:313,1,59.375,2|2,2:2|2:3,0:0:0:0:
203,271,232606,1,10,2:1:0:0:
27,117,232779,6,0,P|26:219|126:227,1,178.125,10|0,2:2|0:0,0:0:0:0:
85,242,233124,6,0,P|119:323|137:388,1,142.500005435944,10|10,2:1|2:2,0:0:0:0:
167,169,233641,1,2,2:2:0:0:
167,169,233727,1,2,2:3:0:0:
167,169,233813,6,0,P|159:117|159:108,1,35.625001358986,2|2,2:3|2:3,0:0:0:0:
272,177,233986,2,0,P|259:112|258:101,1,47.5,10|0,2:1|0:0,0:0:0:0:
88,45,234158,2,0,P|166:65|177:71,1,47.5,2|0,2:2|0:0,0:0:0:0:
293,56,234331,2,0,P|371:42|394:35,1,66.4999979705811,10|0,2:2|0:0,0:0:0:0:
181,249,234503,6,0,B|168:129|238:195|207:35,1,199.499993911743,2|0,2:2|0:0,0:0:0:0:
210,57,234848,1,10,2:2:0:0:
263,265,235020,1,2,2:2:0:0:
77,134,235193,6,0,P|73:153|85:176,1,35.625001358986,2|2,2:3|2:3,0:0:0:0:
18,222,235365,2,0,P|67:249|74:246,1,47.5,10|0,2:1|0:0,0:0:0:0:
183,242,235537,2,0,P|129:260|116:265,1,47.5,10|0,2:2|0:0,0:0:0:0:
3,324,235710,2,0,P|63:340|80:347,1,47.5,2|0,2:3|0:0,0:0:0:0:
204,378,235882,6,0,P|274:289|342:315,1,190,10|10,2:1|2:2,0:0:0:0:
432,187,236400,1,2,2:3:0:0:
432,187,236486,1,2,2:3:0:0:
432,187,236572,2,0,P|456:242|436:277,1,95,2|10,2:3|2:1,0:0:0:0:
278,373,236917,2,0,P|256:273|250:254,1,95,10|2,2:2|2:3,0:0:0:0:
358,16,237262,6,0,P|336:125|332:184,1,156.750004783631,10|0,2:1|0:0,0:0:0:0:
218,154,237606,2,0,P|240:45|244:-14,1,156.750004783631,10|2,2:2|2:3,0:0:0:0:
267,222,237951,2,0,L|254:314,1,59.375,2|2,2:2|2:3,0:0:0:0:
193,333,238124,1,10,2:1:0:0:
194,70,238296,2,0,P|326:89|383:100,1,178.125,10|0,2:2|0:0,0:0:0:0:
409,171,238641,6,0,B|475:162|441:135|509:130,1,106.875004076958,10|0,2:1|0:0,0:0:0:0:
504,130,238986,2,0,L|490:199,1,56.9999982604981,10|0,2:2|0:0,0:0:0:0:
435,344,239158,1,2,2:2:0:0:
414,347,239244,1,2,2:3:0:0:
396,348,239331,2,0,P|353:319|362:286,1,56.9999982604981,2|2,2:3|2:3,0:0:0:0:
349,228,239503,2,0,P|460:272|501:281,1,113.999996520996,10|2,2:1|2:2,0:0:0:0:
266,348,239848,1,10,2:2:0:0:
410,165,240020,6,0,P|377:111|305:121,1,113.999996520996,2|10,2:2|2:1,0:0:0:0:
138,167,240365,1,10,2:2:0:0:
213,61,240537,1,2,2:2:0:0:
232,200,240710,2,0,P|248:138|264:110,1,64.1250002446175,2|2,2:3|2:3,0:0:0:0:
211,54,240882,1,10,2:1:0:0:
138,264,241055,2,0,P|83:261|64:191,1,128.250000489235,10|2,2:2|2:3,0:0:0:0:
261,365,241400,6,0,P|405:292|494:285,1,213.750008153916,10|0,2:1|0:0,0:0:0:0:
508,223,241744,1,10,2:2:0:0:
406,136,241917,1,2,2:3:0:0:
406,136,242003,1,2,2:3:0:0:
406,136,242089,2,0,P|430:216|432:229,1,71.2500027179719,2|2,2:2|2:3,0:0:0:0:
372,263,242262,1,10,2:1:0:0:
456,73,242434,2,0,P|364:114|286:133,1,142.500005435944,10|2,2:2|2:3,0:0:0:0:
252,368,242779,6,0,B|177:382|151:318|177:312|142:241|62:262,1,235.125002242327,10|0,2:1|0:0,0:0:0:0:
5,374,243124,2,0,P|92:353|117:354,1,78.3750007474423,10|0,2:2|0:0,0:0:0:0:
238,283,243296,2,0,P|276:289|316:291,1,78.3750007474423,2|2,2:3|2:3,0:0:0:0:
172,384,243468,5,10,2:2:0:0:
165,345,243554,1,8,2:2:0:0:
158,306,243640,1,8,2:2:0:0:
149,268,243726,1,8,2:2:0:0:
140,230,243813,6,0,L|123:159,1,47.5,8|0,2:2|0:0,0:0:0:0:
83,0,243986,2,0,L|94:46,1,47.5,8|0,2:2|0:0,0:0:0:0:
83,0,244503,6,0,L|94:46,1,47.5,14|0,2:2|0:0,0:0:0:0:
171,291,244676,2,0,B|138:299|118:331|144:337|125:361|93:378,1,118.75,2|2,2:2|2:3,0:0:0:0:
0,192,244934,5,2,2:2:0:0:
0,192,245020,2,0,P|3:159|22:129,1,59.375,10|0,2:1|0:0,0:0:0:0:
126,260,245193,2,0,P|100:272|71:273,2,59.375,10|0|2,2:2|0:0|2:3,0:0:0:0:
121,118,245451,1,2,2:2:0:0:
121,118,245537,2,0,P|146:135|162:160,1,59.375,10|0,2:1|0:0,0:0:0:0:
247,313,245710,6,0,P|250:345|268:375,2,59.375,2|0|10,2:2|0:0|2:2,0:0:0:0:
342,384,245969,2,0,P|366:368|382:343,2,59.375,2|2|2,2:2|2:3|2:3,0:0:0:0:
353,268,246227,2,0,P|327:256|297:255,1,59.375,2|2,2:2|2:3,0:0:0:0:
142,384,246400,1,10,2:1:0:0:
142,384,246486,1,2,2:2:0:0:
142,384,246572,1,10,2:2:0:0:
259,153,246744,1,2,2:2:0:0:
96,0,246917,6,0,P|102:59|118:116,1,118.75,10|2,2:1|2:3,0:0:0:0:
259,153,247175,2,0,P|253:94|237:37,1,118.75,2|0,2:2|0:0,0:0:0:0:
32,192,247434,6,0,P|38:251|54:308,1,118.75,2|2,2:2|2:3,0:0:0:0:
195,345,247693,1,2,2:2:0:0:
195,345,247779,1,10,2:1:0:0:
195,345,247865,1,0,0:0:0:0:
195,345,247951,2,0,P|189:286|173:229,1,118.75,10|2,2:2|2:3,0:0:0:0:
259,153,248210,1,2,2:2:0:0:
259,153,248296,6,0,P|252:95|203:68,1,118.75,10|2,2:1|2:3,0:0:0:0:
82,145,248555,1,2,2:2:0:0:
82,145,248641,2,0,P|94:201|147:222,1,118.75,10|2,2:2|2:2,0:0:0:0:
239,272,248900,1,2,2:3:0:0:
233,330,248986,1,2,2:3:0:0:
182,360,249072,1,2,2:2:0:0:
129,334,249158,2,0,P|71:333|39:380,2,118.75,10|10|2,2:1|2:2|2:3,0:0:0:0:
320,256,249589,1,2,2:2:0:0:
320,256,249676,1,10,2:1:0:0:
256,0,249934,5,2,2:2:0:0:
256,0,250020,2,0,P|280:67|287:74,1,59.375,10|0,2:2|0:0,0:0:0:0:
404,259,250193,6,0,P|401:226|382:196,2,59.375,2|2|2,2:2|2:3|2:3,0:0:0:0:
277,327,250451,1,2,2:2:0:0:
277,327,250537,2,0,P|304:340|334:340,1,59.375,10|0,2:1|0:0,0:0:0:0:
283,185,250710,1,10,2:2:0:0:
283,185,250796,2,0,P|258:202|242:227,1,59.375,2|2,0:0|2:3,0:0:0:0:
127,359,250968,5,2,2:2:0:0:
127,359,251054,2,0,P|100:372|70:372,1,59.375,10|0,2:1|0:0,0:0:0:0:
120,216,251227,2,0,P|145:233|161:258,2,59.375,2|0|10,2:2|0:0|2:2,0:0:0:0:
0,290,251486,1,2,2:2:0:0:
0,290,251572,2,0,P|1:260|15:234,1,59.375,2|2,2:3|2:3,0:0:0:0:
48,14,251745,5,2,2:2:0:0:
48,14,251831,1,2,2:3:0:0:
48,14,251917,2,0,P|78:4|113:9,1,59.375,10|2,2:1|2:2,0:0:0:0:
175,82,252089,2,0,P|172:115|153:145,1,59.375,10|0,2:2|0:0,0:0:0:0:
54,156,252262,2,0,P|29:139|13:114,1,59.375,2|0,2:2|0:0,0:0:0:0:
256,32,252434,6,0,P|314:22|411:7,1,118.75,10|2,2:1|2:3,0:0:0:0:
512,64,252693,1,2,2:2:0:0:
512,64,252779,2,0,P|506:123|496:161,1,59.375,10|0,2:2|0:0,0:0:0:0:
505,122,252952,6,0,B|498:170|475:209|453:176|419:222|425:271,1,178.125,2|2,2:2|2:2,0:0:0:0:
454,375,253297,1,10,2:1:0:0:
443,380,253383,1,0,0:0:0:0:
431,384,253469,2,0,P|374:375|345:325,1,118.75,10|2,2:2|2:3,0:0:0:0:
339,185,253727,1,2,2:2:0:0:
339,185,253814,6,0,P|326:108|308:52,1,118.75,10|2,2:1|2:3,0:0:0:0:
264,265,254072,1,2,2:2:0:0:
264,265,254158,2,0,P|205:276|167:282,1,59.375,10|0,2:2|0:0,0:0:0:0:
128,384,254331,5,2,2:2:0:0:
172,343,254417,1,2,2:3:0:0:
172,283,254503,1,2,2:3:0:0:
130,241,254589,1,2,2:2:0:0:
107,186,254675,1,10,2:1:0:0:
144,140,254761,1,0,0:0:0:0:
202,152,254848,2,0,B|251:148|289:106|253:91|287:61|337:44,1,178.125,10|2,2:2|2:2,0:0:0:0:
416,0,255193,1,10,2:1:0:0:
320,256,255365,1,2,2:3:0:0:
185,71,255537,6,0,P|151:63|124:47,1,59.375,10|0,2:2|0:0,0:0:0:0:
0,0,255710,1,2,2:2:0:0:
0,0,255796,2,0,B|9:80|24:33|29:120,1,118.75,2|2,2:3|2:2,0:0:0:0:
130,241,256055,1,10,2:1:0:0:
256,0,256227,1,10,2:2:0:0:
77,313,256400,1,2,2:3:0:0:
77,313,256486,1,2,2:2:0:0:
77,313,256572,2,0,P|103:328|132:333,1,59.375,10|0,2:1|0:0,0:0:0:0:
288,238,256745,6,0,P|309:216|336:203,2,59.375,2|0|10,2:2|0:0|2:2,0:0:0:0:
337,374,257003,2,0,P|367:379|396:373,2,59.375,2|2|2,2:2|2:3|2:3,0:0:0:0:
384,224,257262,6,0,P|405:202|432:189,1,59.375,2|2,2:2|2:3,0:0:0:0:
416,320,257434,2,0,P|446:325|475:319,1,59.375,10|2,2:1|2:2,0:0:0:0:
512,234,257606,1,10,2:2:0:0:
250,329,257779,1,2,2:2:0:0:
0,234,257951,6,0,P|6:175|22:118,1,118.75,10|2,2:1|2:3,0:0:0:0:
111,170,258210,1,2,2:2:0:0:
111,170,258296,2,0,P|102:198|99:228,1,59.375,10|0,2:2|0:0,0:0:0:0:
135,357,258469,2,0,B|223:348|166:340|260:326,1,118.75,2|2,2:2|2:3,0:0:0:0:
416,288,258727,1,2,2:2:0:0:
416,288,258813,2,0,P|409:259|397:231,1,59.375,10|0,2:1|0:0,0:0:0:0:
307,271,258986,2,0,P|290:343|261:410,1,118.75,10|2,2:2|2:3,0:0:0:0:
205,113,259245,1,2,2:2:0:0:
205,113,259331,6,0,P|222:41|251:-26,1,118.75,10|2,2:1|2:3,0:0:0:0:
381,64,259589,1,2,2:2:0:0:
381,64,259675,2,0,P|372:100|357:133,1,59.375,10|0,2:2|0:0,0:0:0:0:
512,288,259848,5,2,2:2:0:0:
488,233,259934,1,2,2:3:0:0:
445,191,260020,1,2,2:3:0:0:
389,169,260106,1,2,2:2:0:0:
330,161,260192,1,10,2:1:0:0:
274,180,260278,1,0,0:0:0:0:
269,191,260365,2,0,B|272:225|248:256|233:233|216:260|211:296,1,118.75,10|2,2:2|2:3,0:0:0:0:
256,384,260624,1,2,2:2:0:0:
256,384,260710,1,10,2:1:0:0:
111,170,260882,5,2,2:3:0:0:
111,170,260968,1,2,2:2:0:0:
111,170,261055,2,0,P|135:103|142:96,1,59.375,10|0,2:2|0:0,0:0:0:0:
288,32,261227,1,2,2:2:0:0:
346,30,261313,1,2,2:3:0:0:
397,60,261399,1,2,2:3:0:0:
425,111,261485,1,2,2:2:0:0:
422,170,261571,5,10,2:1:0:0:
256,192,261744,1,10,2:2:0:0:
256,192,261831,1,0,0:0:0:0:
90,214,262003,1,2,2:2:0:0:
90,214,262089,6,0,P|100:246|113:272,1,59.375,10|0,2:1|0:0,0:0:0:0:
278,358,262262,2,0,P|310:348|336:335,1,59.375,2|0,2:2|0:0,0:0:0:0:
422,170,262434,2,0,P|412:138|399:112,1,59.375,10|2,2:2|2:2,0:0:0:0:
234,26,262606,1,2,2:3:0:0:
234,26,262693,1,2,2:3:0:0:
234,26,262779,2,0,P|202:36|176:49,1,59.375,2|2,2:2|2:3,0:0:0:0:
0,83,262951,5,10,2:1:0:0:
47,125,263037,1,2,2:2:0:0:
112,131,263124,1,10,2:2:0:0:
383,63,263296,2,0,P|407:76|437:85,1,59.375,2|0,2:2|0:0,0:0:0:0:
437,85,263469,6,0,P|450:152|470:217,1,118.75,10|2,2:1|2:3,0:0:0:0:
384,384,263727,1,2,2:2:0:0:
384,384,263813,2,0,P|371:317|351:252,1,118.75,10|2,2:2|2:2,0:0:0:0:
288,160,264072,5,2,2:3:0:0:
238,129,264158,1,2,2:3:0:0:
180,135,264244,1,2,2:2:0:0:
137,174,264330,1,10,2:1:0:0:
127,232,264416,1,0,0:0:0:0:
142,290,264503,2,0,P|86:311|34:340,1,118.75,10|2,2:2|2:3,0:0:0:0:
256,384,264762,1,2,2:2:0:0:
256,384,264848,6,0,P|312:363|364:334,1,118.75,10|2,2:1|2:3,0:0:0:0:
288,160,265106,1,2,2:2:0:0:
288,160,265193,2,0,P|248:147|203:135,1,59.375,10|0,2:2|0:0,0:0:0:0:
64,0,265365,5,2,2:2:0:0:
111,25,265451,1,2,2:3:0:0:
150,61,265537,1,2,2:3:0:0:
172,108,265624,1,2,2:2:0:0:
184,158,265710,1,10,2:1:0:0:
175,209,265796,1,0,0:0:0:0:
154,256,265882,5,10,2:2:0:0:
154,256,265969,1,0,0:0:0:0:
0,384,266140,1,2,2:2:0:0:
0,384,266227,6,0,B|38:360|21:383|71:359,1,71.25,2|2,2:2|2:2,0:0:0:0:
66,361,266572,1,14,2:2:0:0:
382,366,266744,1,2,2:2:0:0:
382,366,266830,1,2,2:3:0:0:
382,366,266917,6,0,P|348:361|306:353,1,47.5,2|2,2:3|2:2,0:0:0:0:
240,275,267089,2,0,P|274:280|316:288,1,56.9999982604981,10|0,2:1|0:0,0:0:0:0:
477,188,267262,6,0,P|443:193|401:201,1,71.2500027179719,10|0,2:2|0:0,0:0:0:0:
299,56,267434,2,0,P|315:4|347:0,1,71.2500027179719,2|2,2:3|2:2,0:0:0:0:
442,116,267606,6,0,P|409:173|345:153,2,142.500005435944,10|2|10,2:1|2:2|2:2,0:0:0:0:
367,77,268037,1,2,2:2:0:0:
367,77,268124,2,0,P|298:56|275:43,1,71.2500027179719,2|2,2:3|2:3,0:0:0:0:
90,148,268296,6,0,P|134:102|195:108,1,123.499994346619,2|10,2:2|2:1,0:0:0:0:
272,225,268555,1,2,2:2:0:0:
272,225,268641,2,0,P|259:271|257:303,1,61.7499971733095,10|0,2:2|0:0,0:0:0:0:
96,377,268813,2,0,P|83:331|81:299,1,61.7499971733095,2|0,2:2|0:0,0:0:0:0:
265,141,268986,6,0,B|327:145|376:200|330:219|373:258|433:278,1,227.999993041992,10|10,2:1|2:2,0:0:0:0:
487,85,269503,1,2,2:2:0:0:
467,43,269589,1,2,2:3:0:0:
427,20,269675,1,2,2:3:0:0:
381,16,269761,1,2,2:2:0:0:
341,37,269847,1,10,2:1:0:0:
199,206,270020,2,0,P|130:229|69:235,1,113.999996520996,10|2,2:2|2:3,0:0:0:0:
0,217,270279,1,2,2:2:0:0:
0,217,270365,6,0,P|14:164|108:164,1,132.999995941162,10|2,2:1|2:3,0:0:0:0:
167,98,270624,2,0,P|208:107|251:120,1,66.4999979705811,2|10,2:2|2:2,0:0:0:0:
387,297,270883,5,2,2:2:0:0:
387,297,270969,1,2,2:3:0:0:
387,297,271055,2,0,P|378:264|371:232,1,61.7499971733095,2|2,2:3|2:2,0:0:0:0:
281,336,271227,1,10,2:1:0:0:
512,328,271400,2,0,P|480:202|460:168,1,123.499994346619,10|2,2:2|2:3,0:0:0:0:
425,149,271658,1,2,2:2:0:0:
425,149,271744,6,0,P|491:97|495:191,1,213.750008153916,10|2,2:1|2:2,0:0:0:0:
376,255,272089,2,0,P|336:248|287:243,1,71.2500027179719,10|0,2:2|0:0,0:0:0:0:
209,315,272261,1,2,2:2:0:0:
198,266,272347,1,2,2:3:0:0:
189,217,272433,1,2,2:3:0:0:
179,167,272520,1,2,2:2:0:0:
168,118,272606,1,10,2:1:0:0:
74,0,272779,2,0,P|0:45|9:111,1,142.500005435944,10|2,2:2|2:3,0:0:0:0:
0,219,273037,1,2,2:2:0:0:
0,219,273124,6,0,P|62:197|135:189,2,113.999996520996,10|2|10,2:1|2:2|2:2,0:0:0:0:
63,331,273554,1,2,2:2:0:0:
63,331,273641,2,0,P|117:315|136:303,1,56.9999982604981,2|2,2:3|2:3,0:0:0:0:
318,202,273813,2,0,P|306:137|235:133,1,123.499994346619,2|10,2:2|2:1,0:0:0:0:
207,256,274071,1,2,2:2:0:0:
207,256,274158,2,0,P|253:280|288:265,1,61.7499971733095,10|0,2:2|0:0,0:0:0:0:
352,300,274330,1,2,2:2:0:0:
509,109,274503,6,0,P|483:201|467:358,1,227.999993041992,10|10,2:1|2:2,0:0:0:0:
395,158,275020,1,2,2:2:0:0:
363,145,275106,1,2,2:3:0:0:
341,118,275192,1,2,2:3:0:0:
336,84,275278,1,2,2:2:0:0:
346,51,275364,1,10,2:1:0:0:
68,97,275537,2,0,P|104:54|160:51,1,113.999996520996,10|2,2:2|2:3,0:0:0:0:
251,142,275796,1,2,2:2:0:0:
251,142,275883,6,0,P|187:131|120:113,1,113.999996520996,10|2,2:1|2:3,0:0:0:0:
85,185,276141,1,2,2:2:0:0:
85,185,276227,1,10,2:2:0:0:
177,315,276400,2,0,P|204:308|232:303,1,56.9999982604981,2|2,2:2|2:3,0:0:0:0:
355,357,276572,5,2,2:3:0:0:
355,357,276658,2,0,P|394:317|357:228,1,142.500005435944,2|0,2:2|0:0,0:0:0:0:
290,83,276917,2,0,P|309:168|331:319,1,213.750008153916,10|2,2:2|2:2,0:0:0:0:
374,239,277262,6,0,P|292:219|123:187,1,227.999993041992,10|10,2:1|2:2,0:0:0:0:
46,26,277779,1,2,2:2:0:0:
46,26,277865,1,2,2:3:0:0:
46,26,277951,2,0,P|84:18|104:9,1,56.9999982604981,2|2,2:3|2:2,0:0:0:0:
220,48,278124,2,0,P|182:56|162:65,1,56.9999982604981,10|0,2:1|0:0,0:0:0:0:
58,201,278296,6,0,P|102:210|126:221,1,66.4999979705811,10|0,2:2|0:0,0:0:0:0:
323,370,278468,2,0,P|290:364|259:352,1,66.4999979705811,2|2,2:3|2:2,0:0:0:0:
42,354,278641,6,0,P|167:321|147:193,1,285.000010871888,10|10,2:1|2:2,0:0:0:0:
415,131,279158,5,2,2:3:0:0:
415,131,279244,1,2,2:3:0:0:
415,131,279331,2,0,P|399:164|395:199,1,47.5,2|2,2:2|2:3,0:0:0:0:
315,144,279503,2,0,P|331:111|335:76,1,47.5,10|2,2:1|2:2,0:0:0:0:
478,73,279675,6,0,P|494:106|498:141,1,56.9999982604981,10|0,2:2|0:0,0:0:0:0:
255,204,279848,2,0,P|239:171|235:136,1,56.9999982604981,2|0,2:2|0:0,0:0:0:0:
398,16,280020,6,0,P|372:89|339:285,1,246.999988693238,10|10,2:1|2:2,0:0:0:0:
216,360,280537,1,2,2:2:0:0:
186,320,280623,1,2,2:3:0:0:
144,293,280709,1,2,2:3:0:0:
94,297,280795,1,2,2:2:0:0:
51,322,280881,1,10,2:1:0:0:
331,330,281055,2,0,P|387:323|444:280,1,113.999996520996,10|2,2:2|2:3,0:0:0:0:
478,199,281313,1,2,2:2:0:0:
478,199,281400,6,0,P|455:147|387:101,1,113.999996520996,10|2,2:1|2:3,0:0:0:0:
246,117,281657,1,2,2:2:0:0:
246,117,281744,2,0,P|180:135|163:138,1,56.9999982604981,10|0,2:2|0:0,0:0:0:0:
39,139,281916,1,2,2:2:0:0:
215,44,282088,1,2,2:3:0:0:
215,44,282175,2,0,P|269:43|313:86,1,113.999996520996,2|0,2:2|0:0,0:0:0:0:
362,198,282434,2,0,P|334:189|307:182,1,56.9999982604981,10|0,2:2|0:0,0:0:0:0:
121,192,282606,1,2,2:3:0:0:
478,199,282779,6,0,P|354:227|186:283,1,285.000010871888,10|10,2:1|2:2,0:0:0:0:
0,184,283296,1,2,2:2:0:0:
0,184,283383,1,2,2:3:0:0:
0,184,283468,2,0,P|50:198|67:205,1,56.9999982604981,2|2,2:3|2:2,0:0:0:0:
109,129,283641,1,10,2:1:0:0:
151,381,283813,2,0,P|135:319|118:250,1,113.999996520996,10|2,2:2|2:3,0:0:0:0:
190,168,284072,1,2,2:2:0:0:
190,168,284158,6,0,P|203:112|210:83,1,66.4999979705811,10|0,2:1|0:0,0:0:0:0:
312,17,284331,2,0,P|332:83|347:165,1,132.999995941162,2|10,2:2|2:2,0:0:0:0:
275,244,284589,2,0,P|319:307|387:282,1,132.999995941162,2|2,2:2|2:3,0:0:0:0:
393,156,284848,2,0,P|385:201|376:232,2,66.4999979705811,2|2|10,2:2|2:3|2:1,0:0:0:0:
320,24,285107,1,2,2:2:0:0:
320,24,285193,2,0,P|352:15|385:10,1,66.4999979705811,10|0,2:2|0:0,0:0:0:0:
512,1,285365,1,2,2:2:0:0:
379,221,285538,6,0,P|447:204|455:124,1,142.500005435944,10|2,2:1|2:3,0:0:0:0:
181,38,285796,1,2,2:2:0:0:
181,38,285882,2,0,P|168:90|154:129,1,71.2500027179719,10|0,2:2|0:0,0:0:0:0:
307,160,286055,1,2,2:2:0:0:
31,347,286227,1,2,2:3:0:0:
31,347,286314,2,0,P|16:258|-17:191,1,142.500005435944,2|0,2:2|0:0,0:0:0:0:
245,167,286572,2,0,P|253:246|291:325,1,142.500005435944,10|2,2:2|2:3,0:0:0:0:
110,384,286831,1,2,2:2:0:0:
110,384,286917,6,0,P|138:261|182:106,1,242.250004620552,10|2,2:1|2:2,0:0:0:0:
127,68,287262,1,10,2:2:0:0:
349,10,287434,5,2,2:2:0:0:
349,10,287520,1,2,2:3:0:0:
349,10,287606,2,0,P|396:21|447:28,1,80.750001540184,2|2,2:3|2:2,0:0:0:0:
302,288,287779,2,0,P|255:277|204:270,1,80.750001540184,10|0,2:1|0:0,0:0:0:0:
412,132,287951,6,0,P|431:128|447:120,1,35.625001358986,10|0,2:2|0:0,0:0:0:0:
274,181,288124,2,0,P|254:184|238:193,1,35.625001358986,2|2,2:3|2:2,0:0:0:0:
240,191,288641,5,14,2:2:0:0:
165,59,288814,1,2,2:3:0:0:
137,55,288900,1,6,2:3:0:0:
109,56,288986,1,2,2:2:0:0:
81,64,289072,1,6,2:3:0:0:
57,78,289158,1,10,2:1:0:0:
34,96,289245,1,0,0:0:0:0:
20,120,289331,2,0,P|38:200|69:276,1,113.999996520996,10|2,2:2|2:2,0:0:0:0:
348,151,289676,6,0,P|336:96|316:42,1,113.999996520996,10|2,2:1|2:3,0:0:0:0:
165,59,290020,1,10,2:2:0:0:
206,198,290193,1,2,2:2:0:0:
206,198,290279,1,6,2:3:0:0:
206,198,290365,2,0,P|224:164|216:121,1,56.9999982604981,2|6,2:3|2:3,0:0:0:0:
118,243,290538,2,0,P|139:275|180:290,1,56.9999982604981,10|0,2:1|0:0,0:0:0:0:
165,59,290710,1,10,2:2:0:0:
256,288,290883,1,2,2:3:0:0:
384,192,291055,6,0,B|404:169|414:141|389:145|396:108|423:90,1,113.999996520996,10|2,2:1|2:3,0:0:0:0:
512,160,291400,1,10,2:2:0:0:
311,237,291572,1,2,2:3:0:0:
311,237,291658,1,6,2:3:0:0:
311,237,291745,6,0,P|329:271|339:301,1,56.9999982604981,2|6,2:3|2:3,0:0:0:0:
224,384,291917,1,10,2:1:0:0:
224,384,292003,1,0,0:0:0:0:
224,384,292089,2,0,P|153:374|99:356,1,113.999996520996,10|2,2:2|2:3,0:0:0:0:
352,352,292434,6,0,B|383:318|397:276|360:282|371:228|411:200,1,170.999994781494,10|0,2:1|0:0,0:0:0:0:
410,201,292779,1,10,2:2:0:0:
352,96,292951,1,2,2:3:0:0:
352,96,293038,1,6,2:3:0:0:
352,96,293124,6,0,P|308:106|289:118,1,56.9999982604981,2|6,2:2|2:3,0:0:0:0:
214,272,293296,2,0,P|188:284|160:288,1,56.9999982604981,10|0,2:1|0:0,0:0:0:0:
0,192,293469,1,10,2:2:0:0:
300,238,293641,1,2,2:3:0:0:
99,357,293814,6,0,P|59:307|76:256,2,113.999996520996,10|2|10,2:1|2:3|2:2,0:0:0:0:
361,313,294331,5,2,2:3:0:0:
379,290,294417,1,6,2:3:0:0:
390,262,294503,1,2,2:3:0:0:
397,234,294589,1,6,2:3:0:0:
394,205,294676,1,10,2:1:0:0:
256,384,294848,1,10,2:2:0:0:
448,352,295020,1,2,2:3:0:0:
299,243,295193,6,0,P|280:180|247:124,1,113.999996520996,10|2,2:1|2:3,0:0:0:0:
257,137,295451,1,0,0:0:0:0:
257,137,295537,1,10,2:2:0:0:
345,25,295710,5,2,2:2:0:0:
375,4,295796,1,6,2:3:0:0:
410,0,295883,1,2,2:3:0:0:
445,5,295969,1,6,2:3:0:0:
473,25,296055,1,10,2:1:0:0:
494,53,296141,1,0,0:0:0:0:
504,87,296227,2,0,B|486:167|481:120|471:196,1,113.999996520996,10|2,2:2|2:3,0:0:0:0:
512,256,296486,1,0,0:0:0:0:
512,256,296572,5,10,2:1:0:0:
352,288,296745,1,2,2:3:0:0:
192,320,296917,1,10,2:2:0:0:
424,336,297089,5,2,2:3:0:0:
424,336,297176,1,6,2:3:0:0:
424,336,297262,2,0,P|434:286|428:260,1,56.9999982604981,2|6,2:3|2:3,0:0:0:0:
264,240,297434,2,0,P|254:290|260:316,1,56.9999982604981,10|0,2:1|0:0,0:0:0:0:
160,384,297607,2,0,P|152:320|126:251,1,113.999996520996,10|2,2:2|2:3,0:0:0:0:
0,224,297951,5,10,2:1:0:0:
160,192,298124,1,2,2:3:0:0:
320,160,298296,1,10,2:2:0:0:
424,48,298468,5,2,2:3:0:0:
424,48,298555,1,6,2:3:0:0:
424,48,298641,2,0,P|434:98|428:124,1,56.9999982604981,2|6,2:2|2:3,0:0:0:0:
264,144,298813,2,0,P|254:94|260:68,1,56.9999982604981,10|0,2:1|0:0,0:0:0:0:
160,0,298986,2,0,B|120:119|171:35|117:170,1,170.999994781494,10|0,2:2|0:0,0:0:0:0:
0,224,299331,6,0,P|44:216|156:206,1,113.999996520996,10|2,2:1|2:3,0:0:0:0:
70,329,299676,1,10,2:2:0:0:
222,291,299848,1,2,2:3:0:0:
242,271,299934,1,6,2:3:0:0:
258,246,300020,1,2,2:2:0:0:
263,217,300107,1,6,2:3:0:0:
262,189,300193,1,10,2:1:0:0:
250,163,300279,1,0,0:0:0:0:
232,141,300365,2,0,P|178:111|113:134,1,113.999996520996,10|2,2:2|2:2,0:0:0:0:
70,329,300710,6,0,P|117:367|184:358,1,113.999996520996,10|2,2:1|2:3,0:0:0:0:
372,287,301055,1,10,2:2:0:0:
328,368,301227,1,2,2:3:0:0:
328,368,301313,1,6,2:3:0:0:
328,368,301400,2,0,P|363:381|405:368,1,56.9999982604981,2|6,2:2|2:3,0:0:0:0:
419,205,301572,2,0,P|383:191|341:204,1,56.9999982604981,10|0,2:1|0:0,0:0:0:0:
272,289,301744,1,10,2:2:0:0:
512,256,301917,1,2,2:2:0:0:
501,145,302089,6,0,P|491:88|477:33,1,113.999996520996,10|2,2:1|2:3,0:0:0:0:
246,86,302434,2,0,P|255:142|269:197,1,113.999996520996,10|2,2:2|2:3,0:0:0:0:
320,288,302693,1,6,2:3:0:0:
320,288,302779,2,0,P|354:306|397:298,1,56.9999982604981,2|6,2:3|2:3,0:0:0:0:
250,359,302951,2,0,P|216:377|173:369,1,56.9999982604981,10|0,2:1|0:0,0:0:0:0:
396,357,303124,2,0,P|431:310|383:257,1,113.999996520996,10|2,2:2|2:3,0:0:0:0:
269,197,303469,6,0,B|221:192|178:227|210:246|172:269|127:275,1,170.999994781494,10|0,2:1|0:0,0:0:0:0:
127,275,303814,1,10,2:2:0:0:
48,366,303986,1,2,2:3:0:0:
28,345,304072,1,6,2:3:0:0:
12,322,304158,1,2,2:2:0:0:
2,295,304244,1,6,2:3:0:0:
0,267,304330,1,10,2:1:0:0:
0,238,304417,1,0,0:0:0:0:
12,212,304503,2,0,P|87:179|167:159,1,113.999996520996,10|2,2:2|2:3,0:0:0:0:
224,0,304848,6,0,P|268:166|282:245,1,227.999993041992,10|10,2:1|2:2,0:0:0:0:
332,374,305365,1,2,2:3:0:0:
332,374,305452,1,6,2:3:0:0:
332,374,305538,2,0,P|355:309|364:291,1,56.9999982604981,2|6,2:2|2:3,0:0:0:0:
448,224,305710,1,10,2:1:0:0:
238,316,305883,2,0,B|161:312|209:271|118:262,1,113.999996520996,10|2,2:2|2:3,0:0:0:0:
64,384,306227,6,0,P|108:218|122:139,1,227.999993041992,10|10,2:1|2:2,0:0:0:0:
212,51,306744,1,2,2:3:0:0:
186,20,306830,1,6,2:3:0:0:
149,3,306917,1,2,2:2:0:0:
108,3,307003,1,6,2:3:0:0:
72,22,307089,1,10,2:1:0:0:
46,54,307175,1,0,0:0:0:0:
38,94,307261,1,10,2:2:0:0:
178,262,307434,1,2,2:3:0:0:
95,361,307607,6,0,P|15:325|24:272,1,113.999996520996,10|2,2:1|2:3,0:0:0:0:
108,170,307951,1,10,2:2:0:0:
289,282,308123,1,2,2:3:0:0:
300,225,308210,1,6,2:3:0:0:
339,183,308296,1,2,2:2:0:0:
395,185,308382,1,6,2:3:0:0:
440,218,308468,2,0,P|495:187|500:107,2,113.999996520996,10|10|2,2:1|2:2|2:3,0:0:0:0:
396,384,308986,6,0,P|347:189|305:42,1,285.000010871888,10|10,2:1|2:2,0:0:0:0:
129,11,309503,1,2,2:3:0:0:
129,11,309589,1,6,2:3:0:0:
129,11,309676,1,2,2:2:0:0:
72,2,309762,1,6,2:3:0:0:
23,30,309848,1,10,2:1:0:0:
0,82,309934,1,0,0:0:0:0:
12,137,310021,6,0,L|165:95,1,113.999996520996,10|2,2:2|2:3,0:0:0:0:
256,192,310365,12,0,315882,0:0:0:0:
