osu file format v14

[General]
AudioFilename: audio.mp3
AudioLeadIn: 0
PreviewTime: 72491
Countdown: 0
SampleSet: Soft
StackLeniency: 0.4
Mode: 0
LetterboxInBreaks: 0
WidescreenStoryboard: 1

[Editor]
Bookmarks: 28098,50295,72491,94688,116884,139081,161277,183474
DistanceSpacing: 1
BeatDivisor: 4
GridSize: 32
TimelineZoom: 1.7

[Metadata]
Title:Breathe
TitleUnicode:Breathe
Artist:TwoThirds
ArtistUnicode:TwoThirds
Creator:Mismagius
Version:Hard
Source:
Tags:featured artist dnb drum and bass monstercat electronic instrumental fursum ajt mappers' guild fa mpg release 015 outlook lvther
BeatmapID:3894133
BeatmapSetID:1888841

[Difficulty]
HPDrainRate:4
CircleSize:3.5
OverallDifficulty:7
ApproachRate:8
SliderMultiplier:1.6
SliderTickRate:1

[Events]
//Background and Video events
0,0,"wallhaven-6omo76.jpg",0,0
//Break Periods
2,94887,105036
//Storyboard Layer 0 (Background)
//Storyboard Layer 1 (Fail)
//Storyboard Layer 2 (Pass)
//Storyboard Layer 3 (Foreground)
//Storyboard Layer 4 (Overlay)
//Storyboard Sound Samples

[TimingPoints]
5902,346.820809248555,4,2,0,60,1,0
28098,-250,4,2,0,60,0,0
40237,-166.666666666667,4,2,0,60,0,0
47520,-125,4,3,0,70,0,0
50295,-90.9090909090909,4,2,0,90,0,0
105786,-200,4,2,0,60,0,0
116884,-133.333333333333,4,3,0,70,0,0
136306,-125,4,3,0,70,0,0
139081,-90.9090909090909,4,2,0,90,0,0

[Colours]
Combo1 : 219,130,197
Combo2 : 255,204,250
Combo3 : 230,89,187
Combo4 : 169,92,254
Combo5 : 108,83,255

[HitObjects]
324,71,28098,6,0,P|375:82|421:64,2,96,2|2|2,0:0|0:0|0:0,0:0:0:0:
188,71,29485,2,0,P|137:82|91:64,2,96,2|2|2,0:0|0:0|0:0,0:0:0:0:
197,196,30873,2,0,P|185:252|196:293,2,96,2|2|2,0:0|0:0|0:0,0:0:0:0:
315,196,32260,2,0,P|327:252|316:293,2,96,2|2|2,0:0|0:0|0:0,0:0:0:0:
351,73,33647,6,0,L|420:85,1,64,2|0,0:0|0:0,0:0:0:0:
486,43,34167,2,0,P|496:97|477:137,1,96,2|2,0:0|0:0,0:0:0:0:
384,219,35034,6,0,L|315:231,1,64,2|0,0:0|0:0,0:0:0:0:
249,189,35554,2,0,P|239:243|258:283,1,96,2|2,0:0|0:0,0:0:0:0:
378,316,36422,6,0,P|432:297|482:294,2,96,2|2|2,0:0|0:0|0:0,0:0:0:0:
255,351,37809,2,0,P|201:370|151:373,2,96,2|2|2,0:0|0:0|0:0,0:0:0:0:
284,226,39196,5,2,0:0:0:0:
284,226,40237,5,2,0:0:0:0:
453,178,40584,1,2,0:0:0:0:
453,178,40757,2,0,P|466:233|453:280,2,95.9999970703126,2|0|2,0:0|0:0|0:0,0:0:0:0:
261,3,41971,6,0,B|210:-29|91:-22|161:73|40:81|-5:47,1,287.999991210938,2|2,0:0|0:0,0:0:0:0:
148,136,43358,2,0,B|199:168|318:161|248:66|369:58|414:92,1,287.999991210938,2|0,0:0|0:0,0:0:0:0:
483,245,44745,1,2,0:0:0:0:
483,245,45786,5,2,0:0:0:0:
336,337,46133,1,2,0:0:0:0:
336,337,46306,2,0,P|281:331|241:347,3,95.9999970703126,2|0|2|2,0:0|0:0|0:0|0:0,0:0:0:0:
171,281,47520,6,0,L|106:297,1,64,4|0,3:0|0:0,0:0:0:0:
33,236,47867,1,2,0:0:0:0:
91,160,48040,1,0,0:0:0:0:
91,160,48127,1,2,0:0:0:0:
91,160,48214,2,0,L|122:167,2,32,0|0|2,0:0|0:0|0:0,0:0:0:0:
25,90,48560,1,2,0:0:0:0:
109,44,48734,1,2,0:0:0:0:
127,49,48821,1,0,0:0:0:0:
145,54,48907,6,0,L|191:44,1,32,12|4,0:0|0:0,0:0:0:0:
239,5,49081,2,0,L|285:15,2,32,12|4|6,0:0|0:0|0:0,0:0:0:0:
279,116,49428,1,2,0:0:0:0:
279,116,49514,1,0,0:0:0:0:
279,116,49601,2,0,L|233:126,2,32,4|4|4,0:0|0:0|0:0,0:0:0:0:
369,82,49948,2,0,L|454:99,1,64,2|6,0:0|0:0,0:0:0:0:
449,88,50208,1,4,0:0:0:0:
474,79,50295,6,0,P|493:122|417:222,1,176.000005371094,4|0,0:1|1:0,0:0:0:0:
343,193,50815,2,0,P|324:150|400:50,1,176.000005371094,0|4,0:0|3:0,0:0:0:0:
411,137,51335,1,0,1:0:0:0:
341,299,51682,6,0,P|274:313|165:349,1,176.000005371094,4|0,3:0|1:0,0:0:0:0:
146,261,52202,2,0,P|213:247|322:211,1,176.000005371094,0|4,0:0|3:0,0:0:0:0:
379,153,52722,2,0,P|402:196|403:234,1,88.000002685547,0|0,1:0|0:0,0:0:0:0:
290,129,53069,6,0,P|347:66|434:79,2,176.000005371094,4|0|2,3:0|1:0|0:0,0:0:0:0:
211,168,53936,1,4,3:0:0:0:
126,141,54110,2,0,P|116:88|129:51,1,88.000002685547,0|0,1:0|0:0,0:0:0:0:
202,13,54456,5,10,1:2:0:0:
32,59,54803,1,10,1:2:0:0:
78,229,55150,1,10,1:2:0:0:
247,183,55497,1,10,1:2:0:0:
176,131,55670,1,4,3:0:0:0:
176,131,55757,1,4,3:0:0:0:
176,131,55844,6,0,P|156:183|223:270,1,176.000005371094,4|0,3:0|1:0,0:0:0:0:
296,319,56364,1,0,0:0:0:0:
339,242,56537,2,0,L|436:230,1,88.000002685547,2|4,0:0|3:0,0:0:0:0:
388,151,56884,2,0,L|485:139,1,88.000002685547,0|0,1:0|0:0,0:0:0:0:
441,58,57231,6,0,L|245:35,2,176.000005371094,4|0|2,3:0|1:0|0:0,0:0:0:0:
477,138,58098,1,4,3:0:0:0:
450,221,58271,2,0,P|391:221|356:196,1,88.000002685547,0|0,1:0|0:0,0:0:0:0:
308,141,58618,6,0,P|239:115|137:149,1,176.000005371094,4|0,3:0|1:0,0:0:0:0:
92,214,59138,2,0,P|161:240|263:206,1,176.000005371094,0|4,0:0|3:0,0:0:0:0:
328,262,59659,2,0,L|360:349,1,88.000002685547,0|0,1:0|0:0,0:0:0:0:
446,338,60006,5,10,1:2:0:0:
503,172,60352,1,10,1:2:0:0:
384,41,60699,1,10,1:2:0:0:
327,207,61046,2,0,L|239:198,1,88.000002685547,10|4,1:2|3:0,0:0:0:0:
168,145,61393,6,0,P|149:192|172:315,1,176.000005371094,4|0,3:0|1:0,0:0:0:0:
87,341,61913,1,0,0:0:0:0:
43,264,62086,2,0,P|38:219|48:165,2,88.000002685547,2|4|0,0:0|3:0|1:0,0:0:0:0:
213,311,62780,6,0,P|296:335|380:313,1,176.000005371094,4|0,3:0|1:0,0:0:0:0:
451,260,63300,1,0,0:0:0:0:
386,199,63474,2,0,P|377:147|386:106,1,88.000002685547,2|4,0:0|3:0,0:0:0:0:
459,67,63821,2,0,P|468:119|459:160,1,88.000002685547,0|0,1:0|0:0,0:0:0:0:
386,199,64167,6,0,P|323:175|207:185,2,176.000005371094,4|0|2,3:0|1:0|0:0,0:0:0:0:
448,261,65034,1,4,3:0:0:0:
432,347,65208,2,0,L|339:369,1,88.000002685547,0|0,1:0|0:0,0:0:0:0:
280,308,65555,5,10,1:2:0:0:
111,257,65902,1,10,1:2:0:0:
230,128,66248,1,10,1:2:0:0:
61,77,66595,1,10,1:2:0:0:
27,162,66769,1,4,3:0:0:0:
27,162,66855,1,4,3:0:0:0:
27,162,66942,6,0,P|82:169|157:81,1,176.000005371094,4|0,3:0|1:0,0:0:0:0:
221,26,67462,1,0,0:0:0:0:
296,71,67636,2,0,L|401:53,1,88.000002685547,2|4,0:0|3:0,0:0:0:0:
399,142,67982,2,0,L|312:156,1,88.000002685547,0|0,1:0|0:0,0:0:0:0:
238,204,68329,6,0,P|219:270|236:379,2,176.000005371094,4|0|2,3:0|1:0|0:0,0:0:0:0:
179,138,69196,1,4,3:0:0:0:
94,111,69370,2,0,P|32:121|9:141,1,88.000002685547,0|0,1:0|0:0,0:0:0:0:
77,196,69717,6,0,P|120:144|121:23,2,176.000005371094,4|0|2,3:0|1:0|0:0,0:0:0:0:
19,262,70584,1,4,3:0:0:0:
78,326,70757,1,0,1:0:0:0:
231,239,71104,5,10,1:2:0:0:
399,288,71451,1,10,1:2:0:0:
453,121,71797,1,10,1:2:0:0:
285,72,72144,1,10,1:2:0:0:
329,159,72318,1,4,3:0:0:0:
329,159,72404,1,4,3:0:0:0:
329,159,72491,6,0,P|237:163|157:211,1,176.000005371094,4|0,3:0|1:0,0:0:0:0:
113,273,73011,1,0,0:0:0:0:
46,330,73185,2,0,P|27:267|36:235,1,88.000002685547,2|4,0:0|3:0,0:0:0:0:
3,163,73532,2,0,P|46:159|86:177,1,88.000002685547,0|0,1:2|0:0,0:0:0:0:
162,133,73878,5,4,3:0:0:0:
162,133,74052,2,0,P|223:142|313:69,2,176.000005371094,0|0|4,0:0|0:0|3:0,0:0:0:0:
85,88,74919,1,0,1:0:0:0:
162,47,75092,1,0,0:0:0:0:
162,133,75266,6,0,P|194:216|202:305,1,176.000005371094,4|0,3:0|1:0,0:0:0:0:
286,328,75786,2,0,P|340:259|411:208,1,176.000005371094,0|4,0:0|3:0,0:0:0:0:
499,221,76306,2,0,P|494:171|460:135,1,88.000002685547,0|0,1:0|0:0,0:0:0:0:
510,63,76653,5,10,1:2:0:0:
340,112,77000,1,10,1:2:0:0:
171,161,77347,1,10,1:2:0:0:
2,210,77693,1,10,1:2:0:0:
70,281,77867,1,4,3:3:0:0:
70,281,77954,1,4,3:0:0:0:
70,281,78040,6,0,P|141:278|237:319,1,176.000005371094,4|0,3:0|1:0,0:0:0:0:
313,274,78560,1,0,0:0:0:0:
378,333,78734,2,0,L|468:316,1,88.000002685547,2|4,0:0|3:0,0:0:0:0:
490,232,79081,2,0,L|400:215,1,88.000002685547,0|0,1:0|0:0,0:0:0:0:
346,148,79428,5,4,3:0:0:0:
346,148,79601,2,0,P|328:96|329:53,1,88.000002685547,0|0,0:0|1:0,0:0:0:0:
412,40,79948,2,0,P|430:92|429:135,1,88.000002685547,0|2,0:0|0:0,0:0:0:0:
507,167,80295,2,0,P|482:216|451:246,1,88.000002685547,4|0,3:0|1:0,0:0:0:0:
399,303,80641,1,0,0:0:0:0:
318,267,80815,6,0,P|227:255|154:312,1,176.000005371094,4|0,3:0|1:0,0:0:0:0:
102,366,81335,1,0,0:0:0:0:
28,318,81508,2,0,P|13:267|21:227,2,88.000002685547,2|4|0,0:0|3:0|1:0,0:0:0:0:
38,141,82202,5,10,1:2:0:0:
175,31,82549,1,10,1:2:0:0:
349,50,82896,1,10,1:2:0:0:
459,187,83243,2,0,P|464:238|452:285,1,88.000002685547,10|4,1:2|3:3,0:3:0:0:
393,335,83589,6,0,P|301:329|226:377,1,176.000005371094,4|0,3:0|1:0,0:0:0:0:
145,349,84110,1,0,0:0:0:0:
87,282,84283,2,0,P|75:232|89:190,1,88.000002685547,2|4,0:0|3:0,0:0:0:0:
162,238,84630,2,0,P|174:188|160:146,1,88.000002685547,0|0,1:0|0:0,0:0:0:0:
88,108,84977,5,4,3:0:0:0:
88,108,85150,2,0,P|158:114|241:42,2,176.000005371094,0|0|4,0:0|0:0|3:0,0:0:0:0:
13,154,86017,2,0,P|11:202|40:251,1,88.000002685547,0|0,1:0|0:0,0:0:0:0:
111,208,86364,6,0,P|192:244|275:304,1,176.000005371094,4|0,3:0|1:0,0:0:0:0:
325,231,86884,1,0,0:0:0:0:
389,171,87058,2,0,P|427:197|469:216,1,88.000002685547,2|4,0:0|3:0,0:0:0:0:
507,291,87404,2,0,P|467:309|431:334,1,88.000002685547,0|0,1:0|0:0,0:0:0:0:
355,380,87751,5,10,1:2:0:0:
308,210,88098,1,10,1:2:0:0:
138,257,88445,1,10,1:2:0:0:
91,87,88792,1,10,1:2:0:0:
150,22,88965,1,4,3:3:0:0:
150,22,89052,1,4,3:0:0:0:
150,22,89138,6,0,P|201:56|321:37,1,176.000005371094,4|0,3:0|1:0,0:0:0:0:
388,1,89659,1,0,0:0:0:0:
470,31,89832,2,0,P|482:87|471:121,1,88.000002685547,2|4,0:0|3:0,0:0:0:0:
508,196,90179,2,0,P|465:234|430:241,1,88.000002685547,0|0,1:0|0:0,0:0:0:0:
372,181,90526,5,4,3:0:0:0:
372,181,90699,2,0,P|349:235|412:326,2,176.000005371094,0|0|4,0:0|0:2|3:0,0:0:0:0:
432,116,91566,1,0,1:3:0:0:
362,61,91740,1,0,0:3:0:0:
303,126,91913,6,0,P|213:109|120:101,1,176.000005371094,4|0,3:0|1:0,0:0:0:0:
85,178,92433,1,0,0:0:0:0:
163,219,92607,2,0,P|206:223|249:231,2,88.000002685547,2|4|0,0:0|3:0|1:0,0:0:0:0:
95,276,93127,1,0,0:0:0:0:
141,350,93300,5,10,1:2:0:0:
312,309,93647,1,10,1:2:0:0:
248,247,93821,1,4,3:0:0:0:
248,247,93907,1,4,3:0:0:0:
248,247,93994,2,0,P|232:191|238:153,1,88.000002685547,10|4,1:2|3:0,0:0:0:0:
308,112,94341,2,0,P|324:168|318:206,2,88.000002685547,10|4|2,1:2|3:0|0:0,0:0:0:0:
315,63,105786,6,0,P|366:69|431:32,2,120,2|2|2,0:0|0:0|0:0,0:0:0:0:
197,63,107173,2,0,P|146:69|81:32,2,120,2|2|2,0:0|0:0|0:0,0:0:0:0:
186,166,108560,6,0,P|173:232|184:290,2,120,2|2|2,0:0|0:0|0:0,0:0:0:0:
326,166,109948,2,0,P|339:232|328:290,2,120,2|2|2,0:0|0:0|0:0,0:0:0:0:
379,60,111335,6,0,L|433:48,2,40,2|0|0,0:0|0:0|0:0,0:0:0:0:
311,26,111855,2,0,L|257:38,2,40,2|0|0,0:0|0:0|0:0,0:0:0:0:
317,101,112375,1,2,0:0:0:0:
354,205,112722,6,0,L|300:193,2,40,2|0|0,0:0|0:0|0:0,0:0:0:0:
422,171,113242,2,0,L|476:183,2,40,2|0|0,0:0|0:0|0:0,0:0:0:0:
416,246,113762,1,2,0:0:0:0:
320,325,114110,6,0,P|311:347|306:369,1,40,2|0,0:0|0:0,0:0:0:0:
280,256,114456,2,0,P|260:269|244:285,1,40,2|0,0:0|0:0,0:0:0:0:
293,176,114803,2,0,P|269:176|247:181,1,40,2|0,0:0|0:0,0:0:0:0:
339,111,115149,2,0,P|318:98|297:90,1,40,2|0,0:0|0:0,0:0:0:0:
413,82,115497,6,0,P|402:60|389:42,3,40,2|0|2|0,0:0|0:0|0:0|0:0,0:0:0:0:
313,19,116191,2,0,P|302:40|289:58,3,40,2|0|2|0,0:0|0:0|0:0|0:0,0:0:0:0:
223,100,116884,6,0,L|148:90,1,60.0000022888184,2|0,0:2|0:0,0:0:0:0:
120,163,117231,1,0,0:0:0:0:
102,166,117318,1,0,0:0:0:0:
84,169,117404,1,0,0:0:0:0:
6,130,117578,2,0,P|-3:173|6:206,2,60.0000022888184,2|0|0,0:0|0:0|0:0,0:0:0:0:
70,80,118098,1,0,0:0:0:0:
39,4,118271,6,0,L|108:-1,1,60.0000022888184,2|0,0:2|0:0,0:0:0:0:
173,53,118618,2,0,L|207:50,3,30.0000011444092
223,35,118965,2,0,L|300:30,1,60.0000022888184,2|0,0:0|0:0,0:0:0:0:
343,101,119312,2,0,L|420:96,1,60.0000022888184
472,50,119659,6,0,P|487:93|483:121,1,60.0000022888184,2|0,0:2|0:0,0:0:0:0:
469,188,120006,1,0,0:0:0:0:
452,194,120092,1,0,0:0:0:0:
435,200,120179,1,0,0:0:0:0:
358,227,120352,2,0,L|378:292,1,60.0000022888184,2|0,0:0|0:0,0:0:0:0:
309,344,120699,2,0,L|289:279,1,60.0000022888184
271,207,121046,6,0,P|234:198|146:210,3,120.000004577637,10|10|10|10,0:2|0:2|0:2|0:2,0:0:0:0:
31,275,122433,6,0,P|15:244|14:209,1,60.0000022888184,2|0,0:2|0:0,0:0:0:0:
42,139,122780,1,0,0:0:0:0:
58,132,122867,1,0,0:0:0:0:
74,125,122954,1,0,0:0:0:0:
145,92,123127,2,0,L|156:21,2,60.0000022888184,2|0|0,0:0|0:0|0:0,0:0:0:0:
169,167,123647,1,0,0:0:0:0:
246,137,123821,6,0,L|257:66,1,60.0000022888184,2|0,0:2|0:0,0:0:0:0:
309,17,124167,1,0,0:0:0:0:
326,11,124254,1,0,0:0:0:0:
343,6,124341,1,0,0:0:0:0:
419,23,124514,2,0,P|431:50|431:85,1,60.0000022888184,2|0,0:0|0:0,0:0:0:0:
508,101,124861,2,0,P|497:128|472:153,1,60.0000022888184
397,161,125208,6,0,P|376:182|365:210,1,60.0000022888184,2|0,0:2|0:0,0:0:0:0:
311,273,125555,2,0,L|321:311,3,30.0000011444092
314,326,125902,2,0,L|394:347,1,60.0000022888184,2|0,0:0|0:0,0:0:0:0:
440,292,126248,2,0,L|520:313,1,60.0000022888184
454,212,126595,6,0,L|310:174,3,120.000004577637,10|10|10|10,0:2|0:2|0:2|0:2,0:0:0:0:
254,158,127809,1,0,0:0:0:0:
254,158,127982,6,0,P|237:101|250:43,1,120.000004577637,2|0,0:2|0:0,0:0:0:0:
329,3,128503,1,0,0:0:0:0:
329,3,128589,1,0,0:0:0:0:
329,3,128676,2,0,L|397:17,1,60.0000022888184,2|0,0:0|0:0,0:0:0:0:
339,89,129023,2,0,L|407:103,1,60.0000022888184,2|0,0:2|0:3,0:3:0:0:
480,65,129370,5,2,0:2:0:0:
512,148,129543,2,0,P|514:187|506:217,1,60.0000022888184,0|0,0:3|0:0,0:0:0:0:
449,269,129890,2,0,P|446:283|447:298,2,30.0000011444092,2|0|2,0:2|0:0|0:3,0:3:0:0:
398,192,130237,2,0,P|335:187|274:222,1,120.000004577637,2|2,0:2|0:2,0:3:0:0:
238,288,130757,2,0,L|166:276,1,60.0000022888184,2|0,0:2|0:0,0:0:0:0:
126,209,131104,2,0,L|89:203,3,30.0000011444092
78,201,131451,2,0,P|62:160|76:74,1,120.000004577637,2|2,0:0|0:2,0:0:0:0:
125,12,131971,1,0,0:0:0:0:
193,71,132144,6,0,L|337:33,3,120.000004577637,10|10|10|10,0:2|0:2|0:2|0:2,0:0:0:0:
465,130,133532,6,0,P|487:172|472:249,1,120.000004577637,2|0,0:2|0:0,0:0:0:0:
415,303,134052,1,0,0:0:0:0:
415,303,134138,1,0,0:0:0:0:
415,303,134225,2,0,L|344:284,1,60.0000022888184,2|0,0:0|0:0,0:0:0:0:
322,212,134572,2,0,L|251:231,1,60.0000022888184,2|0,0:2|0:3,0:3:0:0:
226,304,134919,5,2,0:2:0:0:
139,322,135092,2,0,P|109:320|80:311,1,60.0000022888184,0|0,0:3|0:0,0:0:0:0:
40,241,135439,1,2,0:2:0:0:
40,241,135526,1,0,0:0:0:0:
40,241,135612,1,2,0:3:0:0:
123,200,135786,2,0,P|136:157|108:81,1,120.000004577637,2|2,0:2|0:2,0:3:0:0:
181,18,136306,6,0,L|246:2,1,64,4|0,0:0|0:0,0:0:0:0:
319,63,136653,1,2,0:0:0:0:
261,139,136826,1,0,0:0:0:0:
261,139,136913,1,2,0:0:0:0:
261,139,137000,2,0,L|230:132,2,32
327,209,137346,1,2,0:0:0:0:
243,255,137520,1,2,0:0:0:0:
225,250,137607,1,0,0:0:0:0:
207,245,137693,6,0,L|161:255,1,32,12|4,3:0|3:0,0:0:0:0:
113,294,137867,2,0,L|67:284,2,32,12|4|6,3:0|3:0|3:0,0:0:0:0:
204,360,138214,1,2,0:0:0:0:
204,360,138300,1,0,0:0:0:0:
204,360,138387,6,0,L|280:342,1,64,4|4,0:0|0:0,0:0:0:0:
317,273,138734,2,0,L|393:255,1,64,2|6,0:0|0:0,0:0:0:0:
463,315,139081,6,0,P|478:270|409:162,1,176.000005371094,4|0,0:1|1:0,0:0:0:0:
401,79,139601,1,0,0:0:0:0:
323,120,139774,2,0,P|267:138|233:133,2,88.000002685547,2|4|0,0:2|3:0|1:0,0:0:0:0:
266,51,140295,1,0,0:0:0:0:
182,24,140468,6,0,P|89:28|34:89,1,176.000005371094,4|0,3:0|1:0,0:0:0:0:
28,173,140988,1,0,0:0:0:0:
100,222,141162,2,0,L|82:312,1,88.000002685547,2|4,0:2|3:0,0:0:0:0:
160,349,141508,2,0,L|177:262,1,88.000002685547,0|0,1:0|0:0,0:0:0:0:
247,208,141855,6,0,L|428:169,2,176.000005371094,4|0|2,3:0|1:0|0:2,0:0:0:0:
194,137,142722,1,4,3:0:0:0:
108,159,142896,2,0,L|17:178,1,88.000002685547,0|0,1:0|0:0,0:0:0:0:
66,79,143243,6,0,P|118:69|161:85,1,88.000002685547,10|4,1:2|3:0,0:0:0:0:
228,37,143589,2,0,P|238:89|222:132,1,88.000002685547,10|4,1:2|3:0,0:0:0:0:
270,199,143936,2,0,P|218:209|175:193,1,88.000002685547,10|4,1:2|3:0,0:0:0:0:
108,241,144283,2,0,P|98:189|114:146,1,88.000002685547,10|4,1:2|3:0,0:0:0:0:
120,142,144543,1,4,3:0:0:0:
134,131,144630,6,0,P|209:110|281:39,1,176.000005371094,4|0,3:0|1:0,0:0:0:0:
365,13,145150,1,4,3:0:0:0:
365,13,145237,1,4,3:0:0:0:
365,13,145323,2,0,P|418:8|459:24,1,88.000002685547,2|4,0:2|3:0,0:0:0:0:
509,84,145670,2,0,P|514:137|498:178,1,88.000002685547,0|0,1:0|0:0,0:0:0:0:
430,119,146017,6,0,P|335:121|259:166,2,176.000005371094,4|0|2,3:0|1:0|0:2,0:0:0:0:
461,201,146884,1,4,3:0:0:0:
377,230,147058,2,0,P|322:259|300:290,1,88.000002685547,0|0,1:0|0:0,0:0:0:0:
253,348,147404,5,4,3:0:0:0:
183,294,147578,1,2,0:2:0:0:
113,240,147751,2,0,L|22:223,2,88.000002685547,0|0|2,1:0|0:0|0:2,0:0:0:0:
177,179,148271,1,4,3:0:0:0:
177,179,148445,2,0,P|185:117|169:78,1,88.000002685547,0|0,1:0|0:0,0:0:0:0:
116,29,148792,6,0,L|19:62,1,88.000002685547,10|4,1:2|3:0,0:0:0:0:
0,140,149138,2,0,L|33:237,1,88.000002685547,10|4,1:2|3:0,0:0:0:0:
111,256,149485,2,0,L|208:223,1,88.000002685547,10|4,1:2|3:0,0:0:0:0:
227,145,149832,2,0,L|194:48,1,88.000002685547,10|4,1:2|3:0,0:0:0:0:
269,9,150179,6,0,P|313:35|438:31,1,176.000005371094,4|0,3:0|1:3,0:0:0:0:
502,104,150699,1,4,3:3:0:0:
502,104,150786,1,4,3:0:0:0:
502,104,150873,2,0,L|482:194,1,88.000002685547,2|4,0:2|3:3,0:3:0:0:
404,229,151219,2,0,L|384:139,1,88.000002685547,0|0,1:0|0:0,0:0:0:0:
300,115,151566,6,0,P|256:141|131:137,1,176.000005371094,4|0,3:0|1:0,0:0:0:0:
91,61,152086,1,0,0:0:0:0:
12,100,152260,2,0,P|7:164|21:200,1,88.000002685547,2|4,0:2|3:0,0:0:0:0:
94,221,152607,2,0,P|99:285|85:321,1,88.000002685547,0|0,1:0|0:0,0:0:0:0:
162,360,152954,5,4,3:0:0:0:
246,335,153127,1,2,0:2:0:0:
330,310,153300,2,0,L|425:338,2,88.000002685547,0|0|2,1:0|0:0|0:2,0:0:0:0:
277,238,153821,1,4,3:0:0:0:
277,238,153994,2,0,P|269:182|279:137,1,88.000002685547,0|0,1:0|0:0,0:0:0:0:
326,80,154341,6,0,L|422:102,1,88.000002685547,10|4,1:2|3:0,0:0:0:0:
248,62,154688,2,0,L|152:40,1,88.000002685547,10|4,1:2|3:0,0:0:0:0:
274,151,155034,2,0,L|370:173,1,88.000002685547,10|4,1:2|3:0,0:0:0:0:
196,133,155381,2,0,L|100:111,1,88.000002685547,10|4,1:2|3:0,0:0:0:0:
88,128,155641,1,4,3:0:0:0:
66,143,155728,6,0,P|34:209|56:308,1,176.000005371094,4|0,3:0|1:0,0:0:0:0:
131,349,156248,1,0,0:0:0:0:
216,326,156422,2,0,P|237:281|222:215,1,88.000002685547,2|4,0:2|3:0,0:0:0:0:
322,228,156769,2,0,P|305:181|248:144,1,88.000002685547,0|0,1:0|0:0,0:0:0:0:
215,94,157115,6,0,P|295:107|377:45,2,176.000005371094,4|0|2,3:0|1:0|0:2,0:0:0:0:
150,33,157982,1,4,3:0:0:0:
63,49,158156,2,0,P|41:94|39:145,1,88.000002685547,0|0,1:0|0:0,0:0:0:0:
23,218,158503,5,4,3:0:0:0:
106,246,158676,1,2,0:2:0:0:
189,274,158849,2,0,L|271:302,2,88.000002685547,0|0|2,1:0|0:0|0:2,0:0:0:0:
224,192,159370,1,4,3:0:0:0:
258,111,159543,2,0,L|340:82,1,88.000002685547,0|0,1:0|0:0,0:0:0:0:
398,14,159890,6,0,P|428:62|427:96,1,88.000002685547,10|4,1:2|3:0,0:0:0:0:
495,149,160237,2,0,P|447:179|413:178,1,88.000002685547,10|4,1:2|3:0,0:0:0:0:
342,131,160584,2,0,P|312:179|313:213,1,88.000002685547,10|4,1:2|3:0,0:0:0:0:
245,266,160931,2,0,P|293:296|327:295,1,88.000002685547,10|4,1:2|3:0,0:0:0:0:
339,290,161191,1,4,3:0:0:0:
355,294,161277,6,0,P|412:249|517:202,1,176.000005371094,4|0,3:0|1:0,0:0:0:0:
459,129,161797,1,0,0:0:0:0:
492,47,161971,2,0,P|436:44|395:68,1,88.000002685547,2|4,0:2|3:0,0:0:0:0:
352,126,162318,2,0,P|311:141|268:135,1,88.000002685547,0|0,1:0|0:0,0:0:0:0:
202,75,162665,5,4,3:0:0:0:
202,75,162838,2,0,P|177:152|131:248,2,176.000005371094,2|0|4,0:2|0:0|3:0,0:0:0:0:
272,21,163705,2,0,P|323:21|374:48,1,88.000002685547,0|0,1:0|0:3,0:0:0:0:
440,6,164052,6,0,P|459:71|386:169,1,176.000005371094,4|0,3:0|1:0,0:0:0:0:
319,147,164572,1,0,0:0:0:0:
273,221,164745,2,0,P|265:278|274:317,1,88.000002685547,2|4,0:2|3:0,0:0:0:0:
340,361,165092,1,0,1:0:0:0:
403,299,165266,1,0,0:0:0:0:
481,338,165439,6,0,L|494:227,1,88.000002685547,10|4,1:2|3:0,0:0:0:0:
403,299,165786,2,0,L|416:188,1,88.000002685547,10|4,1:2|3:0,0:0:0:0:
325,260,166133,2,0,L|338:149,1,88.000002685547,10|4,1:2|3:0,0:0:0:0:
247,221,166480,2,0,L|260:110,1,88.000002685547,10|4,1:2|3:0,0:0:0:0:
242,111,166740,1,4,3:0:0:0:
227,89,166826,6,0,P|161:137|46:126,2,176.000005371094,4|0|2,3:0|1:0|0:2,0:0:0:0:
273,14,167693,1,4,3:0:0:0:
348,59,167867,2,0,P|400:61|449:42,1,88.000002685547,0|0,1:0|0:0,0:0:0:0:
500,108,168214,5,4,3:0:0:0:
476,192,168387,2,0,L|453:286,1,88.000002685547,2|0,0:2|1:0,0:0:0:0:
381,326,168734,1,4,3:0:0:0:
381,326,168821,1,4,3:0:0:0:
381,326,168907,2,0,L|358:232,1,88.000002685547,2|4,0:2|3:0,0:0:0:0:
289,187,169254,1,0,1:0:0:0:
246,264,169428,1,0,0:0:0:0:
178,207,169601,6,0,P|80:218|9:185,2,176.000005371094,4|0|2,3:0|1:0|0:2,0:0:0:0:
202,122,170468,1,4,3:0:0:0:
264,59,170641,2,0,P|313:53|348:70,1,88.000002685547,0|0,1:0|0:0,0:0:0:0:
296,141,170988,6,0,L|311:227,1,88.000002685547,10|4,1:2|3:0,0:0:0:0:
225,243,171335,2,0,L|312:228,1,88.000002685547,10|4,1:2|3:0,0:0:0:0:
327,314,171682,2,0,L|312:228,1,88.000002685547,10|4,1:2|3:0,0:0:0:0:
398,212,172029,2,0,L|312:228,1,88.000002685547,10|4,1:2|3:0,0:0:0:0:
248,167,172375,6,0,L|41:205,1,176.000005371094,4|0,3:0|1:0,0:0:0:0:
26,125,172896,1,4,3:0:0:0:
26,125,172982,1,4,3:0:0:0:
26,125,173069,2,0,P|16:78|21:30,1,88.000002685547,2|4,0:2|3:0,0:0:0:0:
101,7,173416,2,0,P|111:54|106:102,1,88.000002685547,0|0,1:0|0:0,0:0:0:0:
143,174,173763,5,4,3:0:0:0:
226,147,173936,2,0,L|325:115,1,88.000002685547,2|0,0:2|1:0,0:0:0:0:
396,102,174283,2,0,L|374:203,1,88.000002685547,0|2,0:0|0:2,0:0:0:0:
350,271,174630,2,0,L|272:201,2,88.000002685547,4|0|0,3:0|1:0|0:0,0:0:0:0:
437,284,175150,6,0,P|399:342|297:341,2,176.000005371094,4|0|2,3:0|1:0|0:2,0:0:0:0:
475,204,176017,1,4,3:0:0:0:
404,151,176191,2,0,P|392:107|401:58,1,88.000002685547,0|0,1:0|0:0,0:0:0:0:
326,15,176537,6,0,L|212:36,1,88.000002685547,10|4,1:2|3:0,0:0:0:0:
153,47,176884,2,0,L|267:26,1,88.000002685547,10|4,1:2|3:0,0:0:0:0:
306,105,177231,2,0,L|192:126,1,88.000002685547,10|4,1:2|3:0,0:0:0:0:
133,137,177578,2,0,L|247:116,1,88.000002685547,10|4,1:2|3:0,0:0:0:0:
272,192,177925,6,0,P|226:245|234:349,2,176.000005371094,4|0|2,3:0|1:0|0:2,0:0:0:0:
341,137,178792,1,4,3:0:0:0:
380,215,178965,2,0,P|426:242|471:242,1,88.000002685547,0|0,1:0|0:0,0:0:0:0:
446,156,179312,5,4,3:0:0:0:
510,96,179485,2,0,P|464:69|419:69,1,88.000002685547,2|0,0:2|1:0,0:0:0:0:
366,5,179832,2,0,P|319:31|297:70,1,88.000002685547,0|2,0:0|0:2,0:0:0:0:
312,147,180179,1,4,3:0:0:0:
235,190,180352,2,0,L|130:167,1,88.000002685547,0|0,1:0|0:0,0:0:0:0:
98,99,180699,6,0,P|63:180|112:249,2,176.000005371094,4|0|2,3:0|1:0|0:2,0:0:0:0:
131,17,181566,1,4,3:0:0:0:
210,55,181740,2,0,P|258:52|296:28,1,88.000002685547,0|0,1:0|0:0,0:0:0:0:
371,68,182086,6,0,L|350:156,1,88.000002685547,10|4,1:2|3:0,0:0:0:0:
281,208,182433,2,0,L|260:296,1,88.000002685547,10|4,1:2|3:0,0:0:0:0:
235,302,182693,1,4,3:0:0:0:
209,293,182780,2,0,L|188:381,1,88.000002685547,10|4,1:2|3:0,0:0:0:0:
91,381,183127,2,0,L|70:293,1,88.000002685547,10|4,1:2|3:0,0:0:0:0:
139,226,183474,5,2,0:0:0:0:
