osu file format v14

[General]
AudioFilename: Starscapes (Rameses B Remix).mp3
AudioLeadIn: 0
PreviewTime: 198216
Countdown: 0
SampleSet: Normal
StackLeniency: 0.5
Mode: 0
LetterboxInBreaks: 0
WidescreenStoryboard: 1

[Editor]
Bookmarks: 730,22674,33645,44617,55588,66560,77531,88502,99474,110445,121417,132388,143360,154331,165302,176274,187245,200960,211931,222902,233874,244845,255817,266788
DistanceSpacing: 1
BeatDivisor: 8
GridSize: 8
TimelineZoom: 3.099999

[Metadata]
Title:Starscapes (Rameses B Remix)
TitleUnicode:Starscapes (Rameses B Remix)
Artist:TwoThirds & Feint feat. Veela
ArtistUnicode:TwoThirds & Feint feat. Veela
Creator:Streliteela
Version:Normal
Source:
Tags:liquid drum&bass dnb appleeaterx Squirrel
BeatmapID:812857
BeatmapSetID:370603

[Difficulty]
HPDrainRate:4
CircleSize:3.5
OverallDifficulty:4
ApproachRate:5
SliderMultiplier:0.999999999999999
SliderTickRate:1

[Events]
//Background and Video events
0,0,"BG.jpg",0,0
//Break Periods
2,44816,54388
2,133273,142159
2,198416,199759
//Storyboard Layer 0 (Background)
//Storyboard Layer 1 (Fail)
//Storyboard Layer 2 (Pass)
//Storyboard Layer 3 (Foreground)
//Storyboard Sound Samples

[TimingPoints]
731,342.857142857143,4,2,1,80,1,0
22673,-100,4,2,3,80,0,0
55588,-100,4,1,1,80,0,0
63988,-100,4,1,1,50,0,0
66559,-100,4,1,1,90,0,1
88502,-100,4,1,1,80,0,0
143359,-100,4,2,2,60,0,0
176273,-100,4,1,1,80,0,0
200959,-100,4,1,1,80,0,1
222902,-100,4,1,1,80,0,0
266788,-100,4,2,3,20,0,0

[Colours]
Combo1 : 224,122,179
Combo2 : 83,111,151
Combo3 : 252,254,177
Combo4 : 172,228,247

[HitObjects]
385,128,22673,5,2,0:0:0:0:
397,28,23016,2,0,P|347:31|307:66,1,99.9999999999999,8|0,0:0|0:0,0:0:0:0:
296,161,23702,1,8,0:0:0:0:
372,225,24045,5,0,0:0:0:0:
462,182,24388,2,0,P|468:236|472:337,1,150,8|2,0:0|0:0,0:0:0:0:
426,351,25073,2,0,P|390:357|354:357,1,50,8|0,0:0|0:0,0:0:0:0:
333,331,25416,6,0,P|291:320|222:325,1,99.9999999999999,2|8,0:0|0:0,0:0:0:0:
196,354,25931,2,0,P|176:362|145:368,1,50
60,319,26445,1,8,0:0:0:0:
146,268,26788,6,0,L|140:214,1,50,2|2,0:0|0:0,0:0:0:0:
177,184,27131,2,0,L|181:70,1,99.9999999999999,8|2,0:0|0:0,0:0:0:0:
89,41,27816,1,8,0:0:0:0:
39,129,28159,6,0,P|46:179|55:239,1,99.9999999999999,2|8,0:0|0:0,0:0:0:0:
83,267,28673,2,0,P|129:297|192:301,1,99.9999999999999,2|2,0:0|0:0,0:0:0:0:
220,287,29188,1,8,0:0:0:0:
281,208,29531,6,0,P|284:156|286:89,1,99.9999999999999,2|8,0:0|0:0,0:0:0:0:
283,57,30045,2,0,P|222:78|198:165,1,150,2|8,0:0|0:0,0:0:0:0:
281,208,30902,6,0,P|330:219|397:223,1,99.9999999999999,2|8,0:0|0:0,0:0:0:0:
429,220,31416,2,0,P|466:185|468:77,1,150,2|8,0:0|0:0,0:0:0:0:
397,26,32273,5,2,0:0:0:0:
397,26,32445,2,0,L|337:33,1,50,2|8,0:0|0:0,0:0:0:0:
312,67,32788,2,0,P|239:61|154:57,1,150,2|8,0:0|0:0,0:0:0:0:
94,137,33645,6,0,P|99:190|105:256,1,99.9999999999999,2|8,0:0|0:0,0:0:0:0:
115,285,34159,2,0,P|153:315|209:327,1,99.9999999999999,2|2,0:0|0:0,0:0:0:0:
252,326,34673,1,8,0:0:0:0:
274,228,35016,6,0,L|279:112,1,99.9999999999999,2|8,0:0|0:0,0:0:0:0:
282,77,35531,2,0,P|346:50|431:71,1,150,2|8,0:0|0:0,0:0:0:0:
413,165,36388,6,0,P|410:215|407:282,1,99.9999999999999,2|8,0:0|0:0,0:0:0:0:
395,313,36902,2,0,P|334:338|238:318,1,150,2|8,0:0|0:0,0:0:0:0:
236,226,37759,5,2,0:0:0:0:
236,226,37931,2,0,L|239:176,1,50,2|8,0:0|0:0,0:0:0:0:
283,153,38273,2,0,L|273:39,1,99.9999999999999,2|2,0:0|0:0,0:0:0:0:
233,23,38788,1,8,0:0:0:0:
177,106,39131,6,0,P|133:114|76:118,1,99.9999999999999,2|8,0:0|0:0,0:0:0:0:
34,92,39645,2,0,P|58:159|62:209,1,99.9999999999999,2|2,0:0|0:0,0:0:0:0:
62,237,40159,1,8,0:0:0:0:
60,337,40502,6,0,P|124:325|170:322,1,99.9999999999999,2|8,0:0|0:0,0:0:0:0:
204,343,41016,2,0,P|196:304|193:235,1,99.9999999999999,0|0,0:0|0:0,0:0:0:0:
205,195,41531,1,8,0:0:0:0:
256,192,41873,12,4,44616,0:0:0:0:
262,344,55588,6,0,P|319:338|375:336,1,99.9999999999999,8|2,0:0|0:0,0:0:0:0:
439,207,56445,2,0,L|432:146,1,50,8|2,0:0|0:0,0:0:0:0:
417,58,56959,5,8,0:0:0:0:
340,122,57302,2,0,P|272:131|222:133,2,99.9999999999999,2|0|2,0:0|0:0|0:0,0:0:0:0:
295,32,58331,6,0,P|243:35|186:42,1,99.9999999999999,8|2,0:0|0:0,0:0:0:0:
137,122,59016,2,0,L|76:114,2,50,0|8|2,0:0|0:0|0:0,0:0:0:0:
202,197,59702,6,0,P|255:188|314:182,2,99.9999999999999,8|2|0,0:0|0:0|0:0,0:0:0:0:
183,243,60559,2,0,P|181:273|180:307,1,50,8|2,0:0|0:0,0:0:0:0:
80,287,61073,6,0,L|67:178,1,99.9999999999999,8|2,0:0|0:0,0:0:0:0:
81,139,61588,1,0,0:0:0:0:
121,110,61759,2,0,P|168:108|236:117,1,99.9999999999999,0|2,0:0|0:0,0:0:0:0:
279,194,62445,6,0,P|331:187|389:179,2,99.9999999999999,8|2|0,0:0|0:0|0:0,0:0:0:0:
257,291,63473,1,2,0:0:0:0:
337,351,63816,6,0,P|373:350|404:350,1,50,8|2,0:0|3:0,0:0:0:0:
437,347,64159,2,0,P|459:302|468:249,1,99.9999999999999,2|2,3:0|3:0,0:0:0:0:
456,153,64845,1,2,3:0:0:0:
373,96,65188,6,0,L|310:106,2,50,2|2|2,3:0|2:0|3:0,0:0:0:0:
337,189,65873,2,0,L|274:199,2,50,2|2|2,3:0|2:0|3:0,0:0:0:0:
306,284,66559,6,0,L|249:294,2,50,12|2|2,1:0|2:0|0:0,0:0:0:0:
344,316,67073,2,0,P|397:337|450:326,1,99.9999999999999,2|8,2:0|0:0,0:0:0:0:
479,301,67588,1,2,1:0:0:0:
490,201,67931,6,0,L|483:145,1,50,8|2,0:0|2:0,0:0:0:0:
470,103,68273,2,0,L|409:86,1,50,2|2,0:0|2:0,0:0:0:0:
372,80,68616,1,0,0:0:0:0:
321,166,68959,1,2,0:0:0:0:
272,253,69302,6,0,P|216:243|163:230,1,99.9999999999999,8|2,0:0|0:0,0:0:0:0:
145,191,69816,2,0,P|100:208|44:230,1,99.9999999999999,2|8,2:0|0:0,0:0:0:0:
28,271,70331,1,2,0:0:0:0:
105,335,70673,6,0,P|137:339|171:342,1,50,8|2,0:0|2:0,0:0:0:0:
194,371,71016,2,0,P|249:363|307:356,1,99.9999999999999,2|0,0:0|0:0,0:0:0:0:
391,339,71702,1,2,0:0:0:0:
457,264,72045,6,0,P|416:241|353:246,1,99.9999999999999,8|2,0:0|0:0,0:0:0:0:
323,271,72559,2,0,P|328:204|332:161,1,99.9999999999999,2|8,2:0|0:0,0:0:0:0:
338,121,73073,1,2,0:0:0:0:
432,66,73416,6,0,L|425:15,2,50,8|2|2,0:0|2:0|0:0,0:0:0:0:
439,115,73931,1,2,2:0:0:0:
445,164,74102,2,0,P|452:225|457:266,1,99.9999999999999,0|2,0:0|0:0,0:0:0:0:
398,344,74788,6,0,P|357:368|300:373,1,99.9999999999999,8|2,0:0|0:0,0:0:0:0:
266,342,75302,2,0,P|223:327|154:337,1,99.9999999999999,2|8,2:0|0:0,0:0:0:0:
124,352,75816,1,2,0:0:0:0:
66,270,76159,6,0,P|68:225|72:159,1,99.9999999999999,8|2,0:0|0:0,0:0:0:0:
164,132,76845,2,0,P|162:177|158:243,1,99.9999999999999,0|2,0:0|0:0,0:0:0:0:
215,313,77531,6,0,L|268:306,2,50,12|2|2,1:0|2:0|0:0,0:0:0:0:
172,340,78045,2,0,P|126:365|69:351,1,99.9999999999999,2|8,2:0|0:0,0:0:0:0:
35,335,78559,1,2,0:0:0:0:
23,235,78902,6,0,L|19:179,1,50,8|2,0:0|2:0,0:0:0:0:
56,151,79245,2,0,L|58:91,1,50,2|2,0:0|2:0,0:0:0:0:
59,50,79588,2,0,P|103:63|162:69,1,99.9999999999999,0|2,0:0|0:0,0:0:0:0:
221,145,80273,6,0,P|269:131|325:125,1,99.9999999999999,8|2,0:0|0:0,0:0:0:0:
349,165,80788,2,0,P|399:186|454:187,1,99.9999999999999,2|8,2:0|0:0,0:0:0:0:
487,162,81302,1,2,0:0:0:0:
430,78,81645,6,0,L|371:85,1,50,8|2,0:0|2:0,0:0:0:0:
345,48,81988,2,0,P|291:44|236:55,1,99.9999999999999,2|0,0:0|0:0,0:0:0:0:
222,148,82673,1,2,0:0:0:0:
192,243,83016,6,0,P|148:235|93:211,1,99.9999999999999,8|2,0:0|0:0,0:0:0:0:
50,194,83531,2,0,P|60:244|65:300,1,99.9999999999999,2|8,2:0|0:0,0:0:0:0:
68,342,84045,1,2,0:0:0:0:
166,364,84388,6,0,L|220:368,1,50,8|2,0:0|2:0,0:0:0:0:
248,329,84731,2,0,L|302:324,1,50,2|2,0:0|2:0,0:0:0:0:
339,351,85073,2,0,P|372:368|439:372,1,99.9999999999999,0|2,0:0|0:0,0:0:0:0:
498,296,85759,6,0,P|465:279|398:275,1,99.9999999999999,8|2,0:0|0:0,0:0:0:0:
356,256,86273,2,0,L|357:211|359:152,1,99.9999999999999,2|8,2:0|0:0,0:0:0:0:
361,105,86788,1,2,0:0:0:0:
302,23,87131,6,0,P|349:4|403:14,1,99.9999999999999,12|12,0:0|0:0,0:0:0:0:
442,99,87816,2,0,P|427:151|385:182,1,99.9999999999999,12|12,0:0|0:0,0:0:0:0:
296,206,88502,6,0,L|290:149,1,50,12|2,0:0|2:0,0:0:0:0:
325,118,88845,2,0,L|327:66,1,50,2|2,0:0|2:0,0:0:0:0:
302,23,89188,2,0,P|256:23|199:34,1,99.9999999999999,0|2,0:0|0:0,0:0:0:0:
110,71,89873,6,0,P|111:112|118:174,1,99.9999999999999,8|2,0:0|0:0,0:0:0:0:
182,246,90559,2,0,L|178:299,2,50,0|8|2,0:0|0:0|0:0,0:0:0:0:
206,148,91245,6,0,L|257:142,1,50,8|2,0:0|2:0,0:0:0:0:
293,175,91588,2,0,L|344:180,1,50,2|2,0:0|2:0,0:0:0:0:
373,140,91931,2,0,P|412:119|469:119,1,99.9999999999999,0|2,0:0|0:0,0:0:0:0:
440,216,92616,6,0,L|438:270,2,50,8|2|2,0:0|2:0|0:0,0:0:0:0:
348,256,93302,2,0,L|346:310,2,50,0|8|2,0:0|0:0|0:0,0:0:0:0:
256,299,93988,6,0,L|254:353,1,50,8|2,0:0|2:0,0:0:0:0:
211,375,94331,2,0,P|183:376|157:375,1,50,2|2,0:0|2:0,0:0:0:0:
118,349,94673,2,0,P|112:294|106:249,1,99.9999999999999,0|2,0:0|0:0,0:0:0:0:
202,221,95359,6,0,P|203:166|205:119,1,99.9999999999999,8|2,0:0|0:0,0:0:0:0:
305,124,96045,2,0,P|307:173|307:223,1,99.9999999999999,0|2,0:0|0:0,0:0:0:0:
375,297,96731,6,0,L|377:351,1,50,8|2,0:0|2:0,0:0:0:0:
420,371,97074,2,0,P|448:372|474:371,1,50,2|2,0:0|2:0,0:0:0:0:
506,337,97416,2,0,P|507:299|509:234,1,99.9999999999999,0|2,0:0|0:0,0:0:0:0:
416,197,98102,6,0,L|409:145,2,50,8|2|2,0:0|2:0|0:0,0:0:0:0:
493,133,98788,2,0,L|495:79,2,50,0|8|2,0:0|0:0|0:0,0:0:0:0:
417,67,99473,6,0,L|362:62,1,50,8|2,0:0|2:0,0:0:0:0:
334,100,99816,2,0,L|281:106,1,50,2|2,0:0|2:0,0:0:0:0:
244,75,100159,2,0,L|190:71,2,50,0|8|2,0:0|0:0|0:0,0:0:0:0:
183,154,100845,6,0,L|130:166,1,50,8|2,0:0|2:0,0:0:0:0:
88,143,101188,2,0,P|97:187|106:246,1,99.9999999999999,2|0,0:0|0:0,0:0:0:0:
88,288,101702,2,0,L|39:280,2,50,8|2|2,0:0|0:0|2:0,0:0:0:0:
122,324,102216,6,0,L|174:312,1,50,8|2,0:0|2:0,0:0:0:0:
219,299,102559,1,2,0:0:0:0:
281,377,102902,2,0,L|381:353,1,99.9999999999999,0|2,0:0|0:0,0:0:0:0:
472,316,103588,6,0,L|471:367,2,50,8|2|2,0:0|2:0|0:0,0:0:0:0:
395,251,104273,2,0,L|387:197,2,50,0|8|2,0:0|0:0|0:0,0:0:0:0:
469,184,104959,6,0,P|470:136|470:82,1,99.9999999999999,8|2,0:0|0:0,0:0:0:0:
376,46,105645,2,0,P|347:52|324:57,1,50,0|8,0:0|0:0,0:0:0:0:
301,99,105988,2,0,L|248:95,1,50,2|2,0:0|2:0,0:0:0:0:
226,51,106331,6,0,L|125:64,1,99.9999999999999,8|2,0:0|0:0,0:0:0:0:
84,154,107016,2,0,L|90:205,2,50,0|8|2,0:0|0:0|0:0,0:0:0:0:
182,132,107702,6,0,P|182:181|179:232,1,99.9999999999999,8|2,0:0|0:0,0:0:0:0:
157,277,108216,1,2,2:0:0:0:
110,295,108388,2,0,P|53:294|15:272,1,99.9999999999999,0|2,0:0|0:0,0:0:0:0:
9,173,109073,5,8,0:0:0:0:
100,131,109416,2,0,L|102:29,2,99.9999999999999,2|0|2,0:0|0:0|0:0,0:0:0:0:
182,188,110445,1,12,0:0:0:0:
265,242,110788,6,0,P|336:234|412:206,1,150,6|8,0:0|0:0,0:0:0:0:
421,158,111473,2,0,L|424:105,1,50,2|2,0:0|2:0,0:0:0:0:
398,64,111816,6,0,P|351:52|295:46,1,99.9999999999999,8|2,0:0|0:0,0:0:0:0:
224,111,112502,2,0,L|227:164,1,50,0|8,0:0|0:0,0:0:0:0:
267,192,112845,2,0,L|264:247,1,50,2|2,0:0|2:0,0:0:0:0:
261,292,113188,6,0,P|217:305|163:302,1,99.9999999999999,8|2,0:0|0:0,0:0:0:0:
146,254,113702,2,0,P|90:242|47:241,1,99.9999999999999,2|8,2:0|0:0,0:0:0:0:
7,271,114216,1,2,0:0:0:0:
85,333,114559,5,8,0:0:0:0:
146,254,114902,2,0,L|141:150,1,99.9999999999999,2|0,0:0|0:0,0:0:0:0:
227,103,115588,1,2,0:0:0:0:
293,177,115931,6,0,L|288:282,1,99.9999999999999,8|2,0:0|0:0,0:0:0:0:
312,321,116445,2,0,P|362:336|414:337,1,99.9999999999999,2|8,2:0|0:0,0:0:0:0:
456,318,116959,1,2,0:0:0:0:
471,217,117302,6,0,P|419:223|381:252,1,99.9999999999999,8|2,0:0|0:0,0:0:0:0:
312,321,117988,2,0,P|259:329|214:311,1,99.9999999999999,0|2,0:0|0:0,0:0:0:0:
145,242,118673,6,0,L|149:141,1,99.9999999999999,8|2,0:0|0:0,0:0:0:0:
166,101,119166,2,0,P|216:83|268:83,1,106.25,0|8,0:0|0:0,0:0:0:0:
302,120,119702,1,2,0:0:0:0:
319,221,120045,6,0,L|311:323,1,99.9999999999999,8|2,0:0|0:0,0:0:0:0:
271,351,120559,2,0,P|228:366|171:364,1,99.9999999999999,2|8,2:0|0:0,0:0:0:0:
138,329,121073,1,2,0:0:0:0:
99,236,121416,6,0,P|164:230|202:251,1,99.9999999999999,8|2,0:0|0:0,0:0:0:0:
225,283,121931,1,2,2:0:0:0:
255,322,122102,2,0,P|319:342|365:331,1,99.9999999999999,0|2,0:0|0:0,0:0:0:0:
423,267,122788,6,0,P|408:201|375:167,1,99.9999999999999,8|2,0:0|0:0,0:0:0:0:
313,111,123473,2,0,P|320:72|368:14,1,99.9999999999999,0|2,0:0|0:0,0:0:0:0:
256,192,124159,12,0,126216,0:0:0:0:
210,280,126902,6,0,P|259:296|308:276,1,99.9999999999999,8|2,0:0|0:0,0:0:0:0:
256,192,127588,1,0,0:0:0:0:
172,136,127931,2,0,P|256:90|340:136,1,200,2|2,0:0|0:0,0:0:0:0:
340,236,128959,2,0,P|308:273|244:286,1,99.9999999999999,0|2,0:0|0:0,0:0:0:0:
160,291,129645,6,0,L|108:285,1,50,8|2,0:0|2:0,0:0:0:0:
67,252,129988,2,0,P|45:173|55:93,1,150,2|8,0:0|0:0,0:0:0:0:
86,70,130673,1,2,0:0:0:0:
181,101,131016,6,0,P|196:153|194:218,1,99.9999999999999,4|4,0:0|0:0,0:0:0:0:
160,291,131702,1,4,0:0:0:0:
67,252,132045,1,4,0:0:0:0:
105,159,132388,6,0,B|144:166|171:191|171:191|232:166|232:166|268:171|296:188,1,200,4|0,0:0|0:0,0:0:0:0:
353,116,143359,6,0,P|348:76|380:20,1,99.9999999999999,2|2,0:0|0:0,0:0:0:0:
471,49,144045,2,0,P|475:88|443:144,1,99.9999999999999,2|0,0:0|0:0,0:0:0:0:
378,212,144731,6,0,P|309:203|220:194,1,150,8|2,0:0|0:0,0:0:0:0:
200,235,145416,1,2,0:0:0:0:
262,312,145759,2,0,L|328:305,1,50,2|2,0:0|0:0,0:0:0:0:
359,321,146102,6,0,P|408:348|459:339,1,99.9999999999999,2|2,0:0|0:0,0:0:0:0:
474,245,146788,2,0,P|425:218|374:227,1,99.9999999999999,2|0,0:0|0:0,0:0:0:0:
289,259,147473,6,0,P|208:266|132:271,1,150,2|2,0:0|0:0,0:0:0:0:
106,232,148159,1,8,0:0:0:0:
160,148,148502,2,0,L|228:155,1,50,2|2,0:0|0:0,0:0:0:0:
259,162,148845,6,0,P|282:119|266:62,1,99.9999999999999,2|2,0:0|0:0,0:0:0:0:
173,56,149531,2,0,P|150:99|166:156,1,99.9999999999999,2|0,0:0|0:0,0:0:0:0:
202,238,150216,6,0,P|276:246|362:253,1,150,2|2,0:0|0:0,0:0:0:0:
383,213,150902,1,8,0:0:0:0:
321,134,151245,2,0,L|265:143,1,50,2|2,0:0|0:0,0:0:0:0:
263,191,151588,6,0,P|261:239|296:297,1,99.9999999999999,2|2,0:0|0:0,0:0:0:0:
379,257,152273,2,0,P|381:209|346:151,1,99.9999999999999,2|0,0:0|0:0,0:0:0:0:
291,88,152959,6,0,P|195:100|125:111,1,150,2|2,0:0|0:0,0:0:0:0:
113,149,153645,1,8,0:0:0:0:
168,234,153988,2,0,L|220:236,1,50,2|2,0:0|0:0,0:0:0:0:
267,240,154331,6,0,P|282:276|277:349,1,99.9999999999999,2|0,0:0|0:0,0:0:0:0:
236,358,154845,1,0,0:0:0:0:
186,363,155016,2,0,P|139:362|87:338,1,99.9999999999999,2|0,0:0|0:0,0:0:0:0:
68,296,155531,6,0,P|71:219|74:140,1,150,2|2,0:0|0:0,0:0:0:0:
122,58,156388,1,2,0:0:0:0:
208,108,156731,2,0,L|215:177,1,50,2|0,0:0|0:0,0:0:0:0:
224,206,157073,6,0,P|277:192|341:191,1,99.9999999999999,2|2,0:0|0:0,0:0:0:0:
417,219,157759,2,0,P|417:263|415:318,1,99.9999999999999,2|2,0:0|0:0,0:0:0:0:
381,356,158273,1,2,0:0:0:0:
332,367,158445,6,0,P|278:364|232:358,2,99.9999999999999,0|2|2,0:0|0:0|0:0,0:0:0:0:
295,273,159473,1,2,0:0:0:0:
198,248,159816,6,0,P|157:255|96:269,1,99.9999999999999,0|2,0:0|0:0,0:0:0:0:
71,364,160502,2,0,P|118:356|174:343,1,99.9999999999999,2|2,0:0|0:0,0:0:0:0:
218,334,161016,5,2,0:0:0:0:
312,301,161359,2,0,L|309:356,2,50,0|2|0,0:0|0:0|0:0,0:0:0:0:
311,250,161873,2,0,P|267:228|212:237,1,99.9999999999999,2|2,0:0|0:0,0:0:0:0:
172,255,162388,6,0,B|156:171|187:104,1,150,2|2,0:0|0:0,0:0:0:0:
281,80,163245,2,0,P|331:83|385:88,1,99.9999999999999,2|2,0:0|0:0,0:0:0:0:
419,119,163759,1,2,0:0:0:0:
441,163,163931,6,0,L|435:262,2,99.9999999999999,2|2|2,0:0|0:0|0:0,0:0:0:0:
343,185,164959,1,2,0:0:0:0:
343,185,165302,6,0,L|337:285,1,99.9999999999999,4|2,2:0|0:0,0:0:0:0:
273,360,165988,1,2,0:0:0:0:
192,300,166331,1,0,0:0:0:0:
192,300,166502,6,0,L|184:248,1,50,2|0,0:0|0:0,0:0:0:0:
225,222,166845,2,0,L|229:119,1,99.9999999999999,2|2,0:0|0:0,0:0:0:0:
232,72,167359,2,0,L|182:80,2,50,2|0|2,0:0|0:0|0:0,0:0:0:0:
331,52,168045,6,0,P|341:104|350:153,1,99.9999999999999,2|2,0:0|0:0,0:0:0:0:
440,194,168731,1,2,0:0:0:0:
405,288,169073,2,0,L|354:284,1,50,2|0,0:0|0:0,0:0:0:0:
326,325,169416,6,0,L|225:333,2,99.9999999999999,2|2|2,0:0|0:0|0:0,0:0:0:0:
412,376,170445,1,2,0:0:0:0:
456,354,170616,6,0,B|487:316|487:316|476:212,1,150,2|2,0:0|0:0,0:0:0:0:
455,117,171473,2,0,P|410:107|354:107,1,99.9999999999999,2|2,0:0|0:0,0:0:0:0:
315,135,171988,1,2,0:0:0:0:
278,168,172159,6,0,B|242:194|242:194|185:179,2,99.9999999999999,0|2|2,0:0|0:0|0:0,0:0:0:0:
221,85,173188,1,2,0:0:0:0:
221,85,173359,6,0,P|168:88|114:96,1,106.25,2|0,0:0|0:0,0:0:0:0:
81,123,173873,1,2,0:0:0:0:
109,219,174216,1,2,0:0:0:0:
109,219,174388,2,0,P|157:225|208:230,1,99.9999999999999,2|2,0:0|0:0,0:0:0:0:
256,192,174902,12,8,176273,0:0:0:0:
256,91,176959,6,0,L|256:207,1,99.9999999999999,8|2,0:0|0:0,0:0:0:0:
326,263,177645,2,0,P|376:273|428:271,1,99.9999999999999,8|2,0:0|0:0,0:0:0:0:
467,245,178159,2,0,P|479:196|464:95,1,150,0|2,0:0|0:0,0:0:0:0:
381,44,179016,5,8,0:0:0:0:
321,124,179359,2,0,L|268:120,1,50,2|0,0:0|0:0,0:0:0:0:
234,85,179702,2,0,L|183:97,2,50,8|0|2,0:0|0:0|0:0,0:0:0:0:
227,185,180388,6,0,L|221:287,1,99.9999999999999,8|2,0:0|0:0,0:0:0:0:
200,330,180902,2,0,P|154:347|68:302,1,150,0|2,0:0|0:0,0:0:0:0:
56,204,181759,5,8,0:0:0:0:
148,243,182102,1,2,0:0:0:0:
227,185,182445,2,0,L|221:82,1,99.9999999999999,8|2,0:0|0:0,0:0:0:0:
314,121,183131,6,0,L|318:221,1,99.9999999999999,8|2,0:0|0:0,0:0:0:0:
410,182,183816,1,8,0:0:0:0:
485,247,184159,2,0,L|481:300,1,50,2|0,0:0|0:0,0:0:0:0:
465,344,184502,6,0,P|423:356|367:346,1,99.9999999999999,8|2,0:0|0:0,0:0:0:0:
318,259,185188,2,0,P|261:259|220:278,1,99.9999999999999,8|2,0:0|0:0,0:0:0:0:
162,356,185873,6,0,L|62:344,1,99.9999999999999,8|2,0:0|0:0,0:0:0:0:
42,299,186388,2,0,P|33:251|44:196,1,106.25,0|0,0:0|0:0,0:0:0:0:
76,165,186902,1,2,0:0:0:0:
168,205,187245,5,12,1:0:0:0:
242,138,187588,2,0,L|226:34,2,99.9999999999999,2|12|2,0:0|0:0|0:0,0:0:0:0:
302,217,188616,5,12,0:0:0:0:
369,291,188959,2,0,L|473:275,2,99.9999999999999,2|12|2,0:0|0:0|0:0,0:0:0:0:
273,322,189988,5,12,0:0:0:0:
203,250,190331,2,0,L|99:266,2,99.9999999999999,2|12|2,0:0|0:0|0:0,0:0:0:0:
302,217,191359,5,12,0:0:0:0:
376,150,191702,2,0,L|360:47,2,99.9999999999999,2|12|2,0:0|0:0|0:0,0:0:0:0:
392,248,192731,6,0,L|398:300,2,50,12|12|12,0:0|0:0|0:0,0:0:0:0:
298,211,193416,2,0,L|246:217,2,50,12|12|12,0:0|0:0|0:0,0:0:0:0:
326,119,194102,2,0,L|320:67,2,50,12|12|12,0:0|0:0|0:0,0:0:0:0:
421,149,194788,2,0,L|473:143,2,50,12|12|12,0:0|0:0|0:0,0:0:0:0:
256,192,195473,12,0,198216,0:0:0:0:
429,316,200959,6,0,L|479:321,2,50,12|0|2,0:0|0:0|0:0,0:0:0:0:
379,320,201473,2,0,B|337:369|269:350,1,99.9999999999999,2|8,2:0|0:0,0:0:0:0:
245,329,201988,1,2,0:0:0:0:
186,248,202331,6,0,L|137:255,2,50,8|2|2,0:0|2:0|0:0,0:0:0:0:
249,170,203016,2,0,L|304:173,2,50,0|8|2,0:0|0:0|0:0,0:0:0:0:
151,145,203702,6,0,P|143:104|153:44,1,99.9999999999999,8|2,0:0|0:0,0:0:0:0:
198,27,204216,2,0,P|246:25|300:33,1,99.9999999999999,2|8,2:0|0:0,0:0:0:0:
333,67,204731,1,2,0:0:0:0:
331,166,205073,6,0,L|331:217,2,50,8|2|2,0:0|2:0|0:0,0:0:0:0:
426,133,205759,2,0,L|417:80,2,50,0|8|2,0:0|0:0|0:0,0:0:0:0:
417,232,206445,6,0,P|393:276|348:301,1,99.9999999999999,8|2,0:0|0:0,0:0:0:0:
304,281,206959,2,0,P|261:273|185:278,1,99.9999999999999,2|8,2:0|0:0,0:0:0:0:
159,296,207473,1,2,0:0:0:0:
78,355,207816,6,0,L|67:291,2,50,8|2|2,0:0|2:0|0:0,0:0:0:0:
159,296,208502,2,0,L|157:230,2,50,0|8|2,0:0|0:0|0:0,0:0:0:0:
241,353,209188,6,0,P|288:370|354:368,1,99.9999999999999,8|2,0:0|0:0,0:0:0:0:
367,330,209702,2,0,P|408:307|477:313,1,99.9999999999999,2|8,2:0|0:0,0:0:0:0:
504,330,210216,1,2,0:0:0:0:
510,230,210559,5,8,0:0:0:0:
449,150,210902,2,0,P|396:180|291:177,1,150,2|8,0:0|0:0,0:0:0:0:
268,151,211588,1,2,0:0:0:0:
265,50,211931,6,0,L|317:45,2,50,12|2|2,0:0|2:0|0:0,0:0:0:0:
214,53,212445,2,0,P|177:86|163:136,1,99.9999999999999,2|8,2:0|0:0,0:0:0:0:
172,182,212959,1,2,0:0:0:0:
240,254,213302,6,0,L|245:312,2,50,8|2|2,0:0|2:0|0:0,0:0:0:0:
150,299,213988,2,0,L|147:355,2,50,0|8|2,0:0|0:0|0:0,0:0:0:0:
81,226,214673,6,0,P|75:174|94:112,1,99.9999999999999,8|2,0:0|0:0,0:0:0:0:
132,109,215188,2,0,P|185:102|228:122,1,99.9999999999999,2|8,2:0|0:0,0:0:0:0:
257,159,215702,1,2,0:0:0:0:
247,258,216045,6,0,L|242:317,2,50,8|2|2,0:0|2:0|0:0,0:0:0:0:
335,305,216731,2,0,L|336:366,2,50,0|8|2,0:0|0:0|0:0,0:0:0:0:
416,244,217416,6,0,P|431:190|421:137,1,99.9999999999999,8|2,0:0|0:0,0:0:0:0:
389,111,217931,2,0,P|330:132|286:136,1,99.9999999999999,2|8,2:0|0:0,0:0:0:0:
254,103,218445,1,2,0:0:0:0:
305,17,218788,6,0,L|367:21,2,50,8|2|2,0:0|2:0|0:0,0:0:0:0:
254,103,219473,2,0,L|190:96,2,50,0|8|2,0:0|0:0|0:0,0:0:0:0:
297,193,220159,6,0,P|304:233|304:314,1,99.9999999999999,8|2,0:0|0:0,0:0:0:0:
269,327,220673,2,0,P|206:325|159:299,1,99.9999999999999,2|8,2:0|0:0,0:0:0:0:
138,272,221188,1,2,0:0:0:0:
123,173,221531,6,0,L|118:114,2,50,2|0|2,2:0|0:0|2:0,0:0:0:0:
201,110,222216,2,0,L|203:48,2,50,2|0|2,0:0|0:0|2:0,0:0:0:0:
256,193,222902,1,8,0:0:0:0:
345,149,223245,6,0,P|426:136|488:154,1,143.75,6|0,0:0|0:0,0:0:0:0:
501,206,223931,1,2,0:0:0:0:
480,303,224273,6,0,P|435:322|383:323,1,99.9999999999999,8|2,0:0|0:0,0:0:0:0:
320,246,224959,2,0,L|322:185,1,50,0|8,0:0|0:0,0:0:0:0:
345,149,225302,2,0,L|340:88,1,50,2|2,0:0|2:0,0:0:0:0:
336,49,225645,6,0,P|274:38|219:41,1,99.9999999999999,8|2,0:0|0:0,0:0:0:0:
209,80,226159,2,0,P|174:105|101:113,1,99.9999999999999,2|8,2:0|0:0,0:0:0:0:
72,95,226673,1,2,0:0:0:0:
131,14,227016,5,8,0:0:0:0:
209,80,227359,2,0,L|204:193,1,99.9999999999999,2|0,0:0|0:0,0:0:0:0:
278,248,228045,2,0,L|339:240,1,50,2|2,0:0|2:0,0:0:0:0:
376,232,228388,6,0,P|396:270|401:337,1,99.9999999999999,8|2,0:0|0:0,0:0:0:0:
366,361,228902,2,0,P|321:361|250:353,1,99.9999999999999,2|8,2:0|0:0,0:0:0:0:
221,332,229416,1,2,0:0:0:0:
184,238,229759,6,0,P|182:170|187:116,1,99.9999999999999,8|2,0:0|0:0,0:0:0:0:
259,79,230445,2,0,L|314:73,2,50,0|8|2,0:0|0:0|0:0,0:0:0:0:
307,166,231131,6,0,P|356:175|417:173,1,99.9999999999999,8|2,0:0|0:0,0:0:0:0:
453,157,231645,2,0,P|463:120|448:42,1,99.9999999999999,2|8,2:0|0:0,0:0:0:0:
433,14,232159,1,2,0:0:0:0:
360,83,232502,6,0,P|314:69|256:76,1,99.9999999999999,8|2,0:0|0:0,0:0:0:0:
220,101,233016,1,2,2:0:0:0:
207,150,233188,2,0,L|214:204,2,50,0|8|2,0:0|0:0|0:0,0:0:0:0:
304,176,233873,6,0,L|303:292,1,99.9999999999999,12|2,0:0|0:0,0:0:0:0:
292,325,234388,1,2,2:0:0:0:
252,355,234559,2,0,P|191:369|143:361,1,99.9999999999999,0|2,0:0|0:0,0:0:0:0:
86,290,235245,6,0,P|80:227|79:179,1,99.9999999999999,8|2,0:0|0:0,0:0:0:0:
91,141,235759,1,2,2:0:0:0:
131,111,235931,2,0,P|179:110|235:119,1,99.9999999999999,0|2,0:0|0:0,0:0:0:0:
286,200,236616,5,8,0:0:0:0:
367,142,236959,2,0,L|363:86,1,50,2|2,0:0|2:0,0:0:0:0:
355,42,237302,2,0,L|300:34,2,50,0|8|2,0:0|0:0|0:0,0:0:0:0:
450,72,237988,6,0,P|458:120|456:188,1,99.9999999999999,8|2,0:0|0:0,0:0:0:0:
440,218,238502,1,2,2:0:0:0:
395,240,238673,2,0,L|336:232,2,50,0|8|2,0:0|0:0|0:0,0:0:0:0:
461,315,239359,6,0,P|412:338|357:335,1,99.9999999999999,8|2,0:0|0:0,0:0:0:0:
320,318,239873,1,2,2:0:0:0:
273,299,240045,2,0,L|171:306,1,99.9999999999999,0|2,0:0|0:0,0:0:0:0:
84,353,240731,6,0,P|73:303|87:247,1,99.9999999999999,8|2,0:0|0:0,0:0:0:0:
123,226,241245,1,2,2:0:0:0:
164,198,241416,2,0,L|155:93,1,99.9999999999999,0|2,0:0|0:0,0:0:0:0:
65,53,242102,5,8,0:0:0:0:
75,152,242445,1,2,0:0:0:0:
164,198,242788,2,0,L|218:190,2,50,0|8|2,0:0|0:0|0:0,0:0:0:0:
180,99,243473,6,0,P|244:90|298:87,1,99.9999999999999,4|0,0:0|0:0,0:0:0:0:
328,100,243988,1,0,0:0:0:0:
360,137,244159,2,0,L|356:189,1,50,0|8,0:0|0:0,0:0:0:0:
308,274,244673,1,0,0:0:0:0:
308,274,244845,6,0,L|251:268,1,50,12|2,0:0|2:0,0:0:0:0:
225,306,245188,2,0,L|154:312,1,50,2|2,0:0|2:0,0:0:0:0:
143,271,245531,2,0,P|92:243|3:262,1,150,0|2,0:0|2:0,0:0:0:0:
6,310,246216,5,8,0:0:0:0:
94,356,246559,1,2,0:0:0:0:
143,271,246902,2,0,L|143:216,2,50,0|8|2,0:0|0:0|0:0,0:0:0:0:
230,221,247588,6,0,P|226:160|223:117,1,99.9999999999999,0|2,0:0|0:0,0:0:0:0:
198,77,248102,1,2,2:0:0:0:
152,57,248273,2,0,P|100:62|52:81,1,99.9999999999999,0|2,0:0|0:0,0:0:0:0:
18,172,248959,6,0,P|22:233|25:276,2,99.9999999999999,8|2|0,0:0|0:0|0:0,0:0:0:0:
116,199,249988,1,2,0:0:0:0:
168,284,250331,6,0,P|206:299|273:297,1,99.9999999999999,0|2,0:0|0:0,0:0:0:0:
328,220,251016,2,0,L|391:204,1,50,0|8,0:0|0:0,0:0:0:0:
427,208,251359,1,2,0:0:0:0:
484,290,251702,6,0,P|441:307|366:287,1,99.9999999999999,8|2,0:0|0:0,0:0:0:0:
328,220,252388,2,0,L|328:105,1,99.9999999999999,0|2,0:0|0:0,0:0:0:0:
363,84,252902,6,0,P|404:73|469:81,1,99.9999999999999,2|2,2:0|2:0,0:0:0:0:
482,124,253416,1,2,0:0:0:0:
427,208,253759,2,0,P|361:216|310:222,1,99.9999999999999,0|2,0:0|0:0,0:0:0:0:
285,192,254273,1,2,2:0:0:0:
239,169,254445,2,0,P|185:174|114:185,2,99.9999999999999,8|2|0,0:0|0:0|0:0,0:0:0:0:
277,76,255473,1,2,0:0:0:0:
366,121,255816,6,0,P|379:175|381:220,1,99.9999999999999,12|2,0:0|0:0,0:0:0:0:
372,266,256331,1,2,2:0:0:0:
342,306,256502,2,0,P|287:301|243:296,1,99.9999999999999,0|2,0:0|0:0,0:0:0:0:
166,361,257188,6,0,P|114:358|73:329,1,99.9999999999999,8|2,0:0|0:0,0:0:0:0:
61,232,257873,2,0,L|57:181,2,50,0|8|2,0:0|0:0|0:0,0:0:0:0:
149,185,258559,6,0,L|149:83,1,99.9999999999999,8|2,0:0|0:0,0:0:0:0:
240,43,259245,2,0,P|283:42|342:60,1,99.9999999999999,0|2,0:0|0:0,0:0:0:0:
369,96,259759,1,2,2:0:0:0:
403,132,259931,6,0,B|449:142|449:142|498:118,2,99.9999999999999,8|2|0,0:0|0:0|0:0,0:0:0:0:
362,223,260959,1,2,0:0:0:0:
315,311,261302,6,0,B|263:324|263:324|216:297,1,99.9999999999999,8|2,0:0|0:0,0:0:0:0:
191,207,261988,1,0,0:0:0:0:
283,169,262331,2,0,L|279:116,1,50,2|2,0:0|2:0,0:0:0:0:
249,79,262673,6,0,B|206:60|206:60|153:68,2,99.9999999999999,8|2|0,0:0|0:0|0:0,0:0:0:0:
320,149,263702,1,2,0:0:0:0:
256,192,264045,12,0,266788,0:0:0:0:
