osu file format v14

[General]
AudioFilename: TwoThirds & Feint feat. Veela - Epiphany.mp3
AudioLeadIn: 0
PreviewTime: 131805
Countdown: 0
SampleSet: None
StackLeniency: 0.7
Mode: 3
LetterboxInBreaks: 0
SpecialStyle: 0
WidescreenStoryboard: 0

[Editor]
DistanceSpacing: 0.8
BeatDivisor: 4
GridSize: 32
TimelineZoom: 1

[Metadata]
Title:Epiphany (feat. Veela)
TitleUnicode:Epiphany (feat. Veela)
Artist:TwoThirds & Feint
ArtistUnicode:TwoThirds & Feint
Creator:Shoegazer
Version:Revelation
Source:
Tags:liquid drum and bass dnb wiosna
BeatmapID:2819570
BeatmapSetID:928528

[Difficulty]
HPDrainRate:8
CircleSize:4
OverallDifficulty:8
ApproachRate:5
SliderMultiplier:1.4
SliderTickRate:1

[Events]
//Background and Video events
0,0,"bg.png",0,0
//Break Periods
//Storyboard Layer 0 (Background)
//Storyboard Layer 1 (Fail)
//Storyboard Layer 2 (Pass)
//Storyboard Layer 3 (Foreground)
//Storyboard Layer 4 (Overlay)
//Storyboard Sound Samples

[TimingPoints]
148,342.857143,4,3,0,35,1,0

[HitObjects]
64,192,148,5,0,0:0:0:0:
448,192,148,1,0,0:0:0:0:
192,192,148,1,0,0:0:0:0:
192,192,490,1,0,0:0:0:0:
192,192,662,1,0,0:0:0:0:
448,192,1005,1,0,0:0:0:0:
320,192,1005,1,0,0:0:0:0:
64,192,1176,1,0,0:0:0:0:
320,192,1519,1,0,0:0:0:0:
192,192,1690,1,0,0:0:0:0:
64,192,1690,1,0,0:0:0:0:
448,192,1862,1,0,0:0:0:0:
448,192,2033,1,0,0:0:0:0:
448,192,2376,1,0,0:0:0:0:
320,192,2376,1,0,0:0:0:0:
192,192,2548,1,0,0:0:0:0:
448,192,2633,1,0,0:0:0:0:
192,192,2719,1,0,0:0:0:0:
448,192,2805,1,0,0:0:0:0:
192,192,2890,1,0,0:0:0:0:
64,192,2890,1,0,0:0:0:0:
448,192,3233,1,0,0:0:0:0:
448,192,3405,1,0,0:0:0:0:
192,192,3748,1,0,0:0:0:0:
64,192,3748,1,0,0:0:0:0:
320,192,3919,1,0,0:0:0:0:
192,192,4262,1,0,0:0:0:0:
448,192,4433,1,0,0:0:0:0:
320,192,4433,1,0,0:0:0:0:
64,192,4605,1,0,0:0:0:0:
64,192,4776,1,0,0:0:0:0:
192,192,5119,1,0,0:0:0:0:
64,192,5119,1,0,0:0:0:0:
320,192,5290,1,0,0:0:0:0:
64,192,5376,1,0,0:0:0:0:
320,192,5462,1,0,0:0:0:0:
64,192,5548,1,0,0:0:0:0:
448,192,5633,1,0,0:0:0:0:
320,192,5633,1,0,0:0:0:0:
64,192,5976,1,0,0:0:0:0:
64,192,6148,1,0,0:0:0:0:
448,192,6490,1,0,0:0:0:0:
320,192,6490,1,0,0:0:0:0:
192,192,6662,1,0,0:0:0:0:
448,192,7005,1,0,0:0:0:0:
192,192,7176,1,0,0:0:0:0:
64,192,7176,1,0,0:0:0:0:
320,192,7348,1,0,0:0:0:0:
320,192,7519,1,0,0:0:0:0:
448,192,7862,1,0,0:0:0:0:
320,192,7862,1,0,0:0:0:0:
64,192,8033,1,0,0:0:0:0:
320,192,8119,1,0,0:0:0:0:
64,192,8205,1,0,0:0:0:0:
320,192,8290,1,0,0:0:0:0:
192,192,8376,1,0,0:0:0:0:
64,192,8376,1,0,0:0:0:0:
448,192,8719,1,0,0:0:0:0:
448,192,8890,1,0,0:0:0:0:
192,192,9233,1,0,0:0:0:0:
64,192,9233,1,0,0:0:0:0:
320,192,9405,1,0,0:0:0:0:
64,192,9748,1,0,0:0:0:0:
448,192,9919,1,0,0:0:0:0:
320,192,9919,1,0,0:0:0:0:
192,192,10090,1,0,0:0:0:0:
192,192,10262,1,0,0:0:0:0:
192,192,10605,1,0,0:0:0:0:
64,192,10605,1,0,0:0:0:0:
448,192,10776,1,0,0:0:0:0:
192,192,10862,1,0,0:0:0:0:
448,192,10948,1,0,0:0:0:0:
192,192,11033,1,0,0:0:0:0:
448,192,11119,1,0,0:0:0:0:
320,192,11119,1,0,0:0:0:0:
192,192,11462,1,0,0:0:0:0:
192,192,11633,1,0,0:0:0:0:
448,192,11976,1,0,0:0:0:0:
320,192,11976,1,0,0:0:0:0:
64,192,12148,1,0,0:0:0:0:
320,192,12490,1,0,0:0:0:0:
192,192,12662,1,0,0:0:0:0:
64,192,12662,1,0,0:0:0:0:
448,192,12833,1,0,0:0:0:0:
448,192,13005,1,0,0:0:0:0:
448,192,13348,1,0,0:0:0:0:
320,192,13348,1,0,0:0:0:0:
192,192,13519,1,0,0:0:0:0:
448,192,13605,1,0,0:0:0:0:
192,192,13690,1,0,0:0:0:0:
448,192,13776,1,0,0:0:0:0:
192,192,13862,1,0,0:0:0:0:
64,192,13862,1,0,0:0:0:0:
448,192,14205,1,0,0:0:0:0:
448,192,14376,1,0,0:0:0:0:
192,192,14719,1,0,0:0:0:0:
64,192,14719,1,0,0:0:0:0:
320,192,14890,1,0,0:0:0:0:
192,192,15233,1,0,0:0:0:0:
448,192,15405,1,0,0:0:0:0:
320,192,15405,1,0,0:0:0:0:
64,192,15576,1,0,0:0:0:0:
64,192,15748,1,0,0:0:0:0:
192,192,16090,1,0,0:0:0:0:
64,192,16090,1,0,0:0:0:0:
320,192,16262,1,0,0:0:0:0:
64,192,16348,1,0,0:0:0:0:
320,192,16433,1,0,0:0:0:0:
64,192,16519,1,0,0:0:0:0:
448,192,16605,1,0,0:0:0:0:
320,192,16605,1,0,0:0:0:0:
64,192,16948,1,0,0:0:0:0:
64,192,17119,1,0,0:0:0:0:
448,192,17462,1,0,0:0:0:0:
320,192,17462,1,0,0:0:0:0:
448,192,17633,1,0,0:0:0:0:
192,192,17633,1,0,0:0:0:0:
64,192,17633,1,0,0:0:0:0:
448,192,17976,1,0,0:0:0:0:
192,192,18148,1,0,0:0:0:0:
64,192,18148,1,0,0:0:0:0:
448,192,18319,1,0,0:0:0:0:
320,192,18319,1,0,0:0:0:0:
64,192,18319,1,0,0:0:0:0:
320,192,18490,1,0,0:0:0:0:
448,192,18833,1,0,0:0:0:0:
320,192,18833,1,0,0:0:0:0:
64,192,19005,1,0,0:0:0:0:
320,192,19090,1,0,0:0:0:0:
64,192,19176,1,0,0:0:0:0:
320,192,19262,1,0,0:0:0:0:
192,192,19348,1,0,0:0:0:0:
64,192,19348,1,0,0:0:0:0:
448,192,19690,1,0,0:0:0:0:
192,192,19690,1,0,0:0:0:0:
64,192,19690,1,0,0:0:0:0:
448,192,19862,1,0,0:0:0:0:
192,192,20205,1,0,0:0:0:0:
64,192,20205,1,0,0:0:0:0:
448,192,20376,1,0,0:0:0:0:
320,192,20376,1,0,0:0:0:0:
64,192,20376,1,0,0:0:0:0:
64,192,20719,1,0,0:0:0:0:
448,192,20890,1,0,0:0:0:0:
320,192,20890,1,0,0:0:0:0:
448,192,21062,1,0,0:0:0:0:
192,192,21062,1,0,0:0:0:0:
64,192,21062,1,0,0:0:0:0:
192,192,21233,1,0,0:0:0:0:
192,192,21576,1,0,0:0:0:0:
64,192,21576,1,0,0:0:0:0:
448,192,21748,1,0,0:0:0:0:
192,192,21833,1,0,0:0:0:0:
448,192,21919,1,0,0:0:0:0:
192,192,22005,1,0,0:0:0:0:
448,192,22090,1,0,0:0:0:0:
320,192,22090,1,0,0:0:0:0:
64,192,22090,1,0,0:0:0:0:
192,192,22262,1,0,0:0:0:0:
448,192,22433,1,0,0:0:0:0:
192,192,22433,1,0,0:0:0:0:
64,192,22433,1,0,0:0:0:0:
320,192,22605,1,0,0:0:0:0:
192,192,22690,1,0,0:0:0:0:
448,192,22776,1,0,0:0:0:0:
192,192,22948,1,0,0:0:0:0:
64,192,22948,1,0,0:0:0:0:
448,192,23119,1,0,0:0:0:0:
320,192,23119,1,0,0:0:0:0:
64,192,23119,1,0,0:0:0:0:
192,192,23290,1,0,0:0:0:0:
320,192,23376,1,0,0:0:0:0:
192,192,23462,1,0,0:0:0:0:
448,192,23633,1,0,0:0:0:0:
320,192,23633,1,0,0:0:0:0:
448,192,23805,1,0,0:0:0:0:
192,192,23805,1,0,0:0:0:0:
64,192,23805,1,0,0:0:0:0:
320,192,23976,1,0,0:0:0:0:
448,192,24148,1,0,0:0:0:0:
64,192,24148,1,0,0:0:0:0:
192,192,24319,1,0,0:0:0:0:
64,192,24319,1,0,0:0:0:0:
448,192,24490,1,0,0:0:0:0:
320,192,24490,1,0,0:0:0:0:
192,192,24490,1,0,0:0:0:0:
64,192,24576,1,0,0:0:0:0:
320,192,24662,1,0,0:0:0:0:
192,192,24748,1,0,0:0:0:0:
320,192,24833,1,0,0:0:0:0:
64,192,24833,1,0,0:0:0:0:
448,192,25005,1,0,0:0:0:0:
448,192,25176,1,0,0:0:0:0:
320,192,25176,1,0,0:0:0:0:
64,192,25176,1,0,0:0:0:0:
192,192,25348,1,0,0:0:0:0:
320,192,25433,1,0,0:0:0:0:
64,192,25519,1,0,0:0:0:0:
448,192,25690,1,0,0:0:0:0:
320,192,25690,1,0,0:0:0:0:
448,192,25862,1,0,0:0:0:0:
192,192,25862,1,0,0:0:0:0:
64,192,25862,1,0,0:0:0:0:
320,192,26033,1,0,0:0:0:0:
192,192,26119,1,0,0:0:0:0:
320,192,26205,1,0,0:0:0:0:
192,192,26376,1,0,0:0:0:0:
64,192,26376,1,0,0:0:0:0:
448,192,26548,1,0,0:0:0:0:
320,192,26548,1,0,0:0:0:0:
64,192,26548,1,0,0:0:0:0:
192,192,26719,1,0,0:0:0:0:
448,192,26890,1,0,0:0:0:0:
64,192,26890,1,0,0:0:0:0:
448,192,27062,1,0,0:0:0:0:
320,192,27062,1,0,0:0:0:0:
320,192,27233,1,0,0:0:0:0:
192,192,27233,1,0,0:0:0:0:
64,192,27233,1,0,0:0:0:0:
448,192,27319,1,0,0:0:0:0:
192,192,27405,1,0,0:0:0:0:
320,192,27490,1,0,0:0:0:0:
192,192,27576,1,0,0:0:0:0:
64,192,27576,1,0,0:0:0:0:
320,192,27748,1,0,0:0:0:0:
448,192,27919,1,0,0:0:0:0:
320,192,27919,1,0,0:0:0:0:
64,192,27919,1,0,0:0:0:0:
192,192,28090,1,0,0:0:0:0:
320,192,28176,1,0,0:0:0:0:
64,192,28262,1,0,0:0:0:0:
448,192,28433,1,0,0:0:0:0:
320,192,28433,1,0,0:0:0:0:
448,192,28605,1,0,0:0:0:0:
192,192,28605,1,0,0:0:0:0:
64,192,28605,1,0,0:0:0:0:
320,192,28776,1,0,0:0:0:0:
192,192,28862,1,0,0:0:0:0:
320,192,28948,1,0,0:0:0:0:
192,192,29119,1,0,0:0:0:0:
64,192,29119,1,0,0:0:0:0:
448,192,29290,1,0,0:0:0:0:
320,192,29290,1,0,0:0:0:0:
64,192,29290,1,0,0:0:0:0:
192,192,29462,1,0,0:0:0:0:
192,192,29633,1,0,0:0:0:0:
448,192,29805,1,0,0:0:0:0:
320,192,29805,1,0,0:0:0:0:
320,192,29976,1,0,0:0:0:0:
192,192,29976,1,0,0:0:0:0:
64,192,29976,1,0,0:0:0:0:
448,192,30062,1,0,0:0:0:0:
192,192,30148,1,0,0:0:0:0:
320,192,30233,1,0,0:0:0:0:
448,192,30319,1,0,0:0:0:0:
64,192,30319,1,0,0:0:0:0:
192,192,30490,1,0,0:0:0:0:
448,192,30662,1,0,0:0:0:0:
192,192,30662,1,0,0:0:0:0:
64,192,30662,1,0,0:0:0:0:
320,192,30833,1,0,0:0:0:0:
192,192,30919,1,0,0:0:0:0:
448,192,31005,1,0,0:0:0:0:
192,192,31176,1,0,0:0:0:0:
64,192,31176,1,0,0:0:0:0:
448,192,31348,1,0,0:0:0:0:
320,192,31348,1,0,0:0:0:0:
64,192,31348,1,0,0:0:0:0:
192,192,31519,1,0,0:0:0:0:
448,192,31605,1,0,0:0:0:0:
320,192,31690,1,0,0:0:0:0:
64,192,31690,1,0,0:0:0:0:
448,192,31862,1,0,0:0:0:0:
320,192,31862,1,0,0:0:0:0:
448,192,32033,1,0,0:0:0:0:
192,192,32033,1,0,0:0:0:0:
64,192,32033,1,0,0:0:0:0:
320,192,32205,1,0,0:0:0:0:
320,192,32376,1,0,0:0:0:0:
192,192,32548,1,0,0:0:0:0:
64,192,32548,1,0,0:0:0:0:
448,192,32719,1,0,0:0:0:0:
320,192,32719,1,0,0:0:0:0:
192,192,32719,1,0,0:0:0:0:
64,192,32805,1,0,0:0:0:0:
320,192,32890,1,0,0:0:0:0:
192,192,32976,1,0,0:0:0:0:
448,192,33062,1,0,0:0:0:0:
320,192,33062,1,0,0:0:0:0:
64,192,33233,1,0,0:0:0:0:
448,192,33405,1,0,0:0:0:0:
192,192,33405,1,0,0:0:0:0:
64,192,33405,1,0,0:0:0:0:
320,192,33576,1,0,0:0:0:0:
64,192,33662,1,0,0:0:0:0:
448,192,33748,1,0,0:0:0:0:
192,192,33919,1,0,0:0:0:0:
64,192,33919,1,0,0:0:0:0:
448,192,34090,1,0,0:0:0:0:
320,192,34090,1,0,0:0:0:0:
192,192,34090,1,0,0:0:0:0:
64,192,34262,1,0,0:0:0:0:
320,192,34348,1,0,0:0:0:0:
64,192,34433,1,0,0:0:0:0:
448,192,34605,1,0,0:0:0:0:
320,192,34605,1,0,0:0:0:0:
448,192,34776,1,0,0:0:0:0:
192,192,34776,1,0,0:0:0:0:
64,192,34776,1,0,0:0:0:0:
320,192,34948,1,0,0:0:0:0:
448,192,35119,1,0,0:0:0:0:
64,192,35119,1,0,0:0:0:0:
192,192,35290,1,0,0:0:0:0:
64,192,35290,1,0,0:0:0:0:
448,192,35462,1,0,0:0:0:0:
320,192,35462,1,0,0:0:0:0:
192,192,35462,1,0,0:0:0:0:
64,192,35548,1,0,0:0:0:0:
320,192,35633,1,0,0:0:0:0:
192,192,35719,1,0,0:0:0:0:
320,192,35805,1,0,0:0:0:0:
64,192,35805,1,0,0:0:0:0:
448,192,35976,1,0,0:0:0:0:
448,192,36148,1,0,0:0:0:0:
320,192,36148,1,0,0:0:0:0:
192,192,36148,1,0,0:0:0:0:
64,192,36319,1,0,0:0:0:0:
320,192,36405,1,0,0:0:0:0:
192,192,36490,1,0,0:0:0:0:
448,192,36662,1,0,0:0:0:0:
320,192,36662,1,0,0:0:0:0:
448,192,36833,1,0,0:0:0:0:
192,192,36833,1,0,0:0:0:0:
64,192,36833,1,0,0:0:0:0:
320,192,37005,1,0,0:0:0:0:
64,192,37090,1,0,0:0:0:0:
320,192,37176,1,0,0:0:0:0:
192,192,37348,1,0,0:0:0:0:
64,192,37348,1,0,0:0:0:0:
448,192,37519,1,0,0:0:0:0:
320,192,37519,1,0,0:0:0:0:
64,192,37519,1,0,0:0:0:0:
192,192,37690,1,0,0:0:0:0:
448,192,37862,1,0,0:0:0:0:
64,192,37862,1,0,0:0:0:0:
448,192,38033,1,0,0:0:0:0:
320,192,38033,1,0,0:0:0:0:
320,192,38205,1,0,0:0:0:0:
192,192,38205,1,0,0:0:0:0:
64,192,38205,1,0,0:0:0:0:
448,192,38290,1,0,0:0:0:0:
192,192,38376,1,0,0:0:0:0:
320,192,38462,1,0,0:0:0:0:
192,192,38548,1,0,0:0:0:0:
64,192,38548,1,0,0:0:0:0:
320,192,38719,1,0,0:0:0:0:
448,192,38890,1,0,0:0:0:0:
320,192,38890,1,0,0:0:0:0:
192,192,38890,1,0,0:0:0:0:
64,192,39062,1,0,0:0:0:0:
320,192,39148,1,0,0:0:0:0:
192,192,39233,1,0,0:0:0:0:
448,192,39405,1,0,0:0:0:0:
320,192,39405,1,0,0:0:0:0:
448,192,39576,1,0,0:0:0:0:
192,192,39576,1,0,0:0:0:0:
64,192,39576,1,0,0:0:0:0:
320,192,39748,1,0,0:0:0:0:
64,192,39833,1,0,0:0:0:0:
320,192,39919,1,0,0:0:0:0:
192,192,40090,1,0,0:0:0:0:
64,192,40090,1,0,0:0:0:0:
448,192,40262,1,0,0:0:0:0:
320,192,40262,1,0,0:0:0:0:
192,192,40262,1,0,0:0:0:0:
64,192,40433,1,0,0:0:0:0:
64,192,40605,1,0,0:0:0:0:
448,192,40776,1,0,0:0:0:0:
320,192,40776,1,0,0:0:0:0:
320,192,40948,1,0,0:0:0:0:
192,192,40948,1,0,0:0:0:0:
64,192,40948,1,0,0:0:0:0:
448,192,41033,1,0,0:0:0:0:
64,192,41119,1,0,0:0:0:0:
320,192,41205,1,0,0:0:0:0:
448,192,41290,1,0,0:0:0:0:
192,192,41290,1,0,0:0:0:0:
64,192,41462,1,0,0:0:0:0:
448,192,41633,1,0,0:0:0:0:
192,192,41633,1,0,0:0:0:0:
64,192,41633,1,0,0:0:0:0:
320,192,41805,1,0,0:0:0:0:
64,192,41890,1,0,0:0:0:0:
448,192,41976,1,0,0:0:0:0:
192,192,42148,1,0,0:0:0:0:
64,192,42148,1,0,0:0:0:0:
448,192,42319,1,0,0:0:0:0:
320,192,42319,1,0,0:0:0:0:
64,192,42319,1,0,0:0:0:0:
192,192,42490,1,0,0:0:0:0:
448,192,42576,1,0,0:0:0:0:
320,192,42662,1,0,0:0:0:0:
64,192,42662,1,0,0:0:0:0:
448,192,42833,1,0,0:0:0:0:
320,192,42833,1,0,0:0:0:0:
448,192,43005,1,0,0:0:0:0:
192,192,43005,1,0,0:0:0:0:
64,192,43005,1,0,0:0:0:0:
320,192,43176,1,0,0:0:0:0:
320,192,43348,1,0,0:0:0:0:
192,192,43519,1,0,0:0:0:0:
64,192,43519,1,0,0:0:0:0:
448,192,43690,1,0,0:0:0:0:
320,192,43690,1,0,0:0:0:0:
64,192,43690,1,0,0:0:0:0:
192,192,43776,1,0,0:0:0:0:
320,192,43862,1,0,0:0:0:0:
192,192,43948,1,0,0:0:0:0:
448,192,44033,1,0,0:0:0:0:
320,192,44033,1,0,0:0:0:0:
64,192,44033,1,0,0:0:0:0:
192,192,44205,1,0,0:0:0:0:
448,192,44376,1,0,0:0:0:0:
192,192,44376,1,0,0:0:0:0:
64,192,44376,1,0,0:0:0:0:
320,192,44548,1,0,0:0:0:0:
192,192,44633,1,0,0:0:0:0:
320,192,44719,1,0,0:0:0:0:
64,192,44719,1,0,0:0:0:0:
64,192,44890,1,0,0:0:0:0:
448,192,45062,1,0,0:0:0:0:
320,192,45062,1,0,0:0:0:0:
192,192,45062,1,0,0:0:0:0:
448,192,45233,1,0,0:0:0:0:
64,192,45233,1,0,0:0:0:0:
192,192,45319,1,0,0:0:0:0:
320,192,45405,1,0,0:0:0:0:
192,192,45576,1,0,0:0:0:0:
64,192,45576,1,0,0:0:0:0:
448,192,45748,1,0,0:0:0:0:
320,192,45748,1,0,0:0:0:0:
64,192,45748,1,0,0:0:0:0:
192,192,45919,1,0,0:0:0:0:
192,192,46090,1,0,0:0:0:0:
448,192,46262,1,0,0:0:0:0:
320,192,46262,1,0,0:0:0:0:
448,192,46433,1,0,0:0:0:0:
320,192,46433,1,0,0:0:0:0:
64,192,46433,1,0,0:0:0:0:
192,192,46519,1,0,0:0:0:0:
320,192,46605,1,0,0:0:0:0:
64,192,46690,1,0,0:0:0:0:
448,192,46776,1,0,0:0:0:0:
320,192,46948,1,0,0:0:0:0:
64,192,46948,1,0,0:0:0:0:
64,192,47119,1,0,0:0:0:0:
448,192,47290,1,0,0:0:0:0:
192,192,47290,1,0,0:0:0:0:
64,192,47376,1,0,0:0:0:0:
320,192,47462,1,0,0:0:0:0:
192,192,47633,1,0,0:0:0:0:
64,192,47633,1,0,0:0:0:0:
448,192,47805,1,0,0:0:0:0:
320,192,47805,1,0,0:0:0:0:
64,192,47805,1,0,0:0:0:0:
448,192,47976,1,0,0:0:0:0:
192,192,47976,1,0,0:0:0:0:
320,192,48062,1,0,0:0:0:0:
192,192,48148,1,0,0:0:0:0:
448,192,48319,1,0,0:0:0:0:
320,192,48319,1,0,0:0:0:0:
448,192,48490,1,0,0:0:0:0:
320,192,48490,1,0,0:0:0:0:
64,192,48490,1,0,0:0:0:0:
192,192,48662,1,0,0:0:0:0:
320,192,48833,1,0,0:0:0:0:
64,192,48833,1,0,0:0:0:0:
448,192,49005,1,0,0:0:0:0:
320,192,49005,1,0,0:0:0:0:
448,192,49176,1,0,0:0:0:0:
192,192,49176,1,0,0:0:0:0:
64,192,49176,1,0,0:0:0:0:
320,192,49262,1,0,0:0:0:0:
64,192,49348,1,0,0:0:0:0:
448,192,49433,1,0,0:0:0:0:
192,192,49519,1,0,0:0:0:0:
64,192,49519,1,0,0:0:0:0:
320,192,49690,1,0,0:0:0:0:
448,192,49862,1,0,0:0:0:0:
320,192,49862,1,0,0:0:0:0:
64,192,49862,1,0,0:0:0:0:
192,192,50033,1,0,0:0:0:0:
320,192,50119,1,0,0:0:0:0:
64,192,50205,1,0,0:0:0:0:
448,192,50376,1,0,0:0:0:0:
320,192,50376,1,0,0:0:0:0:
448,192,50548,1,0,0:0:0:0:
192,192,50548,1,0,0:0:0:0:
64,192,50548,1,0,0:0:0:0:
320,192,50719,1,0,0:0:0:0:
192,192,50805,1,0,0:0:0:0:
320,192,50890,1,0,0:0:0:0:
192,192,51062,1,0,0:0:0:0:
64,192,51062,1,0,0:0:0:0:
448,192,51233,1,0,0:0:0:0:
320,192,51233,1,0,0:0:0:0:
64,192,51233,1,0,0:0:0:0:
192,192,51405,1,0,0:0:0:0:
192,192,51576,1,0,0:0:0:0:
448,192,51748,1,0,0:0:0:0:
320,192,51748,1,0,0:0:0:0:
320,192,51919,1,0,0:0:0:0:
192,192,51919,1,0,0:0:0:0:
64,192,51919,1,0,0:0:0:0:
448,192,52005,1,0,0:0:0:0:
192,192,52090,1,0,0:0:0:0:
320,192,52176,1,0,0:0:0:0:
448,192,52262,1,0,0:0:0:0:
64,192,52262,1,0,0:0:0:0:
192,192,52433,1,0,0:0:0:0:
448,192,52605,1,0,0:0:0:0:
192,192,52605,1,0,0:0:0:0:
64,192,52605,1,0,0:0:0:0:
320,192,52776,1,0,0:0:0:0:
192,192,52862,1,0,0:0:0:0:
448,192,52948,1,0,0:0:0:0:
192,192,53119,1,0,0:0:0:0:
64,192,53119,1,0,0:0:0:0:
448,192,53290,1,0,0:0:0:0:
320,192,53290,1,0,0:0:0:0:
64,192,53290,1,0,0:0:0:0:
192,192,53462,1,0,0:0:0:0:
448,192,53548,1,0,0:0:0:0:
320,192,53633,1,0,0:0:0:0:
64,192,53633,1,0,0:0:0:0:
448,192,53805,1,0,0:0:0:0:
320,192,53805,1,0,0:0:0:0:
448,192,53976,1,0,0:0:0:0:
192,192,53976,1,0,0:0:0:0:
64,192,53976,1,0,0:0:0:0:
320,192,54148,1,0,0:0:0:0:
320,192,54319,1,0,0:0:0:0:
192,192,54490,1,0,0:0:0:0:
64,192,54490,1,0,0:0:0:0:
448,192,54662,1,0,0:0:0:0:
320,192,54662,1,0,0:0:0:0:
192,192,54662,1,0,0:0:0:0:
64,192,54748,1,0,0:0:0:0:
320,192,54833,1,0,0:0:0:0:
192,192,54919,1,0,0:0:0:0:
448,192,55005,1,0,0:0:0:0:
320,192,55005,1,0,0:0:0:0:
192,192,55176,1,0,0:0:0:0:
448,192,55348,1,0,0:0:0:0:
192,192,55348,1,0,0:0:0:0:
64,192,55348,1,0,0:0:0:0:
320,192,55519,1,0,0:0:0:0:
192,192,55605,1,0,0:0:0:0:
320,192,55690,1,0,0:0:0:0:
64,192,55690,1,0,0:0:0:0:
64,192,55862,1,0,0:0:0:0:
448,192,56033,1,0,0:0:0:0:
320,192,56033,1,0,0:0:0:0:
192,192,56033,1,0,0:0:0:0:
448,192,56205,1,0,0:0:0:0:
64,192,56205,1,0,0:0:0:0:
192,192,56290,1,0,0:0:0:0:
320,192,56376,1,0,0:0:0:0:
192,192,56548,1,0,0:0:0:0:
64,192,56548,1,0,0:0:0:0:
448,192,56719,1,0,0:0:0:0:
320,192,56719,1,0,0:0:0:0:
64,192,56719,1,0,0:0:0:0:
192,192,56890,1,0,0:0:0:0:
192,192,57062,1,0,0:0:0:0:
448,192,57233,1,0,0:0:0:0:
320,192,57233,1,0,0:0:0:0:
448,192,57405,1,0,0:0:0:0:
320,192,57405,1,0,0:0:0:0:
64,192,57405,1,0,0:0:0:0:
192,192,57490,1,0,0:0:0:0:
320,192,57576,1,0,0:0:0:0:
64,192,57662,1,0,0:0:0:0:
448,192,57748,1,0,0:0:0:0:
320,192,57919,1,0,0:0:0:0:
64,192,57919,1,0,0:0:0:0:
64,192,58090,1,0,0:0:0:0:
448,192,58262,1,0,0:0:0:0:
192,192,58262,1,0,0:0:0:0:
64,192,58348,1,0,0:0:0:0:
320,192,58433,1,0,0:0:0:0:
192,192,58605,1,0,0:0:0:0:
64,192,58605,1,0,0:0:0:0:
448,192,58776,1,0,0:0:0:0:
320,192,58776,1,0,0:0:0:0:
64,192,58776,1,0,0:0:0:0:
448,192,58948,1,0,0:0:0:0:
192,192,58948,1,0,0:0:0:0:
320,192,59033,1,0,0:0:0:0:
192,192,59119,1,0,0:0:0:0:
448,192,59290,1,0,0:0:0:0:
320,192,59290,1,0,0:0:0:0:
448,192,59462,1,0,0:0:0:0:
320,192,59462,1,0,0:0:0:0:
64,192,59462,1,0,0:0:0:0:
192,192,59633,1,0,0:0:0:0:
320,192,59805,1,0,0:0:0:0:
64,192,59805,1,0,0:0:0:0:
448,192,59976,1,0,0:0:0:0:
320,192,59976,1,0,0:0:0:0:
448,192,60148,1,0,0:0:0:0:
192,192,60148,1,0,0:0:0:0:
64,192,60148,1,0,0:0:0:0:
320,192,60233,1,0,0:0:0:0:
64,192,60319,1,0,0:0:0:0:
448,192,60405,1,0,0:0:0:0:
192,192,60490,1,0,0:0:0:0:
64,192,60490,1,0,0:0:0:0:
320,192,60662,1,0,0:0:0:0:
448,192,60833,1,0,0:0:0:0:
320,192,60833,1,0,0:0:0:0:
64,192,60833,1,0,0:0:0:0:
192,192,61005,1,0,0:0:0:0:
448,192,61090,1,0,0:0:0:0:
64,192,61176,1,0,0:0:0:0:
448,192,61348,1,0,0:0:0:0:
320,192,61348,1,0,0:0:0:0:
448,192,61519,1,0,0:0:0:0:
192,192,61519,1,0,0:0:0:0:
64,192,61519,1,0,0:0:0:0:
320,192,61690,1,0,0:0:0:0:
192,192,61776,1,0,0:0:0:0:
320,192,61862,1,0,0:0:0:0:
192,192,62033,1,0,0:0:0:0:
64,192,62033,1,0,0:0:0:0:
448,192,62205,1,0,0:0:0:0:
320,192,62205,1,0,0:0:0:0:
64,192,62205,1,0,0:0:0:0:
448,192,62376,1,0,0:0:0:0:
192,192,62376,1,0,0:0:0:0:
320,192,62548,1,0,0:0:0:0:
448,192,62719,1,0,0:0:0:0:
64,192,62719,1,0,0:0:0:0:
320,192,62890,1,0,0:0:0:0:
192,192,62890,1,0,0:0:0:0:
64,192,62890,1,0,0:0:0:0:
448,192,62976,1,0,0:0:0:0:
192,192,63062,1,0,0:0:0:0:
320,192,63148,1,0,0:0:0:0:
448,192,63233,1,0,0:0:0:0:
64,192,63233,1,0,0:0:0:0:
192,192,63405,1,0,0:0:0:0:
64,192,63405,1,0,0:0:0:0:
448,192,63576,1,0,0:0:0:0:
320,192,63576,1,0,0:0:0:0:
64,192,63576,1,0,0:0:0:0:
192,192,63748,1,0,0:0:0:0:
448,192,63833,1,0,0:0:0:0:
320,192,63919,1,0,0:0:0:0:
64,192,63919,1,0,0:0:0:0:
448,192,64090,1,0,0:0:0:0:
320,192,64090,1,0,0:0:0:0:
448,192,64262,1,0,0:0:0:0:
192,192,64262,1,0,0:0:0:0:
64,192,64262,1,0,0:0:0:0:
320,192,64433,1,0,0:0:0:0:
64,192,64433,1,0,0:0:0:0:
192,192,64519,1,0,0:0:0:0:
448,192,64605,1,0,0:0:0:0:
320,192,64605,1,0,0:0:0:0:
448,192,64776,1,0,0:0:0:0:
64,192,64776,1,0,0:0:0:0:
320,192,64948,1,0,0:0:0:0:
192,192,64948,1,0,0:0:0:0:
64,192,64948,1,0,0:0:0:0:
448,192,65119,1,0,0:0:0:0:
192,192,65119,1,0,0:0:0:0:
320,192,65290,1,0,0:0:0:0:
64,192,65290,1,0,0:0:0:0:
192,192,65462,1,0,0:0:0:0:
64,192,65462,1,0,0:0:0:0:
448,192,65633,1,0,0:0:0:0:
320,192,65633,1,0,0:0:0:0:
64,192,65633,1,0,0:0:0:0:
192,192,65719,1,0,0:0:0:0:
448,192,65805,1,0,0:0:0:0:
192,192,65890,1,0,0:0:0:0:
448,192,65976,1,0,0:0:0:0:
320,192,65976,1,0,0:0:0:0:
64,192,65976,1,0,0:0:0:0:
192,192,66148,1,0,0:0:0:0:
448,192,66319,1,0,0:0:0:0:
192,192,66319,1,0,0:0:0:0:
64,192,66319,1,0,0:0:0:0:
320,192,66490,1,0,0:0:0:0:
192,192,66576,1,0,0:0:0:0:
320,192,66662,1,0,0:0:0:0:
64,192,66662,1,0,0:0:0:0:
64,192,66833,1,0,0:0:0:0:
448,192,67005,1,0,0:0:0:0:
320,192,67005,1,0,0:0:0:0:
192,192,67005,1,0,0:0:0:0:
448,192,67176,1,0,0:0:0:0:
64,192,67176,1,0,0:0:0:0:
192,192,67262,1,0,0:0:0:0:
320,192,67348,1,0,0:0:0:0:
192,192,67519,1,0,0:0:0:0:
64,192,67519,1,0,0:0:0:0:
448,192,67690,1,0,0:0:0:0:
320,192,67690,1,0,0:0:0:0:
64,192,67690,1,0,0:0:0:0:
192,192,67862,1,0,0:0:0:0:
320,192,68033,1,0,0:0:0:0:
64,192,68033,1,0,0:0:0:0:
448,192,68205,1,0,0:0:0:0:
448,192,68376,1,0,0:0:0:0:
320,192,68376,1,0,0:0:0:0:
64,192,68376,1,0,0:0:0:0:
192,192,68462,1,0,0:0:0:0:
320,192,68548,1,0,0:0:0:0:
64,192,68633,1,0,0:0:0:0:
448,192,68719,1,0,0:0:0:0:
320,192,68890,1,0,0:0:0:0:
64,192,68890,1,0,0:0:0:0:
64,192,69062,1,0,0:0:0:0:
448,192,69233,1,0,0:0:0:0:
192,192,69233,1,0,0:0:0:0:
64,192,69319,1,0,0:0:0:0:
320,192,69405,1,0,0:0:0:0:
192,192,69576,1,0,0:0:0:0:
64,192,69576,1,0,0:0:0:0:
448,192,69748,1,0,0:0:0:0:
320,192,69748,1,0,0:0:0:0:
64,192,69748,1,0,0:0:0:0:
448,192,69919,1,0,0:0:0:0:
192,192,69919,1,0,0:0:0:0:
320,192,70005,1,0,0:0:0:0:
192,192,70090,1,0,0:0:0:0:
448,192,70262,1,0,0:0:0:0:
64,192,70262,1,0,0:0:0:0:
448,192,70433,1,0,0:0:0:0:
320,192,70433,1,0,0:0:0:0:
64,192,70433,1,0,0:0:0:0:
192,192,70605,1,0,0:0:0:0:
448,192,70776,1,0,0:0:0:0:
320,192,70776,1,0,0:0:0:0:
448,192,70948,1,0,0:0:0:0:
320,192,70948,1,0,0:0:0:0:
448,192,71119,1,0,0:0:0:0:
192,192,71119,1,0,0:0:0:0:
64,192,71119,1,0,0:0:0:0:
320,192,71205,1,0,0:0:0:0:
64,192,71290,1,0,0:0:0:0:
448,192,71376,1,0,0:0:0:0:
192,192,71462,1,0,0:0:0:0:
64,192,71462,1,0,0:0:0:0:
448,192,71633,1,0,0:0:0:0:
320,192,71633,1,0,0:0:0:0:
448,192,71805,1,0,0:0:0:0:
320,192,71805,1,0,0:0:0:0:
64,192,71805,1,0,0:0:0:0:
192,192,71976,1,0,0:0:0:0:
320,192,72062,1,0,0:0:0:0:
192,192,72148,1,0,0:0:0:0:
64,192,72148,1,0,0:0:0:0:
448,192,72319,1,0,0:0:0:0:
320,192,72319,1,0,0:0:0:0:
448,192,72490,1,0,0:0:0:0:
192,192,72490,1,0,0:0:0:0:
64,192,72490,1,0,0:0:0:0:
320,192,72662,1,0,0:0:0:0:
192,192,72748,1,0,0:0:0:0:
448,192,72833,1,0,0:0:0:0:
320,192,72833,1,0,0:0:0:0:
192,192,73005,1,0,0:0:0:0:
64,192,73005,1,0,0:0:0:0:
448,192,73176,1,0,0:0:0:0:
320,192,73176,1,0,0:0:0:0:
64,192,73176,1,0,0:0:0:0:
192,192,73348,1,0,0:0:0:0:
192,192,73519,1,0,0:0:0:0:
448,192,73690,1,0,0:0:0:0:
320,192,73690,1,0,0:0:0:0:
320,192,73862,1,0,0:0:0:0:
192,192,73862,1,0,0:0:0:0:
64,192,73862,1,0,0:0:0:0:
448,192,73948,1,0,0:0:0:0:
192,192,74033,1,0,0:0:0:0:
320,192,74119,1,0,0:0:0:0:
448,192,74205,1,0,0:0:0:0:
64,192,74205,1,0,0:0:0:0:
192,192,74376,1,0,0:0:0:0:
64,192,74376,1,0,0:0:0:0:
448,192,74548,1,0,0:0:0:0:
320,192,74548,1,0,0:0:0:0:
64,192,74548,1,0,0:0:0:0:
448,192,74719,1,0,0:0:0:0:
192,192,74719,1,0,0:0:0:0:
320,192,74805,1,0,0:0:0:0:
192,192,74890,1,0,0:0:0:0:
64,192,74890,1,0,0:0:0:0:
320,192,75062,1,0,0:0:0:0:
64,192,75062,1,0,0:0:0:0:
448,192,75233,1,0,0:0:0:0:
320,192,75233,1,0,0:0:0:0:
192,192,75233,1,0,0:0:0:0:
448,192,75405,1,0,0:0:0:0:
192,192,75405,1,0,0:0:0:0:
320,192,75576,1,0,0:0:0:0:
64,192,75576,1,0,0:0:0:0:
192,192,75748,1,0,0:0:0:0:
64,192,75748,1,0,0:0:0:0:
448,192,75919,1,0,0:0:0:0:
320,192,75919,1,0,0:0:0:0:
64,192,75919,1,0,0:0:0:0:
448,192,76090,1,0,0:0:0:0:
320,192,76090,1,0,0:0:0:0:
448,192,76262,1,0,0:0:0:0:
192,192,76262,1,0,0:0:0:0:
192,192,76433,1,0,0:0:0:0:
64,192,76433,1,0,0:0:0:0:
448,192,76605,1,0,0:0:0:0:
320,192,76605,1,0,0:0:0:0:
64,192,76605,1,0,0:0:0:0:
192,192,76690,1,0,0:0:0:0:
320,192,76776,1,0,0:0:0:0:
64,192,76862,1,0,0:0:0:0:
448,192,76948,1,0,0:0:0:0:
320,192,76948,1,0,0:0:0:0:
192,192,77119,1,0,0:0:0:0:
448,192,77290,1,0,0:0:0:0:
192,192,77290,1,0,0:0:0:0:
64,192,77290,1,0,0:0:0:0:
320,192,77462,1,0,0:0:0:0:
192,192,77548,1,0,0:0:0:0:
448,192,77633,1,0,0:0:0:0:
192,192,77805,1,0,0:0:0:0:
64,192,77805,1,0,0:0:0:0:
448,192,77976,1,0,0:0:0:0:
320,192,77976,1,0,0:0:0:0:
64,192,77976,1,0,0:0:0:0:
192,192,78148,1,0,0:0:0:0:
320,192,78233,1,0,0:0:0:0:
192,192,78319,1,0,0:0:0:0:
448,192,78490,1,0,0:0:0:0:
320,192,78490,1,0,0:0:0:0:
448,192,78662,1,0,0:0:0:0:
192,192,78662,1,0,0:0:0:0:
64,192,78662,1,0,0:0:0:0:
320,192,78833,1,0,0:0:0:0:
448,192,79005,1,0,0:0:0:0:
64,192,79005,1,0,0:0:0:0:
192,192,79176,1,0,0:0:0:0:
64,192,79176,1,0,0:0:0:0:
448,192,79348,1,0,0:0:0:0:
320,192,79348,1,0,0:0:0:0:
192,192,79348,1,0,0:0:0:0:
64,192,79433,1,0,0:0:0:0:
320,192,79519,1,0,0:0:0:0:
192,192,79605,1,0,0:0:0:0:
448,192,79690,1,0,0:0:0:0:
64,192,79690,1,0,0:0:0:0:
192,192,79862,1,0,0:0:0:0:
64,192,79862,1,0,0:0:0:0:
448,192,80033,1,0,0:0:0:0:
320,192,80033,1,0,0:0:0:0:
64,192,80033,1,0,0:0:0:0:
448,192,80205,1,0,0:0:0:0:
192,192,80205,1,0,0:0:0:0:
320,192,80290,1,0,0:0:0:0:
192,192,80376,1,0,0:0:0:0:
64,192,80376,1,0,0:0:0:0:
320,192,80548,1,0,0:0:0:0:
64,192,80548,1,0,0:0:0:0:
448,192,80719,1,0,0:0:0:0:
320,192,80719,1,0,0:0:0:0:
192,192,80719,1,0,0:0:0:0:
448,192,80890,1,0,0:0:0:0:
192,192,80890,1,0,0:0:0:0:
320,192,81062,1,0,0:0:0:0:
64,192,81062,1,0,0:0:0:0:
192,192,81233,1,0,0:0:0:0:
64,192,81233,1,0,0:0:0:0:
448,192,81405,1,0,0:0:0:0:
320,192,81405,1,0,0:0:0:0:
64,192,81405,1,0,0:0:0:0:
448,192,81576,1,0,0:0:0:0:
320,192,81576,1,0,0:0:0:0:
448,192,81748,1,0,0:0:0:0:
192,192,81748,1,0,0:0:0:0:
192,192,81919,1,0,0:0:0:0:
64,192,81919,1,0,0:0:0:0:
448,192,82090,1,0,0:0:0:0:
320,192,82090,1,0,0:0:0:0:
64,192,82090,1,0,0:0:0:0:
192,192,82176,1,0,0:0:0:0:
320,192,82262,1,0,0:0:0:0:
192,192,82348,1,0,0:0:0:0:
448,192,82433,1,0,0:0:0:0:
320,192,82433,1,0,0:0:0:0:
192,192,82605,1,0,0:0:0:0:
448,192,82776,1,0,0:0:0:0:
192,192,82776,1,0,0:0:0:0:
64,192,82776,1,0,0:0:0:0:
320,192,82948,1,0,0:0:0:0:
192,192,83033,1,0,0:0:0:0:
448,192,83119,1,0,0:0:0:0:
192,192,83290,1,0,0:0:0:0:
64,192,83290,1,0,0:0:0:0:
448,192,83462,1,0,0:0:0:0:
320,192,83462,1,0,0:0:0:0:
64,192,83462,1,0,0:0:0:0:
192,192,83633,1,0,0:0:0:0:
320,192,83719,1,0,0:0:0:0:
192,192,83805,1,0,0:0:0:0:
448,192,83976,1,0,0:0:0:0:
320,192,83976,1,0,0:0:0:0:
448,192,84148,1,0,0:0:0:0:
192,192,84148,1,0,0:0:0:0:
64,192,84148,1,0,0:0:0:0:
320,192,84319,1,0,0:0:0:0:
320,192,84490,1,0,0:0:0:0:
192,192,84662,1,0,0:0:0:0:
64,192,84662,1,0,0:0:0:0:
448,192,84833,1,0,0:0:0:0:
320,192,84833,1,0,0:0:0:0:
192,192,84833,1,0,0:0:0:0:
64,192,84919,1,0,0:0:0:0:
320,192,85005,1,0,0:0:0:0:
192,192,85090,1,0,0:0:0:0:
448,192,85176,1,0,0:0:0:0:
64,192,85176,1,0,0:0:0:0:
192,192,85348,1,0,0:0:0:0:
448,192,85519,1,0,0:0:0:0:
192,192,85519,1,0,0:0:0:0:
64,192,85519,1,0,0:0:0:0:
320,192,85690,1,0,0:0:0:0:
192,192,85776,1,0,0:0:0:0:
448,192,85862,1,0,0:0:0:0:
192,192,86033,1,0,0:0:0:0:
64,192,86033,1,0,0:0:0:0:
448,192,86205,1,0,0:0:0:0:
320,192,86205,1,0,0:0:0:0:
64,192,86205,1,0,0:0:0:0:
192,192,86376,1,0,0:0:0:0:
448,192,86462,1,0,0:0:0:0:
320,192,86548,1,0,0:0:0:0:
64,192,86548,1,0,0:0:0:0:
448,192,86719,1,0,0:0:0:0:
320,192,86719,1,0,0:0:0:0:
448,192,86890,1,0,0:0:0:0:
192,192,86890,1,0,0:0:0:0:
64,192,86890,1,0,0:0:0:0:
320,192,87062,1,0,0:0:0:0:
320,192,87233,1,0,0:0:0:0:
192,192,87405,1,0,0:0:0:0:
64,192,87405,1,0,0:0:0:0:
448,192,87576,1,0,0:0:0:0:
320,192,87576,1,0,0:0:0:0:
192,192,87576,1,0,0:0:0:0:
64,192,87662,1,0,0:0:0:0:
320,192,87748,1,0,0:0:0:0:
192,192,87833,1,0,0:0:0:0:
448,192,87919,1,0,0:0:0:0:
320,192,87919,1,0,0:0:0:0:
64,192,87919,1,0,0:0:0:0:
320,192,88262,1,0,0:0:0:0:
192,192,88605,1,0,0:0:0:0:
320,192,89119,1,0,0:0:0:0:
192,192,89462,1,0,0:0:0:0:
320,192,89805,1,0,0:0:0:0:
448,192,89976,1,0,0:0:0:0:
64,192,90148,1,0,0:0:0:0:
448,192,90319,1,0,0:0:0:0:
320,192,90662,1,0,0:0:0:0:
192,192,91005,1,0,0:0:0:0:
64,192,91348,1,0,0:0:0:0:
192,192,91862,1,0,0:0:0:0:
64,192,92205,1,0,0:0:0:0:
192,192,92548,1,0,0:0:0:0:
64,192,92719,1,0,0:0:0:0:
448,192,92890,1,0,0:0:0:0:
192,192,93062,1,0,0:0:0:0:
64,192,93405,1,0,0:0:0:0:
320,192,93748,1,0,0:0:0:0:
192,192,94090,1,0,0:0:0:0:
320,192,94605,1,0,0:0:0:0:
192,192,94948,1,0,0:0:0:0:
320,192,95290,1,0,0:0:0:0:
448,192,95462,1,0,0:0:0:0:
64,192,95633,1,0,0:0:0:0:
448,192,95805,1,0,0:0:0:0:
64,192,96148,1,0,0:0:0:0:
320,192,96490,1,0,0:0:0:0:
192,192,96833,1,0,0:0:0:0:
320,192,97348,1,0,0:0:0:0:
64,192,97690,1,0,0:0:0:0:
192,192,98033,1,0,0:0:0:0:
448,192,98205,1,0,0:0:0:0:
64,192,98376,1,0,0:0:0:0:
320,192,98548,1,0,0:0:0:0:
64,192,98719,1,0,0:0:0:0:
320,192,99233,1,0,0:0:0:0:
192,192,99576,1,0,0:0:0:0:
320,192,100090,1,0,0:0:0:0:
192,192,100433,1,0,0:0:0:0:
320,192,100776,1,0,0:0:0:0:
448,192,100948,1,0,0:0:0:0:
64,192,101119,1,0,0:0:0:0:
448,192,101290,1,0,0:0:0:0:
320,192,101633,1,0,0:0:0:0:
192,192,101976,1,0,0:0:0:0:
64,192,102319,1,0,0:0:0:0:
448,192,102833,1,0,0:0:0:0:
64,192,103176,1,0,0:0:0:0:
192,192,103519,1,0,0:0:0:0:
64,192,103690,1,0,0:0:0:0:
448,192,103862,1,0,0:0:0:0:
192,192,104033,1,0,0:0:0:0:
64,192,104376,1,0,0:0:0:0:
320,192,104719,1,0,0:0:0:0:
192,192,105062,1,0,0:0:0:0:
320,192,105576,1,0,0:0:0:0:
192,192,105919,1,0,0:0:0:0:
320,192,106262,1,0,0:0:0:0:
448,192,106433,1,0,0:0:0:0:
64,192,106605,1,0,0:0:0:0:
448,192,106776,1,0,0:0:0:0:
64,192,107119,1,0,0:0:0:0:
320,192,107462,1,0,0:0:0:0:
192,192,107805,1,0,0:0:0:0:
320,192,108319,1,0,0:0:0:0:
64,192,108662,1,0,0:0:0:0:
192,192,109005,1,0,0:0:0:0:
448,192,109176,1,0,0:0:0:0:
64,192,109348,1,0,0:0:0:0:
448,192,109519,1,0,0:0:0:0:
192,192,109690,1,0,0:0:0:0:
320,192,109776,1,0,0:0:0:0:
448,192,109862,1,0,0:0:0:0:
192,192,109862,1,0,0:0:0:0:
64,192,109862,1,0,0:0:0:0:
320,192,110205,1,0,0:0:0:0:
448,192,110462,1,0,0:0:0:0:
192,192,110548,1,0,0:0:0:0:
64,192,110548,1,0,0:0:0:0:
320,192,111062,1,0,0:0:0:0:
192,192,111405,1,0,0:0:0:0:
320,192,111748,1,0,0:0:0:0:
448,192,111919,1,0,0:0:0:0:
64,192,112090,1,0,0:0:0:0:
448,192,112262,1,0,0:0:0:0:
320,192,112605,1,0,0:0:0:0:
64,192,112605,1,0,0:0:0:0:
192,192,112948,1,0,0:0:0:0:
64,192,113290,1,0,0:0:0:0:
192,192,113805,1,0,0:0:0:0:
64,192,114148,1,0,0:0:0:0:
192,192,114490,1,0,0:0:0:0:
64,192,114662,1,0,0:0:0:0:
448,192,114833,1,0,0:0:0:0:
192,192,115005,1,0,0:0:0:0:
448,192,115348,1,0,0:0:0:0:
64,192,115348,1,0,0:0:0:0:
320,192,115690,1,0,0:0:0:0:
192,192,116033,1,0,0:0:0:0:
320,192,116548,1,0,0:0:0:0:
192,192,116890,1,0,0:0:0:0:
320,192,117233,1,0,0:0:0:0:
448,192,117405,1,0,0:0:0:0:
64,192,117576,1,0,0:0:0:0:
448,192,117748,1,0,0:0:0:0:
192,192,118090,1,0,0:0:0:0:
64,192,118090,1,0,0:0:0:0:
320,192,118433,1,0,0:0:0:0:
192,192,118776,1,0,0:0:0:0:
320,192,119290,1,0,0:0:0:0:
64,192,119633,1,0,0:0:0:0:
192,192,119976,1,0,0:0:0:0:
448,192,120148,1,0,0:0:0:0:
64,192,120319,1,0,0:0:0:0:
320,192,120490,1,0,0:0:0:0:
448,192,120662,1,0,0:0:0:0:
64,192,120662,1,0,0:0:0:0:
320,192,121176,1,0,0:0:0:0:
448,192,121348,1,0,0:0:0:0:
64,192,121348,1,0,0:0:0:0:
192,192,121519,1,0,0:0:0:0:
448,192,121862,1,0,0:0:0:0:
64,192,121862,1,0,0:0:0:0:
320,192,122033,1,0,0:0:0:0:
448,192,122376,1,0,0:0:0:0:
64,192,122376,1,0,0:0:0:0:
320,192,122719,1,0,0:0:0:0:
448,192,122890,1,0,0:0:0:0:
64,192,122890,1,0,0:0:0:0:
192,192,123062,1,0,0:0:0:0:
448,192,123233,1,0,0:0:0:0:
320,192,123576,1,0,0:0:0:0:
192,192,123576,1,0,0:0:0:0:
192,192,123919,1,0,0:0:0:0:
320,192,124090,1,0,0:0:0:0:
192,192,124090,1,0,0:0:0:0:
64,192,124262,1,0,0:0:0:0:
320,192,124605,1,0,0:0:0:0:
192,192,124605,1,0,0:0:0:0:
192,192,124776,1,0,0:0:0:0:
320,192,125119,1,0,0:0:0:0:
192,192,125119,1,0,0:0:0:0:
192,192,125462,1,0,0:0:0:0:
320,192,125633,1,0,0:0:0:0:
192,192,125633,1,0,0:0:0:0:
448,192,125805,1,0,0:0:0:0:
320,192,125976,1,0,0:0:0:0:
192,192,125976,1,0,0:0:0:0:
448,192,126319,1,0,0:0:0:0:
64,192,126319,1,0,0:0:0:0:
320,192,126662,1,0,0:0:0:0:
320,192,126833,1,0,0:0:0:0:
64,192,126833,1,0,0:0:0:0:
192,192,127005,1,0,0:0:0:0:
320,192,127348,1,0,0:0:0:0:
64,192,127348,1,0,0:0:0:0:
320,192,127519,1,0,0:0:0:0:
320,192,127862,1,0,0:0:0:0:
64,192,127862,1,0,0:0:0:0:
320,192,128205,1,0,0:0:0:0:
320,192,128376,1,0,0:0:0:0:
64,192,128376,1,0,0:0:0:0:
192,192,128548,1,0,0:0:0:0:
320,192,128719,1,0,0:0:0:0:
320,192,128890,1,0,0:0:0:0:
64,192,128890,1,0,0:0:0:0:
192,192,129062,1,0,0:0:0:0:
64,192,129062,1,0,0:0:0:0:
320,192,129405,1,0,0:0:0:0:
192,192,129576,1,0,0:0:0:0:
64,192,129576,1,0,0:0:0:0:
192,192,129748,1,0,0:0:0:0:
192,192,130090,1,0,0:0:0:0:
64,192,130090,1,0,0:0:0:0:
320,192,130262,1,0,0:0:0:0:
448,192,130605,1,0,0:0:0:0:
320,192,130605,1,0,0:0:0:0:
192,192,130948,1,0,0:0:0:0:
448,192,131119,1,0,0:0:0:0:
320,192,131119,1,0,0:0:0:0:
64,192,131119,1,0,0:0:0:0:
64,192,131290,1,0,0:0:0:0:
448,192,131462,1,0,0:0:0:0:
192,192,131462,1,0,0:0:0:0:
320,192,131633,1,0,0:0:0:0:
448,192,131805,1,0,0:0:0:0:
192,192,131805,1,0,0:0:0:0:
64,192,131805,1,0,0:0:0:0:
192,192,131976,1,0,0:0:0:0:
64,192,131976,1,0,0:0:0:0:
448,192,132148,1,0,0:0:0:0:
320,192,132148,1,0,0:0:0:0:
64,192,132148,1,0,0:0:0:0:
192,192,132319,1,0,0:0:0:0:
448,192,132405,1,0,0:0:0:0:
320,192,132490,1,0,0:0:0:0:
64,192,132490,1,0,0:0:0:0:
448,192,132662,1,0,0:0:0:0:
320,192,132662,1,0,0:0:0:0:
448,192,132833,1,0,0:0:0:0:
192,192,132833,1,0,0:0:0:0:
64,192,132833,1,0,0:0:0:0:
320,192,133005,1,0,0:0:0:0:
64,192,133090,1,0,0:0:0:0:
448,192,133176,1,0,0:0:0:0:
192,192,133176,1,0,0:0:0:0:
192,192,133348,1,0,0:0:0:0:
64,192,133348,1,0,0:0:0:0:
448,192,133519,1,0,0:0:0:0:
320,192,133519,1,0,0:0:0:0:
64,192,133519,1,0,0:0:0:0:
192,192,133690,1,0,0:0:0:0:
448,192,133862,1,0,0:0:0:0:
64,192,133862,1,0,0:0:0:0:
448,192,134033,1,0,0:0:0:0:
320,192,134033,1,0,0:0:0:0:
320,192,134205,1,0,0:0:0:0:
192,192,134205,1,0,0:0:0:0:
64,192,134205,1,0,0:0:0:0:
448,192,134290,1,0,0:0:0:0:
64,192,134376,1,0,0:0:0:0:
320,192,134462,1,0,0:0:0:0:
192,192,134548,1,0,0:0:0:0:
64,192,134548,1,0,0:0:0:0:
320,192,134719,1,0,0:0:0:0:
448,192,134890,1,0,0:0:0:0:
320,192,134890,1,0,0:0:0:0:
64,192,134890,1,0,0:0:0:0:
192,192,135062,1,0,0:0:0:0:
448,192,135148,1,0,0:0:0:0:
320,192,135233,1,0,0:0:0:0:
64,192,135233,1,0,0:0:0:0:
192,192,135405,1,0,0:0:0:0:
64,192,135405,1,0,0:0:0:0:
448,192,135576,1,0,0:0:0:0:
320,192,135576,1,0,0:0:0:0:
192,192,135576,1,0,0:0:0:0:
448,192,135748,1,0,0:0:0:0:
64,192,135748,1,0,0:0:0:0:
320,192,135833,1,0,0:0:0:0:
192,192,135919,1,0,0:0:0:0:
64,192,135919,1,0,0:0:0:0:
320,192,136090,1,0,0:0:0:0:
192,192,136090,1,0,0:0:0:0:
448,192,136262,1,0,0:0:0:0:
320,192,136262,1,0,0:0:0:0:
64,192,136262,1,0,0:0:0:0:
448,192,136433,1,0,0:0:0:0:
192,192,136433,1,0,0:0:0:0:
320,192,136605,1,0,0:0:0:0:
64,192,136605,1,0,0:0:0:0:
192,192,136776,1,0,0:0:0:0:
64,192,136776,1,0,0:0:0:0:
448,192,136948,1,0,0:0:0:0:
320,192,136948,1,0,0:0:0:0:
64,192,136948,1,0,0:0:0:0:
192,192,137033,1,0,0:0:0:0:
448,192,137119,1,0,0:0:0:0:
64,192,137205,1,0,0:0:0:0:
448,192,137290,1,0,0:0:0:0:
320,192,137290,1,0,0:0:0:0:
192,192,137462,1,0,0:0:0:0:
320,192,137633,1,0,0:0:0:0:
192,192,137633,1,0,0:0:0:0:
64,192,137633,1,0,0:0:0:0:
448,192,137805,1,0,0:0:0:0:
192,192,137890,1,0,0:0:0:0:
320,192,137976,1,0,0:0:0:0:
64,192,137976,1,0,0:0:0:0:
64,192,138148,1,0,0:0:0:0:
448,192,138319,1,0,0:0:0:0:
320,192,138319,1,0,0:0:0:0:
192,192,138319,1,0,0:0:0:0:
448,192,138490,1,0,0:0:0:0:
64,192,138490,1,0,0:0:0:0:
192,192,138576,1,0,0:0:0:0:
320,192,138662,1,0,0:0:0:0:
192,192,138833,1,0,0:0:0:0:
64,192,138833,1,0,0:0:0:0:
448,192,139005,1,0,0:0:0:0:
320,192,139005,1,0,0:0:0:0:
64,192,139005,1,0,0:0:0:0:
192,192,139176,1,0,0:0:0:0:
192,192,139348,1,0,0:0:0:0:
448,192,139519,1,0,0:0:0:0:
320,192,139519,1,0,0:0:0:0:
448,192,139690,1,0,0:0:0:0:
320,192,139690,1,0,0:0:0:0:
64,192,139690,1,0,0:0:0:0:
192,192,139776,1,0,0:0:0:0:
320,192,139862,1,0,0:0:0:0:
64,192,139948,1,0,0:0:0:0:
448,192,140033,1,0,0:0:0:0:
320,192,140205,1,0,0:0:0:0:
64,192,140205,1,0,0:0:0:0:
64,192,140376,1,0,0:0:0:0:
448,192,140548,1,0,0:0:0:0:
192,192,140548,1,0,0:0:0:0:
64,192,140633,1,0,0:0:0:0:
320,192,140719,1,0,0:0:0:0:
192,192,140890,1,0,0:0:0:0:
64,192,140890,1,0,0:0:0:0:
448,192,141062,1,0,0:0:0:0:
320,192,141062,1,0,0:0:0:0:
64,192,141062,1,0,0:0:0:0:
448,192,141233,1,0,0:0:0:0:
192,192,141233,1,0,0:0:0:0:
320,192,141319,1,0,0:0:0:0:
192,192,141405,1,0,0:0:0:0:
448,192,141576,1,0,0:0:0:0:
448,192,141748,1,0,0:0:0:0:
320,192,141748,1,0,0:0:0:0:
64,192,141748,1,0,0:0:0:0:
192,192,141919,1,0,0:0:0:0:
320,192,142090,1,0,0:0:0:0:
64,192,142090,1,0,0:0:0:0:
448,192,142262,1,0,0:0:0:0:
320,192,142262,1,0,0:0:0:0:
448,192,142433,1,0,0:0:0:0:
192,192,142433,1,0,0:0:0:0:
64,192,142433,1,0,0:0:0:0:
320,192,142519,1,0,0:0:0:0:
64,192,142605,1,0,0:0:0:0:
448,192,142690,1,0,0:0:0:0:
320,192,142776,1,0,0:0:0:0:
192,192,142776,1,0,0:0:0:0:
192,192,142948,1,0,0:0:0:0:
64,192,142948,1,0,0:0:0:0:
448,192,143119,1,0,0:0:0:0:
320,192,143119,1,0,0:0:0:0:
64,192,143119,1,0,0:0:0:0:
192,192,143290,1,0,0:0:0:0:
320,192,143376,1,0,0:0:0:0:
448,192,143462,1,0,0:0:0:0:
64,192,143462,1,0,0:0:0:0:
448,192,143633,1,0,0:0:0:0:
320,192,143633,1,0,0:0:0:0:
320,192,143805,1,0,0:0:0:0:
192,192,143805,1,0,0:0:0:0:
64,192,143805,1,0,0:0:0:0:
448,192,143976,1,0,0:0:0:0:
192,192,144062,1,0,0:0:0:0:
320,192,144148,1,0,0:0:0:0:
64,192,144148,1,0,0:0:0:0:
192,192,144319,1,0,0:0:0:0:
64,192,144319,1,0,0:0:0:0:
448,192,144490,1,0,0:0:0:0:
320,192,144490,1,0,0:0:0:0:
192,192,144490,1,0,0:0:0:0:
64,192,144662,1,0,0:0:0:0:
320,192,144833,1,0,0:0:0:0:
192,192,144833,1,0,0:0:0:0:
448,192,145005,1,0,0:0:0:0:
320,192,145005,1,0,0:0:0:0:
448,192,145176,1,0,0:0:0:0:
192,192,145176,1,0,0:0:0:0:
64,192,145176,1,0,0:0:0:0:
320,192,145262,1,0,0:0:0:0:
192,192,145348,1,0,0:0:0:0:
448,192,145433,1,0,0:0:0:0:
192,192,145519,1,0,0:0:0:0:
64,192,145519,1,0,0:0:0:0:
448,192,145690,1,0,0:0:0:0:
320,192,145690,1,0,0:0:0:0:
448,192,145862,1,0,0:0:0:0:
192,192,145862,1,0,0:0:0:0:
64,192,145862,1,0,0:0:0:0:
320,192,146033,1,0,0:0:0:0:
64,192,146119,1,0,0:0:0:0:
448,192,146205,1,0,0:0:0:0:
192,192,146205,1,0,0:0:0:0:
192,192,146376,1,0,0:0:0:0:
64,192,146376,1,0,0:0:0:0:
448,192,146548,1,0,0:0:0:0:
320,192,146548,1,0,0:0:0:0:
64,192,146548,1,0,0:0:0:0:
448,192,146719,1,0,0:0:0:0:
192,192,146719,1,0,0:0:0:0:
320,192,146805,1,0,0:0:0:0:
192,192,146890,1,0,0:0:0:0:
64,192,146890,1,0,0:0:0:0:
448,192,147062,1,0,0:0:0:0:
64,192,147062,1,0,0:0:0:0:
448,192,147233,1,0,0:0:0:0:
320,192,147233,1,0,0:0:0:0:
192,192,147233,1,0,0:0:0:0:
320,192,147405,1,0,0:0:0:0:
64,192,147405,1,0,0:0:0:0:
448,192,147576,1,0,0:0:0:0:
192,192,147576,1,0,0:0:0:0:
192,192,147748,1,0,0:0:0:0:
64,192,147748,1,0,0:0:0:0:
448,192,147919,1,0,0:0:0:0:
320,192,147919,1,0,0:0:0:0:
64,192,147919,1,0,0:0:0:0:
192,192,148005,1,0,0:0:0:0:
448,192,148090,1,0,0:0:0:0:
64,192,148176,1,0,0:0:0:0:
448,192,148262,1,0,0:0:0:0:
320,192,148262,1,0,0:0:0:0:
192,192,148433,1,0,0:0:0:0:
320,192,148605,1,0,0:0:0:0:
192,192,148605,1,0,0:0:0:0:
64,192,148605,1,0,0:0:0:0:
448,192,148776,1,0,0:0:0:0:
192,192,148862,1,0,0:0:0:0:
320,192,148948,1,0,0:0:0:0:
64,192,148948,1,0,0:0:0:0:
64,192,149119,1,0,0:0:0:0:
448,192,149290,1,0,0:0:0:0:
320,192,149290,1,0,0:0:0:0:
192,192,149290,1,0,0:0:0:0:
448,192,149462,1,0,0:0:0:0:
64,192,149462,1,0,0:0:0:0:
192,192,149548,1,0,0:0:0:0:
320,192,149633,1,0,0:0:0:0:
192,192,149805,1,0,0:0:0:0:
64,192,149805,1,0,0:0:0:0:
448,192,149976,1,0,0:0:0:0:
320,192,149976,1,0,0:0:0:0:
64,192,149976,1,0,0:0:0:0:
192,192,150148,1,0,0:0:0:0:
192,192,150319,1,0,0:0:0:0:
448,192,150490,1,0,0:0:0:0:
320,192,150490,1,0,0:0:0:0:
448,192,150662,1,0,0:0:0:0:
320,192,150662,1,0,0:0:0:0:
64,192,150662,1,0,0:0:0:0:
192,192,150748,1,0,0:0:0:0:
320,192,150833,1,0,0:0:0:0:
64,192,150919,1,0,0:0:0:0:
448,192,151005,1,0,0:0:0:0:
320,192,151176,1,0,0:0:0:0:
64,192,151176,1,0,0:0:0:0:
64,192,151348,1,0,0:0:0:0:
448,192,151519,1,0,0:0:0:0:
192,192,151519,1,0,0:0:0:0:
64,192,151605,1,0,0:0:0:0:
320,192,151690,1,0,0:0:0:0:
192,192,151862,1,0,0:0:0:0:
64,192,151862,1,0,0:0:0:0:
448,192,152033,1,0,0:0:0:0:
320,192,152033,1,0,0:0:0:0:
64,192,152033,1,0,0:0:0:0:
448,192,152205,1,0,0:0:0:0:
192,192,152205,1,0,0:0:0:0:
320,192,152290,1,0,0:0:0:0:
192,192,152376,1,0,0:0:0:0:
448,192,152548,1,0,0:0:0:0:
320,192,152548,1,0,0:0:0:0:
448,192,152719,1,0,0:0:0:0:
320,192,152719,1,0,0:0:0:0:
64,192,152719,1,0,0:0:0:0:
192,192,152890,1,0,0:0:0:0:
320,192,153062,1,0,0:0:0:0:
64,192,153062,1,0,0:0:0:0:
448,192,153233,1,0,0:0:0:0:
320,192,153233,1,0,0:0:0:0:
448,192,153405,1,0,0:0:0:0:
192,192,153405,1,0,0:0:0:0:
64,192,153405,1,0,0:0:0:0:
320,192,153490,1,0,0:0:0:0:
192,192,153576,1,0,0:0:0:0:
448,192,153662,1,0,0:0:0:0:
320,192,153748,1,0,0:0:0:0:
192,192,153748,1,0,0:0:0:0:
64,192,153748,1,0,0:0:0:0:
448,192,153919,1,0,0:0:0:0:
320,192,153919,1,0,0:0:0:0:
448,192,154090,1,0,0:0:0:0:
192,192,154090,1,0,0:0:0:0:
64,192,154090,1,0,0:0:0:0:
320,192,154262,1,0,0:0:0:0:
64,192,154348,1,0,0:0:0:0:
448,192,154433,1,0,0:0:0:0:
192,192,154433,1,0,0:0:0:0:
192,192,154605,1,0,0:0:0:0:
64,192,154605,1,0,0:0:0:0:
448,192,154776,1,0,0:0:0:0:
320,192,154776,1,0,0:0:0:0:
64,192,154776,1,0,0:0:0:0:
192,192,154948,1,0,0:0:0:0:
448,192,155033,1,0,0:0:0:0:
320,192,155119,1,0,0:0:0:0:
64,192,155119,1,0,0:0:0:0:
448,192,155290,1,0,0:0:0:0:
320,192,155290,1,0,0:0:0:0:
448,192,155462,1,0,0:0:0:0:
192,192,155462,1,0,0:0:0:0:
64,192,155462,1,0,0:0:0:0:
320,192,155633,1,0,0:0:0:0:
192,192,155633,1,0,0:0:0:0:
448,192,155805,1,0,0:0:0:0:
64,192,155805,1,0,0:0:0:0:
192,192,155976,1,0,0:0:0:0:
64,192,155976,1,0,0:0:0:0:
448,192,156148,1,0,0:0:0:0:
320,192,156148,1,0,0:0:0:0:
192,192,156148,1,0,0:0:0:0:
64,192,156233,1,0,0:0:0:0:
448,192,156319,1,0,0:0:0:0:
192,192,156405,1,0,0:0:0:0:
448,192,156490,1,0,0:0:0:0:
320,192,156490,1,0,0:0:0:0:
192,192,156662,1,0,0:0:0:0:
64,192,156662,1,0,0:0:0:0:
448,192,156833,1,0,0:0:0:0:
192,192,156833,1,0,0:0:0:0:
64,192,156833,1,0,0:0:0:0:
320,192,157005,1,0,0:0:0:0:
64,192,157090,1,0,0:0:0:0:
448,192,157176,1,0,0:0:0:0:
192,192,157176,1,0,0:0:0:0:
448,192,157348,1,0,0:0:0:0:
320,192,157348,1,0,0:0:0:0:
320,192,157519,1,0,0:0:0:0:
192,192,157519,1,0,0:0:0:0:
64,192,157519,1,0,0:0:0:0:
448,192,157690,1,0,0:0:0:0:
64,192,157690,1,0,0:0:0:0:
192,192,157776,1,0,0:0:0:0:
448,192,157862,1,0,0:0:0:0:
320,192,157862,1,0,0:0:0:0:
320,192,158033,1,0,0:0:0:0:
192,192,158033,1,0,0:0:0:0:
448,192,158205,1,0,0:0:0:0:
192,192,158205,1,0,0:0:0:0:
64,192,158205,1,0,0:0:0:0:
320,192,158376,1,0,0:0:0:0:
64,192,158376,1,0,0:0:0:0:
448,192,158548,1,0,0:0:0:0:
192,192,158548,1,0,0:0:0:0:
448,192,158719,1,0,0:0:0:0:
320,192,158719,1,0,0:0:0:0:
320,192,158890,1,0,0:0:0:0:
192,192,158890,1,0,0:0:0:0:
64,192,158890,1,0,0:0:0:0:
448,192,158976,1,0,0:0:0:0:
64,192,159062,1,0,0:0:0:0:
320,192,159148,1,0,0:0:0:0:
192,192,159233,1,0,0:0:0:0:
64,192,159233,1,0,0:0:0:0:
448,192,159405,1,0,0:0:0:0:
448,192,159576,1,0,0:0:0:0:
192,192,159576,1,0,0:0:0:0:
64,192,159576,1,0,0:0:0:0:
320,192,159748,1,0,0:0:0:0:
192,192,159833,1,0,0:0:0:0:
448,192,159919,1,0,0:0:0:0:
64,192,159919,1,0,0:0:0:0:
64,192,160090,1,0,0:0:0:0:
448,192,160262,1,0,0:0:0:0:
320,192,160262,1,0,0:0:0:0:
192,192,160262,1,0,0:0:0:0:
448,192,160433,1,0,0:0:0:0:
64,192,160433,1,0,0:0:0:0:
192,192,160519,1,0,0:0:0:0:
320,192,160605,1,0,0:0:0:0:
192,192,160776,1,0,0:0:0:0:
64,192,160776,1,0,0:0:0:0:
448,192,160948,1,0,0:0:0:0:
320,192,160948,1,0,0:0:0:0:
64,192,160948,1,0,0:0:0:0:
192,192,161119,1,0,0:0:0:0:
192,192,161290,1,0,0:0:0:0:
448,192,161462,1,0,0:0:0:0:
320,192,161462,1,0,0:0:0:0:
448,192,161633,1,0,0:0:0:0:
320,192,161633,1,0,0:0:0:0:
64,192,161633,1,0,0:0:0:0:
192,192,161719,1,0,0:0:0:0:
320,192,161805,1,0,0:0:0:0:
64,192,161890,1,0,0:0:0:0:
448,192,161976,1,0,0:0:0:0:
320,192,162148,1,0,0:0:0:0:
64,192,162148,1,0,0:0:0:0:
64,192,162319,1,0,0:0:0:0:
448,192,162490,1,0,0:0:0:0:
192,192,162490,1,0,0:0:0:0:
64,192,162576,1,0,0:0:0:0:
320,192,162662,1,0,0:0:0:0:
192,192,162833,1,0,0:0:0:0:
64,192,162833,1,0,0:0:0:0:
448,192,163005,1,0,0:0:0:0:
320,192,163005,1,0,0:0:0:0:
64,192,163005,1,0,0:0:0:0:
448,192,163176,1,0,0:0:0:0:
192,192,163176,1,0,0:0:0:0:
320,192,163262,1,0,0:0:0:0:
192,192,163348,1,0,0:0:0:0:
448,192,163519,1,0,0:0:0:0:
448,192,163690,1,0,0:0:0:0:
320,192,163690,1,0,0:0:0:0:
64,192,163690,1,0,0:0:0:0:
192,192,163862,1,0,0:0:0:0:
320,192,164033,1,0,0:0:0:0:
64,192,164033,1,0,0:0:0:0:
448,192,164205,1,0,0:0:0:0:
320,192,164205,1,0,0:0:0:0:
448,192,164376,1,0,0:0:0:0:
192,192,164376,1,0,0:0:0:0:
64,192,164376,1,0,0:0:0:0:
320,192,164462,1,0,0:0:0:0:
64,192,164548,1,0,0:0:0:0:
448,192,164633,1,0,0:0:0:0:
320,192,164719,1,0,0:0:0:0:
192,192,164719,1,0,0:0:0:0:
448,192,164890,1,0,0:0:0:0:
320,192,164890,1,0,0:0:0:0:
448,192,165062,1,0,0:0:0:0:
192,192,165062,1,0,0:0:0:0:
64,192,165062,1,0,0:0:0:0:
320,192,165233,1,0,0:0:0:0:
192,192,165319,1,0,0:0:0:0:
448,192,165405,1,0,0:0:0:0:
64,192,165405,1,0,0:0:0:0:
192,192,165576,1,0,0:0:0:0:
64,192,165576,1,0,0:0:0:0:
448,192,165748,1,0,0:0:0:0:
320,192,165748,1,0,0:0:0:0:
192,192,165748,1,0,0:0:0:0:
64,192,165919,1,0,0:0:0:0:
320,192,166005,1,0,0:0:0:0:
448,192,166090,1,0,0:0:0:0:
192,192,166090,1,0,0:0:0:0:
448,192,166262,1,0,0:0:0:0:
320,192,166262,1,0,0:0:0:0:
320,192,166433,1,0,0:0:0:0:
192,192,166433,1,0,0:0:0:0:
64,192,166433,1,0,0:0:0:0:
448,192,166605,1,0,0:0:0:0:
320,192,166776,1,0,0:0:0:0:
192,192,166776,1,0,0:0:0:0:
192,192,166948,1,0,0:0:0:0:
64,192,166948,1,0,0:0:0:0:
448,192,167119,1,0,0:0:0:0:
320,192,167119,1,0,0:0:0:0:
64,192,167119,1,0,0:0:0:0:
192,192,167205,1,0,0:0:0:0:
320,192,167290,1,0,0:0:0:0:
64,192,167376,1,0,0:0:0:0:
448,192,167462,1,0,0:0:0:0:
320,192,167462,1,0,0:0:0:0:
192,192,167633,1,0,0:0:0:0:
64,192,167633,1,0,0:0:0:0:
448,192,167805,1,0,0:0:0:0:
320,192,167805,1,0,0:0:0:0:
64,192,167805,1,0,0:0:0:0:
448,192,167976,1,0,0:0:0:0:
320,192,167976,1,0,0:0:0:0:
192,192,168062,1,0,0:0:0:0:
448,192,168148,1,0,0:0:0:0:
64,192,168148,1,0,0:0:0:0:
192,192,168319,1,0,0:0:0:0:
64,192,168319,1,0,0:0:0:0:
448,192,168490,1,0,0:0:0:0:
320,192,168490,1,0,0:0:0:0:
64,192,168490,1,0,0:0:0:0:
448,192,168662,1,0,0:0:0:0:
192,192,168662,1,0,0:0:0:0:
320,192,168748,1,0,0:0:0:0:
192,192,168833,1,0,0:0:0:0:
64,192,168833,1,0,0:0:0:0:
320,192,169005,1,0,0:0:0:0:
64,192,169005,1,0,0:0:0:0:
448,192,169176,1,0,0:0:0:0:
320,192,169176,1,0,0:0:0:0:
192,192,169176,1,0,0:0:0:0:
448,192,169348,1,0,0:0:0:0:
320,192,169348,1,0,0:0:0:0:
192,192,169519,1,0,0:0:0:0:
64,192,169519,1,0,0:0:0:0:
192,192,169690,1,0,0:0:0:0:
64,192,169690,1,0,0:0:0:0:
448,192,169862,1,0,0:0:0:0:
320,192,169862,1,0,0:0:0:0:
64,192,169862,1,0,0:0:0:0:
192,192,169948,1,0,0:0:0:0:
320,192,170033,1,0,0:0:0:0:
64,192,170119,1,0,0:0:0:0:
448,192,170205,1,0,0:0:0:0:
320,192,170205,1,0,0:0:0:0:
192,192,170376,1,0,0:0:0:0:
448,192,170548,1,0,0:0:0:0:
192,192,170548,1,0,0:0:0:0:
64,192,170548,1,0,0:0:0:0:
320,192,170719,1,0,0:0:0:0:
192,192,170805,1,0,0:0:0:0:
448,192,170890,1,0,0:0:0:0:
192,192,171062,1,0,0:0:0:0:
64,192,171062,1,0,0:0:0:0:
448,192,171233,1,0,0:0:0:0:
320,192,171233,1,0,0:0:0:0:
64,192,171233,1,0,0:0:0:0:
192,192,171405,1,0,0:0:0:0:
320,192,171490,1,0,0:0:0:0:
192,192,171576,1,0,0:0:0:0:
64,192,171576,1,0,0:0:0:0:
320,192,171748,1,0,0:0:0:0:
64,192,171748,1,0,0:0:0:0:
448,192,171919,1,0,0:0:0:0:
320,192,171919,1,0,0:0:0:0:
192,192,171919,1,0,0:0:0:0:
448,192,172090,1,0,0:0:0:0:
320,192,172090,1,0,0:0:0:0:
192,192,172262,1,0,0:0:0:0:
64,192,172262,1,0,0:0:0:0:
192,192,172433,1,0,0:0:0:0:
64,192,172433,1,0,0:0:0:0:
448,192,172605,1,0,0:0:0:0:
320,192,172605,1,0,0:0:0:0:
64,192,172605,1,0,0:0:0:0:
192,192,172690,1,0,0:0:0:0:
320,192,172776,1,0,0:0:0:0:
192,192,172862,1,0,0:0:0:0:
448,192,172948,1,0,0:0:0:0:
320,192,172948,1,0,0:0:0:0:
192,192,173119,1,0,0:0:0:0:
64,192,173119,1,0,0:0:0:0:
448,192,173290,1,0,0:0:0:0:
320,192,173290,1,0,0:0:0:0:
64,192,173290,1,0,0:0:0:0:
448,192,173462,1,0,0:0:0:0:
320,192,173462,1,0,0:0:0:0:
192,192,173548,1,0,0:0:0:0:
448,192,173633,1,0,0:0:0:0:
64,192,173633,1,0,0:0:0:0:
192,192,173805,1,0,0:0:0:0:
64,192,173805,1,0,0:0:0:0:
448,192,173976,1,0,0:0:0:0:
320,192,173976,1,0,0:0:0:0:
64,192,173976,1,0,0:0:0:0:
448,192,174148,1,0,0:0:0:0:
192,192,174148,1,0,0:0:0:0:
320,192,174233,1,0,0:0:0:0:
192,192,174319,1,0,0:0:0:0:
64,192,174319,1,0,0:0:0:0:
320,192,174490,1,0,0:0:0:0:
64,192,174490,1,0,0:0:0:0:
448,192,174662,1,0,0:0:0:0:
320,192,174662,1,0,0:0:0:0:
192,192,174662,1,0,0:0:0:0:
192,192,174833,1,0,0:0:0:0:
64,192,174833,1,0,0:0:0:0:
448,192,175005,1,0,0:0:0:0:
320,192,175005,1,0,0:0:0:0:
448,192,175176,1,0,0:0:0:0:
320,192,175176,1,0,0:0:0:0:
448,192,175348,1,0,0:0:0:0:
192,192,175348,1,0,0:0:0:0:
64,192,175348,1,0,0:0:0:0:
320,192,175433,1,0,0:0:0:0:
192,192,175519,1,0,0:0:0:0:
320,192,175605,1,0,0:0:0:0:
448,192,175690,1,0,0:0:0:0:
192,192,175690,1,0,0:0:0:0:
64,192,175690,1,0,0:0:0:0:
320,192,175862,1,0,0:0:0:0:
448,192,176033,1,0,0:0:0:0:
320,192,176033,1,0,0:0:0:0:
64,192,176033,1,0,0:0:0:0:
192,192,176205,1,0,0:0:0:0:
320,192,176290,1,0,0:0:0:0:
64,192,176376,1,0,0:0:0:0:
448,192,176548,1,0,0:0:0:0:
320,192,176548,1,0,0:0:0:0:
448,192,176719,1,0,0:0:0:0:
192,192,176719,1,0,0:0:0:0:
64,192,176719,1,0,0:0:0:0:
320,192,176890,1,0,0:0:0:0:
192,192,176976,1,0,0:0:0:0:
320,192,177062,1,0,0:0:0:0:
192,192,177233,1,0,0:0:0:0:
64,192,177233,1,0,0:0:0:0:
448,192,177405,1,0,0:0:0:0:
320,192,177405,1,0,0:0:0:0:
64,192,177405,1,0,0:0:0:0:
192,192,177576,1,0,0:0:0:0:
448,192,177748,1,0,0:0:0:0:
64,192,177748,1,0,0:0:0:0:
448,192,177919,1,0,0:0:0:0:
320,192,177919,1,0,0:0:0:0:
320,192,178090,1,0,0:0:0:0:
192,192,178090,1,0,0:0:0:0:
64,192,178090,1,0,0:0:0:0:
448,192,178176,1,0,0:0:0:0:
192,192,178262,1,0,0:0:0:0:
320,192,178348,1,0,0:0:0:0:
448,192,178433,1,0,0:0:0:0:
192,192,178433,1,0,0:0:0:0:
64,192,178605,1,0,0:0:0:0:
448,192,178776,1,0,0:0:0:0:
192,192,178776,1,0,0:0:0:0:
64,192,178776,1,0,0:0:0:0:
320,192,178948,1,0,0:0:0:0:
192,192,179033,1,0,0:0:0:0:
448,192,179119,1,0,0:0:0:0:
192,192,179290,1,0,0:0:0:0:
64,192,179290,1,0,0:0:0:0:
448,192,179462,1,0,0:0:0:0:
320,192,179462,1,0,0:0:0:0:
64,192,179462,1,0,0:0:0:0:
192,192,179633,1,0,0:0:0:0:
320,192,179719,1,0,0:0:0:0:
192,192,179805,1,0,0:0:0:0:
448,192,179976,1,0,0:0:0:0:
320,192,179976,1,0,0:0:0:0:
448,192,180148,1,0,0:0:0:0:
192,192,180148,1,0,0:0:0:0:
64,192,180148,1,0,0:0:0:0:
320,192,180319,1,0,0:0:0:0:
448,192,180490,1,0,0:0:0:0:
64,192,180490,1,0,0:0:0:0:
192,192,180662,1,0,0:0:0:0:
64,192,180662,1,0,0:0:0:0:
448,192,180833,1,0,0:0:0:0:
320,192,180833,1,0,0:0:0:0:
192,192,180833,1,0,0:0:0:0:
64,192,180919,1,0,0:0:0:0:
320,192,181005,1,0,0:0:0:0:
192,192,181090,1,0,0:0:0:0:
448,192,181176,1,0,0:0:0:0:
320,192,181176,1,0,0:0:0:0:
192,192,181348,1,0,0:0:0:0:
448,192,181519,1,0,0:0:0:0:
192,192,181519,1,0,0:0:0:0:
64,192,181519,1,0,0:0:0:0:
320,192,181690,1,0,0:0:0:0:
192,192,181776,1,0,0:0:0:0:
448,192,181862,1,0,0:0:0:0:
192,192,182033,1,0,0:0:0:0:
64,192,182033,1,0,0:0:0:0:
448,192,182205,1,0,0:0:0:0:
320,192,182205,1,0,0:0:0:0:
64,192,182205,1,0,0:0:0:0:
192,192,182376,1,0,0:0:0:0:
320,192,182462,1,0,0:0:0:0:
192,192,182548,1,0,0:0:0:0:
448,192,182719,1,0,0:0:0:0:
320,192,182719,1,0,0:0:0:0:
448,192,182890,1,0,0:0:0:0:
192,192,182890,1,0,0:0:0:0:
64,192,182890,1,0,0:0:0:0:
320,192,183062,1,0,0:0:0:0:
320,192,183233,1,0,0:0:0:0:
192,192,183405,1,0,0:0:0:0:
64,192,183405,1,0,0:0:0:0:
448,192,183576,1,0,0:0:0:0:
320,192,183576,1,0,0:0:0:0:
192,192,183576,1,0,0:0:0:0:
64,192,183662,1,0,0:0:0:0:
320,192,183748,1,0,0:0:0:0:
192,192,183833,1,0,0:0:0:0:
448,192,183919,1,0,0:0:0:0:
64,192,183919,1,0,0:0:0:0:
320,192,184090,1,0,0:0:0:0:
448,192,184262,1,0,0:0:0:0:
320,192,184262,1,0,0:0:0:0:
64,192,184262,1,0,0:0:0:0:
192,192,184433,1,0,0:0:0:0:
320,192,184519,1,0,0:0:0:0:
64,192,184605,1,0,0:0:0:0:
448,192,184776,1,0,0:0:0:0:
320,192,184776,1,0,0:0:0:0:
448,192,184948,1,0,0:0:0:0:
192,192,184948,1,0,0:0:0:0:
64,192,184948,1,0,0:0:0:0:
320,192,185119,1,0,0:0:0:0:
64,192,185205,1,0,0:0:0:0:
448,192,185290,1,0,0:0:0:0:
192,192,185290,1,0,0:0:0:0:
192,192,185462,1,0,0:0:0:0:
64,192,185462,1,0,0:0:0:0:
448,192,185633,1,0,0:0:0:0:
320,192,185633,1,0,0:0:0:0:
64,192,185633,1,0,0:0:0:0:
192,192,185805,1,0,0:0:0:0:
192,192,185976,1,0,0:0:0:0:
448,192,186148,1,0,0:0:0:0:
320,192,186148,1,0,0:0:0:0:
320,192,186319,1,0,0:0:0:0:
192,192,186319,1,0,0:0:0:0:
64,192,186319,1,0,0:0:0:0:
448,192,186405,1,0,0:0:0:0:
192,192,186490,1,0,0:0:0:0:
320,192,186576,1,0,0:0:0:0:
192,192,186662,1,0,0:0:0:0:
64,192,186662,1,0,0:0:0:0:
448,192,186833,1,0,0:0:0:0:
448,192,187005,1,0,0:0:0:0:
320,192,187005,1,0,0:0:0:0:
64,192,187005,1,0,0:0:0:0:
192,192,187176,1,0,0:0:0:0:
448,192,187262,1,0,0:0:0:0:
64,192,187348,1,0,0:0:0:0:
448,192,187519,1,0,0:0:0:0:
320,192,187519,1,0,0:0:0:0:
320,192,187690,1,0,0:0:0:0:
192,192,187690,1,0,0:0:0:0:
64,192,187690,1,0,0:0:0:0:
448,192,187862,1,0,0:0:0:0:
192,192,187948,1,0,0:0:0:0:
448,192,188033,1,0,0:0:0:0:
192,192,188205,1,0,0:0:0:0:
64,192,188205,1,0,0:0:0:0:
448,192,188376,1,0,0:0:0:0:
320,192,188376,1,0,0:0:0:0:
64,192,188376,1,0,0:0:0:0:
192,192,188548,1,0,0:0:0:0:
448,192,188719,1,0,0:0:0:0:
64,192,188719,1,0,0:0:0:0:
448,192,188890,1,0,0:0:0:0:
320,192,188890,1,0,0:0:0:0:
320,192,189062,1,0,0:0:0:0:
192,192,189062,1,0,0:0:0:0:
64,192,189062,1,0,0:0:0:0:
448,192,189148,1,0,0:0:0:0:
192,192,189233,1,0,0:0:0:0:
320,192,189319,1,0,0:0:0:0:
448,192,189405,1,0,0:0:0:0:
192,192,189405,1,0,0:0:0:0:
64,192,189576,1,0,0:0:0:0:
320,192,189748,1,0,0:0:0:0:
192,192,189748,1,0,0:0:0:0:
64,192,189748,1,0,0:0:0:0:
448,192,189919,1,0,0:0:0:0:
192,192,190005,1,0,0:0:0:0:
320,192,190090,1,0,0:0:0:0:
192,192,190262,1,0,0:0:0:0:
64,192,190262,1,0,0:0:0:0:
448,192,190433,1,0,0:0:0:0:
320,192,190433,1,0,0:0:0:0:
64,192,190433,1,0,0:0:0:0:
192,192,190605,1,0,0:0:0:0:
448,192,190690,1,0,0:0:0:0:
192,192,190776,1,0,0:0:0:0:
448,192,190948,1,0,0:0:0:0:
320,192,190948,1,0,0:0:0:0:
448,192,191119,1,0,0:0:0:0:
192,192,191119,1,0,0:0:0:0:
64,192,191119,1,0,0:0:0:0:
320,192,191290,1,0,0:0:0:0:
448,192,191462,1,0,0:0:0:0:
64,192,191462,1,0,0:0:0:0:
192,192,191633,1,0,0:0:0:0:
64,192,191633,1,0,0:0:0:0:
448,192,191805,1,0,0:0:0:0:
320,192,191805,1,0,0:0:0:0:
192,192,191805,1,0,0:0:0:0:
64,192,191890,1,0,0:0:0:0:
320,192,191976,1,0,0:0:0:0:
192,192,192062,1,0,0:0:0:0:
448,192,192148,1,0,0:0:0:0:
320,192,192148,1,0,0:0:0:0:
192,192,192319,1,0,0:0:0:0:
320,192,192490,1,0,0:0:0:0:
192,192,192490,1,0,0:0:0:0:
64,192,192490,1,0,0:0:0:0:
448,192,192662,1,0,0:0:0:0:
192,192,192748,1,0,0:0:0:0:
320,192,192833,1,0,0:0:0:0:
192,192,193005,1,0,0:0:0:0:
64,192,193005,1,0,0:0:0:0:
448,192,193176,1,0,0:0:0:0:
320,192,193176,1,0,0:0:0:0:
64,192,193176,1,0,0:0:0:0:
192,192,193348,1,0,0:0:0:0:
448,192,193433,1,0,0:0:0:0:
192,192,193519,1,0,0:0:0:0:
448,192,193690,1,0,0:0:0:0:
320,192,193690,1,0,0:0:0:0:
320,192,193862,1,0,0:0:0:0:
192,192,193862,1,0,0:0:0:0:
64,192,193862,1,0,0:0:0:0:
448,192,194033,1,0,0:0:0:0:
448,192,194205,1,0,0:0:0:0:
192,192,194376,1,0,0:0:0:0:
64,192,194376,1,0,0:0:0:0:
448,192,194548,1,0,0:0:0:0:
320,192,194548,1,0,0:0:0:0:
192,192,194548,1,0,0:0:0:0:
64,192,194633,1,0,0:0:0:0:
448,192,194719,1,0,0:0:0:0:
192,192,194805,1,0,0:0:0:0:
320,192,194890,1,0,0:0:0:0:
64,192,194890,1,0,0:0:0:0:
448,192,195062,1,0,0:0:0:0:
448,192,195233,1,0,0:0:0:0:
320,192,195233,1,0,0:0:0:0:
64,192,195233,1,0,0:0:0:0:
192,192,195405,1,0,0:0:0:0:
448,192,195490,1,0,0:0:0:0:
64,192,195576,1,0,0:0:0:0:
448,192,195748,1,0,0:0:0:0:
320,192,195748,1,0,0:0:0:0:
448,192,195919,1,0,0:0:0:0:
192,192,195919,1,0,0:0:0:0:
64,192,195919,1,0,0:0:0:0:
320,192,196090,1,0,0:0:0:0:
64,192,196176,1,0,0:0:0:0:
448,192,196262,1,0,0:0:0:0:
192,192,196262,1,0,0:0:0:0:
192,192,196433,1,0,0:0:0:0:
64,192,196433,1,0,0:0:0:0:
448,192,196605,1,0,0:0:0:0:
320,192,196605,1,0,0:0:0:0:
64,192,196605,1,0,0:0:0:0:
192,192,196776,1,0,0:0:0:0:
192,192,196948,1,0,0:0:0:0:
448,192,197119,1,0,0:0:0:0:
320,192,197119,1,0,0:0:0:0:
448,192,197290,1,0,0:0:0:0:
192,192,197290,1,0,0:0:0:0:
64,192,197290,1,0,0:0:0:0:
320,192,197376,1,0,0:0:0:0:
192,192,197462,1,0,0:0:0:0:
320,192,197548,1,0,0:0:0:0:
448,192,197633,1,0,0:0:0:0:
192,192,197633,1,0,0:0:0:0:
64,192,197633,1,0,0:0:0:0:
