osu file format v14

[General]
AudioFilename: TwoThirds & Feint feat. Veela - Epiphany 1.100x (pitch raised).mp3
AudioLeadIn: 0
PreviewTime: 119822
Countdown: 0
SampleSet: None
StackLeniency: 0.7
Mode: 3
LetterboxInBreaks: 0
SpecialStyle: 0
WidescreenStoryboard: 0

[Editor]
DistanceSpacing: 0.8
BeatDivisor: 4
GridSize: 32
TimelineZoom: 1

[Metadata]
Title:Epiphany (feat. Veela)
TitleUnicode:Epiphany (feat. Veela)
Artist:TwoThirds & Feint
ArtistUnicode:TwoThirds & Feint
Creator:Shoegazer
Version:Revelation 1.1x (192bpm)
Source:
Tags:liquid drum and bass dnb wiosna
BeatmapID:2819552
BeatmapSetID:928528

[Difficulty]
HPDrainRate:8
CircleSize:4
OverallDifficulty:8
ApproachRate:5
SliderMultiplier:1.4
SliderTickRate:1

[Events]
//Background and Video events
0,0,"bg.png",0,0
//Break Periods
//Storyboard Layer 0 (Background)
//Storyboard Layer 1 (Fail)
//Storyboard Layer 2 (Pass)
//Storyboard Layer 3 (Foreground)
//Storyboard Layer 4 (Overlay)
//Storyboard Sound Samples

[TimingPoints]
134,311.688311818182,4,3,0,35,1,0

[HitObjects]
64,192,134,5,0,0:0:0:0:
448,192,134,1,0,0:0:0:0:
192,192,134,1,0,0:0:0:0:
192,192,445,1,0,0:0:0:0:
192,192,601,1,0,0:0:0:0:
448,192,913,1,0,0:0:0:0:
320,192,913,1,0,0:0:0:0:
64,192,1069,1,0,0:0:0:0:
320,192,1380,1,0,0:0:0:0:
192,192,1536,1,0,0:0:0:0:
64,192,1536,1,0,0:0:0:0:
448,192,1692,1,0,0:0:0:0:
448,192,1848,1,0,0:0:0:0:
448,192,2160,1,0,0:0:0:0:
320,192,2160,1,0,0:0:0:0:
192,192,2316,1,0,0:0:0:0:
448,192,2393,1,0,0:0:0:0:
192,192,2471,1,0,0:0:0:0:
448,192,2550,1,0,0:0:0:0:
192,192,2627,1,0,0:0:0:0:
64,192,2627,1,0,0:0:0:0:
448,192,2939,1,0,0:0:0:0:
448,192,3095,1,0,0:0:0:0:
192,192,3407,1,0,0:0:0:0:
64,192,3407,1,0,0:0:0:0:
320,192,3562,1,0,0:0:0:0:
192,192,3874,1,0,0:0:0:0:
448,192,4030,1,0,0:0:0:0:
320,192,4030,1,0,0:0:0:0:
64,192,4186,1,0,0:0:0:0:
64,192,4341,1,0,0:0:0:0:
192,192,4653,1,0,0:0:0:0:
64,192,4653,1,0,0:0:0:0:
320,192,4809,1,0,0:0:0:0:
64,192,4887,1,0,0:0:0:0:
320,192,4965,1,0,0:0:0:0:
64,192,5043,1,0,0:0:0:0:
448,192,5120,1,0,0:0:0:0:
320,192,5120,1,0,0:0:0:0:
64,192,5432,1,0,0:0:0:0:
64,192,5589,1,0,0:0:0:0:
448,192,5900,1,0,0:0:0:0:
320,192,5900,1,0,0:0:0:0:
192,192,6056,1,0,0:0:0:0:
448,192,6368,1,0,0:0:0:0:
192,192,6523,1,0,0:0:0:0:
64,192,6523,1,0,0:0:0:0:
320,192,6680,1,0,0:0:0:0:
320,192,6835,1,0,0:0:0:0:
448,192,7147,1,0,0:0:0:0:
320,192,7147,1,0,0:0:0:0:
64,192,7302,1,0,0:0:0:0:
320,192,7380,1,0,0:0:0:0:
64,192,7459,1,0,0:0:0:0:
320,192,7536,1,0,0:0:0:0:
192,192,7614,1,0,0:0:0:0:
64,192,7614,1,0,0:0:0:0:
448,192,7926,1,0,0:0:0:0:
448,192,8081,1,0,0:0:0:0:
192,192,8393,1,0,0:0:0:0:
64,192,8393,1,0,0:0:0:0:
320,192,8550,1,0,0:0:0:0:
64,192,8861,1,0,0:0:0:0:
448,192,9017,1,0,0:0:0:0:
320,192,9017,1,0,0:0:0:0:
192,192,9172,1,0,0:0:0:0:
192,192,9329,1,0,0:0:0:0:
192,192,9640,1,0,0:0:0:0:
64,192,9640,1,0,0:0:0:0:
448,192,9796,1,0,0:0:0:0:
192,192,9874,1,0,0:0:0:0:
448,192,9952,1,0,0:0:0:0:
192,192,10030,1,0,0:0:0:0:
448,192,10108,1,0,0:0:0:0:
320,192,10108,1,0,0:0:0:0:
192,192,10420,1,0,0:0:0:0:
192,192,10575,1,0,0:0:0:0:
448,192,10887,1,0,0:0:0:0:
320,192,10887,1,0,0:0:0:0:
64,192,11043,1,0,0:0:0:0:
320,192,11354,1,0,0:0:0:0:
192,192,11510,1,0,0:0:0:0:
64,192,11510,1,0,0:0:0:0:
448,192,11666,1,0,0:0:0:0:
448,192,11822,1,0,0:0:0:0:
448,192,12134,1,0,0:0:0:0:
320,192,12134,1,0,0:0:0:0:
192,192,12290,1,0,0:0:0:0:
448,192,12368,1,0,0:0:0:0:
192,192,12445,1,0,0:0:0:0:
448,192,12523,1,0,0:0:0:0:
192,192,12601,1,0,0:0:0:0:
64,192,12601,1,0,0:0:0:0:
448,192,12913,1,0,0:0:0:0:
448,192,13069,1,0,0:0:0:0:
192,192,13380,1,0,0:0:0:0:
64,192,13380,1,0,0:0:0:0:
320,192,13536,1,0,0:0:0:0:
192,192,13848,1,0,0:0:0:0:
448,192,14004,1,0,0:0:0:0:
320,192,14004,1,0,0:0:0:0:
64,192,14160,1,0,0:0:0:0:
64,192,14316,1,0,0:0:0:0:
192,192,14627,1,0,0:0:0:0:
64,192,14627,1,0,0:0:0:0:
320,192,14783,1,0,0:0:0:0:
64,192,14861,1,0,0:0:0:0:
320,192,14939,1,0,0:0:0:0:
64,192,15017,1,0,0:0:0:0:
448,192,15095,1,0,0:0:0:0:
320,192,15095,1,0,0:0:0:0:
64,192,15407,1,0,0:0:0:0:
64,192,15562,1,0,0:0:0:0:
448,192,15874,1,0,0:0:0:0:
320,192,15874,1,0,0:0:0:0:
448,192,16030,1,0,0:0:0:0:
192,192,16030,1,0,0:0:0:0:
64,192,16030,1,0,0:0:0:0:
448,192,16341,1,0,0:0:0:0:
192,192,16498,1,0,0:0:0:0:
64,192,16498,1,0,0:0:0:0:
448,192,16653,1,0,0:0:0:0:
320,192,16653,1,0,0:0:0:0:
64,192,16653,1,0,0:0:0:0:
320,192,16809,1,0,0:0:0:0:
448,192,17120,1,0,0:0:0:0:
320,192,17120,1,0,0:0:0:0:
64,192,17277,1,0,0:0:0:0:
320,192,17354,1,0,0:0:0:0:
64,192,17432,1,0,0:0:0:0:
320,192,17510,1,0,0:0:0:0:
192,192,17589,1,0,0:0:0:0:
64,192,17589,1,0,0:0:0:0:
448,192,17900,1,0,0:0:0:0:
192,192,17900,1,0,0:0:0:0:
64,192,17900,1,0,0:0:0:0:
448,192,18056,1,0,0:0:0:0:
192,192,18368,1,0,0:0:0:0:
64,192,18368,1,0,0:0:0:0:
448,192,18523,1,0,0:0:0:0:
320,192,18523,1,0,0:0:0:0:
64,192,18523,1,0,0:0:0:0:
64,192,18835,1,0,0:0:0:0:
448,192,18990,1,0,0:0:0:0:
320,192,18990,1,0,0:0:0:0:
448,192,19147,1,0,0:0:0:0:
192,192,19147,1,0,0:0:0:0:
64,192,19147,1,0,0:0:0:0:
192,192,19302,1,0,0:0:0:0:
192,192,19614,1,0,0:0:0:0:
64,192,19614,1,0,0:0:0:0:
448,192,19770,1,0,0:0:0:0:
192,192,19848,1,0,0:0:0:0:
448,192,19926,1,0,0:0:0:0:
192,192,20004,1,0,0:0:0:0:
448,192,20081,1,0,0:0:0:0:
320,192,20081,1,0,0:0:0:0:
64,192,20081,1,0,0:0:0:0:
192,192,20238,1,0,0:0:0:0:
448,192,20393,1,0,0:0:0:0:
192,192,20393,1,0,0:0:0:0:
64,192,20393,1,0,0:0:0:0:
320,192,20550,1,0,0:0:0:0:
192,192,20627,1,0,0:0:0:0:
448,192,20705,1,0,0:0:0:0:
192,192,20861,1,0,0:0:0:0:
64,192,20861,1,0,0:0:0:0:
448,192,21017,1,0,0:0:0:0:
320,192,21017,1,0,0:0:0:0:
64,192,21017,1,0,0:0:0:0:
192,192,21172,1,0,0:0:0:0:
320,192,21250,1,0,0:0:0:0:
192,192,21329,1,0,0:0:0:0:
448,192,21484,1,0,0:0:0:0:
320,192,21484,1,0,0:0:0:0:
448,192,21640,1,0,0:0:0:0:
192,192,21640,1,0,0:0:0:0:
64,192,21640,1,0,0:0:0:0:
320,192,21796,1,0,0:0:0:0:
448,192,21952,1,0,0:0:0:0:
64,192,21952,1,0,0:0:0:0:
192,192,22108,1,0,0:0:0:0:
64,192,22108,1,0,0:0:0:0:
448,192,22263,1,0,0:0:0:0:
320,192,22263,1,0,0:0:0:0:
192,192,22263,1,0,0:0:0:0:
64,192,22341,1,0,0:0:0:0:
320,192,22420,1,0,0:0:0:0:
192,192,22498,1,0,0:0:0:0:
320,192,22575,1,0,0:0:0:0:
64,192,22575,1,0,0:0:0:0:
448,192,22731,1,0,0:0:0:0:
448,192,22887,1,0,0:0:0:0:
320,192,22887,1,0,0:0:0:0:
64,192,22887,1,0,0:0:0:0:
192,192,23043,1,0,0:0:0:0:
320,192,23120,1,0,0:0:0:0:
64,192,23199,1,0,0:0:0:0:
448,192,23354,1,0,0:0:0:0:
320,192,23354,1,0,0:0:0:0:
448,192,23510,1,0,0:0:0:0:
192,192,23510,1,0,0:0:0:0:
64,192,23510,1,0,0:0:0:0:
320,192,23666,1,0,0:0:0:0:
192,192,23744,1,0,0:0:0:0:
320,192,23822,1,0,0:0:0:0:
192,192,23978,1,0,0:0:0:0:
64,192,23978,1,0,0:0:0:0:
448,192,24134,1,0,0:0:0:0:
320,192,24134,1,0,0:0:0:0:
64,192,24134,1,0,0:0:0:0:
192,192,24290,1,0,0:0:0:0:
448,192,24445,1,0,0:0:0:0:
64,192,24445,1,0,0:0:0:0:
448,192,24601,1,0,0:0:0:0:
320,192,24601,1,0,0:0:0:0:
320,192,24757,1,0,0:0:0:0:
192,192,24757,1,0,0:0:0:0:
64,192,24757,1,0,0:0:0:0:
448,192,24835,1,0,0:0:0:0:
192,192,24913,1,0,0:0:0:0:
320,192,24990,1,0,0:0:0:0:
192,192,25069,1,0,0:0:0:0:
64,192,25069,1,0,0:0:0:0:
320,192,25225,1,0,0:0:0:0:
448,192,25380,1,0,0:0:0:0:
320,192,25380,1,0,0:0:0:0:
64,192,25380,1,0,0:0:0:0:
192,192,25536,1,0,0:0:0:0:
320,192,25614,1,0,0:0:0:0:
64,192,25692,1,0,0:0:0:0:
448,192,25848,1,0,0:0:0:0:
320,192,25848,1,0,0:0:0:0:
448,192,26004,1,0,0:0:0:0:
192,192,26004,1,0,0:0:0:0:
64,192,26004,1,0,0:0:0:0:
320,192,26160,1,0,0:0:0:0:
192,192,26238,1,0,0:0:0:0:
320,192,26316,1,0,0:0:0:0:
192,192,26471,1,0,0:0:0:0:
64,192,26471,1,0,0:0:0:0:
448,192,26627,1,0,0:0:0:0:
320,192,26627,1,0,0:0:0:0:
64,192,26627,1,0,0:0:0:0:
192,192,26783,1,0,0:0:0:0:
192,192,26939,1,0,0:0:0:0:
448,192,27095,1,0,0:0:0:0:
320,192,27095,1,0,0:0:0:0:
320,192,27250,1,0,0:0:0:0:
192,192,27250,1,0,0:0:0:0:
64,192,27250,1,0,0:0:0:0:
448,192,27329,1,0,0:0:0:0:
192,192,27407,1,0,0:0:0:0:
320,192,27484,1,0,0:0:0:0:
448,192,27562,1,0,0:0:0:0:
64,192,27562,1,0,0:0:0:0:
192,192,27718,1,0,0:0:0:0:
448,192,27874,1,0,0:0:0:0:
192,192,27874,1,0,0:0:0:0:
64,192,27874,1,0,0:0:0:0:
320,192,28030,1,0,0:0:0:0:
192,192,28108,1,0,0:0:0:0:
448,192,28186,1,0,0:0:0:0:
192,192,28341,1,0,0:0:0:0:
64,192,28341,1,0,0:0:0:0:
448,192,28498,1,0,0:0:0:0:
320,192,28498,1,0,0:0:0:0:
64,192,28498,1,0,0:0:0:0:
192,192,28653,1,0,0:0:0:0:
448,192,28731,1,0,0:0:0:0:
320,192,28809,1,0,0:0:0:0:
64,192,28809,1,0,0:0:0:0:
448,192,28965,1,0,0:0:0:0:
320,192,28965,1,0,0:0:0:0:
448,192,29120,1,0,0:0:0:0:
192,192,29120,1,0,0:0:0:0:
64,192,29120,1,0,0:0:0:0:
320,192,29277,1,0,0:0:0:0:
320,192,29432,1,0,0:0:0:0:
192,192,29589,1,0,0:0:0:0:
64,192,29589,1,0,0:0:0:0:
448,192,29744,1,0,0:0:0:0:
320,192,29744,1,0,0:0:0:0:
192,192,29744,1,0,0:0:0:0:
64,192,29822,1,0,0:0:0:0:
320,192,29900,1,0,0:0:0:0:
192,192,29978,1,0,0:0:0:0:
448,192,30056,1,0,0:0:0:0:
320,192,30056,1,0,0:0:0:0:
64,192,30211,1,0,0:0:0:0:
448,192,30368,1,0,0:0:0:0:
192,192,30368,1,0,0:0:0:0:
64,192,30368,1,0,0:0:0:0:
320,192,30523,1,0,0:0:0:0:
64,192,30601,1,0,0:0:0:0:
448,192,30680,1,0,0:0:0:0:
192,192,30835,1,0,0:0:0:0:
64,192,30835,1,0,0:0:0:0:
448,192,30990,1,0,0:0:0:0:
320,192,30990,1,0,0:0:0:0:
192,192,30990,1,0,0:0:0:0:
64,192,31147,1,0,0:0:0:0:
320,192,31225,1,0,0:0:0:0:
64,192,31302,1,0,0:0:0:0:
448,192,31459,1,0,0:0:0:0:
320,192,31459,1,0,0:0:0:0:
448,192,31614,1,0,0:0:0:0:
192,192,31614,1,0,0:0:0:0:
64,192,31614,1,0,0:0:0:0:
320,192,31770,1,0,0:0:0:0:
448,192,31926,1,0,0:0:0:0:
64,192,31926,1,0,0:0:0:0:
192,192,32081,1,0,0:0:0:0:
64,192,32081,1,0,0:0:0:0:
448,192,32238,1,0,0:0:0:0:
320,192,32238,1,0,0:0:0:0:
192,192,32238,1,0,0:0:0:0:
64,192,32316,1,0,0:0:0:0:
320,192,32393,1,0,0:0:0:0:
192,192,32471,1,0,0:0:0:0:
320,192,32550,1,0,0:0:0:0:
64,192,32550,1,0,0:0:0:0:
448,192,32705,1,0,0:0:0:0:
448,192,32861,1,0,0:0:0:0:
320,192,32861,1,0,0:0:0:0:
192,192,32861,1,0,0:0:0:0:
64,192,33017,1,0,0:0:0:0:
320,192,33095,1,0,0:0:0:0:
192,192,33172,1,0,0:0:0:0:
448,192,33329,1,0,0:0:0:0:
320,192,33329,1,0,0:0:0:0:
448,192,33484,1,0,0:0:0:0:
192,192,33484,1,0,0:0:0:0:
64,192,33484,1,0,0:0:0:0:
320,192,33640,1,0,0:0:0:0:
64,192,33718,1,0,0:0:0:0:
320,192,33796,1,0,0:0:0:0:
192,192,33952,1,0,0:0:0:0:
64,192,33952,1,0,0:0:0:0:
448,192,34108,1,0,0:0:0:0:
320,192,34108,1,0,0:0:0:0:
64,192,34108,1,0,0:0:0:0:
192,192,34263,1,0,0:0:0:0:
448,192,34420,1,0,0:0:0:0:
64,192,34420,1,0,0:0:0:0:
448,192,34575,1,0,0:0:0:0:
320,192,34575,1,0,0:0:0:0:
320,192,34731,1,0,0:0:0:0:
192,192,34731,1,0,0:0:0:0:
64,192,34731,1,0,0:0:0:0:
448,192,34809,1,0,0:0:0:0:
192,192,34887,1,0,0:0:0:0:
320,192,34965,1,0,0:0:0:0:
192,192,35043,1,0,0:0:0:0:
64,192,35043,1,0,0:0:0:0:
320,192,35199,1,0,0:0:0:0:
448,192,35354,1,0,0:0:0:0:
320,192,35354,1,0,0:0:0:0:
192,192,35354,1,0,0:0:0:0:
64,192,35510,1,0,0:0:0:0:
320,192,35589,1,0,0:0:0:0:
192,192,35666,1,0,0:0:0:0:
448,192,35822,1,0,0:0:0:0:
320,192,35822,1,0,0:0:0:0:
448,192,35978,1,0,0:0:0:0:
192,192,35978,1,0,0:0:0:0:
64,192,35978,1,0,0:0:0:0:
320,192,36134,1,0,0:0:0:0:
64,192,36211,1,0,0:0:0:0:
320,192,36290,1,0,0:0:0:0:
192,192,36445,1,0,0:0:0:0:
64,192,36445,1,0,0:0:0:0:
448,192,36601,1,0,0:0:0:0:
320,192,36601,1,0,0:0:0:0:
192,192,36601,1,0,0:0:0:0:
64,192,36757,1,0,0:0:0:0:
64,192,36913,1,0,0:0:0:0:
448,192,37069,1,0,0:0:0:0:
320,192,37069,1,0,0:0:0:0:
320,192,37225,1,0,0:0:0:0:
192,192,37225,1,0,0:0:0:0:
64,192,37225,1,0,0:0:0:0:
448,192,37302,1,0,0:0:0:0:
64,192,37380,1,0,0:0:0:0:
320,192,37459,1,0,0:0:0:0:
448,192,37536,1,0,0:0:0:0:
192,192,37536,1,0,0:0:0:0:
64,192,37692,1,0,0:0:0:0:
448,192,37848,1,0,0:0:0:0:
192,192,37848,1,0,0:0:0:0:
64,192,37848,1,0,0:0:0:0:
320,192,38004,1,0,0:0:0:0:
64,192,38081,1,0,0:0:0:0:
448,192,38160,1,0,0:0:0:0:
192,192,38316,1,0,0:0:0:0:
64,192,38316,1,0,0:0:0:0:
448,192,38471,1,0,0:0:0:0:
320,192,38471,1,0,0:0:0:0:
64,192,38471,1,0,0:0:0:0:
192,192,38627,1,0,0:0:0:0:
448,192,38705,1,0,0:0:0:0:
320,192,38783,1,0,0:0:0:0:
64,192,38783,1,0,0:0:0:0:
448,192,38939,1,0,0:0:0:0:
320,192,38939,1,0,0:0:0:0:
448,192,39095,1,0,0:0:0:0:
192,192,39095,1,0,0:0:0:0:
64,192,39095,1,0,0:0:0:0:
320,192,39250,1,0,0:0:0:0:
320,192,39407,1,0,0:0:0:0:
192,192,39562,1,0,0:0:0:0:
64,192,39562,1,0,0:0:0:0:
448,192,39718,1,0,0:0:0:0:
320,192,39718,1,0,0:0:0:0:
64,192,39718,1,0,0:0:0:0:
192,192,39796,1,0,0:0:0:0:
320,192,39874,1,0,0:0:0:0:
192,192,39952,1,0,0:0:0:0:
448,192,40030,1,0,0:0:0:0:
320,192,40030,1,0,0:0:0:0:
64,192,40030,1,0,0:0:0:0:
192,192,40186,1,0,0:0:0:0:
448,192,40341,1,0,0:0:0:0:
192,192,40341,1,0,0:0:0:0:
64,192,40341,1,0,0:0:0:0:
320,192,40498,1,0,0:0:0:0:
192,192,40575,1,0,0:0:0:0:
320,192,40653,1,0,0:0:0:0:
64,192,40653,1,0,0:0:0:0:
64,192,40809,1,0,0:0:0:0:
448,192,40965,1,0,0:0:0:0:
320,192,40965,1,0,0:0:0:0:
192,192,40965,1,0,0:0:0:0:
448,192,41120,1,0,0:0:0:0:
64,192,41120,1,0,0:0:0:0:
192,192,41199,1,0,0:0:0:0:
320,192,41277,1,0,0:0:0:0:
192,192,41432,1,0,0:0:0:0:
64,192,41432,1,0,0:0:0:0:
448,192,41589,1,0,0:0:0:0:
320,192,41589,1,0,0:0:0:0:
64,192,41589,1,0,0:0:0:0:
192,192,41744,1,0,0:0:0:0:
192,192,41900,1,0,0:0:0:0:
448,192,42056,1,0,0:0:0:0:
320,192,42056,1,0,0:0:0:0:
448,192,42211,1,0,0:0:0:0:
320,192,42211,1,0,0:0:0:0:
64,192,42211,1,0,0:0:0:0:
192,192,42290,1,0,0:0:0:0:
320,192,42368,1,0,0:0:0:0:
64,192,42445,1,0,0:0:0:0:
448,192,42523,1,0,0:0:0:0:
320,192,42680,1,0,0:0:0:0:
64,192,42680,1,0,0:0:0:0:
64,192,42835,1,0,0:0:0:0:
448,192,42990,1,0,0:0:0:0:
192,192,42990,1,0,0:0:0:0:
64,192,43069,1,0,0:0:0:0:
320,192,43147,1,0,0:0:0:0:
192,192,43302,1,0,0:0:0:0:
64,192,43302,1,0,0:0:0:0:
448,192,43459,1,0,0:0:0:0:
320,192,43459,1,0,0:0:0:0:
64,192,43459,1,0,0:0:0:0:
448,192,43614,1,0,0:0:0:0:
192,192,43614,1,0,0:0:0:0:
320,192,43692,1,0,0:0:0:0:
192,192,43770,1,0,0:0:0:0:
448,192,43926,1,0,0:0:0:0:
320,192,43926,1,0,0:0:0:0:
448,192,44081,1,0,0:0:0:0:
320,192,44081,1,0,0:0:0:0:
64,192,44081,1,0,0:0:0:0:
192,192,44238,1,0,0:0:0:0:
320,192,44393,1,0,0:0:0:0:
64,192,44393,1,0,0:0:0:0:
448,192,44550,1,0,0:0:0:0:
320,192,44550,1,0,0:0:0:0:
448,192,44705,1,0,0:0:0:0:
192,192,44705,1,0,0:0:0:0:
64,192,44705,1,0,0:0:0:0:
320,192,44783,1,0,0:0:0:0:
64,192,44861,1,0,0:0:0:0:
448,192,44939,1,0,0:0:0:0:
192,192,45017,1,0,0:0:0:0:
64,192,45017,1,0,0:0:0:0:
320,192,45172,1,0,0:0:0:0:
448,192,45329,1,0,0:0:0:0:
320,192,45329,1,0,0:0:0:0:
64,192,45329,1,0,0:0:0:0:
192,192,45484,1,0,0:0:0:0:
320,192,45562,1,0,0:0:0:0:
64,192,45640,1,0,0:0:0:0:
448,192,45796,1,0,0:0:0:0:
320,192,45796,1,0,0:0:0:0:
448,192,45952,1,0,0:0:0:0:
192,192,45952,1,0,0:0:0:0:
64,192,45952,1,0,0:0:0:0:
320,192,46108,1,0,0:0:0:0:
192,192,46186,1,0,0:0:0:0:
320,192,46263,1,0,0:0:0:0:
192,192,46420,1,0,0:0:0:0:
64,192,46420,1,0,0:0:0:0:
448,192,46575,1,0,0:0:0:0:
320,192,46575,1,0,0:0:0:0:
64,192,46575,1,0,0:0:0:0:
192,192,46731,1,0,0:0:0:0:
192,192,46887,1,0,0:0:0:0:
448,192,47043,1,0,0:0:0:0:
320,192,47043,1,0,0:0:0:0:
320,192,47199,1,0,0:0:0:0:
192,192,47199,1,0,0:0:0:0:
64,192,47199,1,0,0:0:0:0:
448,192,47277,1,0,0:0:0:0:
192,192,47354,1,0,0:0:0:0:
320,192,47432,1,0,0:0:0:0:
448,192,47510,1,0,0:0:0:0:
64,192,47510,1,0,0:0:0:0:
192,192,47666,1,0,0:0:0:0:
448,192,47822,1,0,0:0:0:0:
192,192,47822,1,0,0:0:0:0:
64,192,47822,1,0,0:0:0:0:
320,192,47978,1,0,0:0:0:0:
192,192,48056,1,0,0:0:0:0:
448,192,48134,1,0,0:0:0:0:
192,192,48290,1,0,0:0:0:0:
64,192,48290,1,0,0:0:0:0:
448,192,48445,1,0,0:0:0:0:
320,192,48445,1,0,0:0:0:0:
64,192,48445,1,0,0:0:0:0:
192,192,48601,1,0,0:0:0:0:
448,192,48680,1,0,0:0:0:0:
320,192,48757,1,0,0:0:0:0:
64,192,48757,1,0,0:0:0:0:
448,192,48913,1,0,0:0:0:0:
320,192,48913,1,0,0:0:0:0:
448,192,49069,1,0,0:0:0:0:
192,192,49069,1,0,0:0:0:0:
64,192,49069,1,0,0:0:0:0:
320,192,49225,1,0,0:0:0:0:
320,192,49380,1,0,0:0:0:0:
192,192,49536,1,0,0:0:0:0:
64,192,49536,1,0,0:0:0:0:
448,192,49692,1,0,0:0:0:0:
320,192,49692,1,0,0:0:0:0:
192,192,49692,1,0,0:0:0:0:
64,192,49770,1,0,0:0:0:0:
320,192,49848,1,0,0:0:0:0:
192,192,49926,1,0,0:0:0:0:
448,192,50004,1,0,0:0:0:0:
320,192,50004,1,0,0:0:0:0:
192,192,50160,1,0,0:0:0:0:
448,192,50316,1,0,0:0:0:0:
192,192,50316,1,0,0:0:0:0:
64,192,50316,1,0,0:0:0:0:
320,192,50471,1,0,0:0:0:0:
192,192,50550,1,0,0:0:0:0:
320,192,50627,1,0,0:0:0:0:
64,192,50627,1,0,0:0:0:0:
64,192,50783,1,0,0:0:0:0:
448,192,50939,1,0,0:0:0:0:
320,192,50939,1,0,0:0:0:0:
192,192,50939,1,0,0:0:0:0:
448,192,51095,1,0,0:0:0:0:
64,192,51095,1,0,0:0:0:0:
192,192,51172,1,0,0:0:0:0:
320,192,51250,1,0,0:0:0:0:
192,192,51407,1,0,0:0:0:0:
64,192,51407,1,0,0:0:0:0:
448,192,51562,1,0,0:0:0:0:
320,192,51562,1,0,0:0:0:0:
64,192,51562,1,0,0:0:0:0:
192,192,51718,1,0,0:0:0:0:
192,192,51874,1,0,0:0:0:0:
448,192,52030,1,0,0:0:0:0:
320,192,52030,1,0,0:0:0:0:
448,192,52186,1,0,0:0:0:0:
320,192,52186,1,0,0:0:0:0:
64,192,52186,1,0,0:0:0:0:
192,192,52263,1,0,0:0:0:0:
320,192,52341,1,0,0:0:0:0:
64,192,52420,1,0,0:0:0:0:
448,192,52498,1,0,0:0:0:0:
320,192,52653,1,0,0:0:0:0:
64,192,52653,1,0,0:0:0:0:
64,192,52809,1,0,0:0:0:0:
448,192,52965,1,0,0:0:0:0:
192,192,52965,1,0,0:0:0:0:
64,192,53043,1,0,0:0:0:0:
320,192,53120,1,0,0:0:0:0:
192,192,53277,1,0,0:0:0:0:
64,192,53277,1,0,0:0:0:0:
448,192,53432,1,0,0:0:0:0:
320,192,53432,1,0,0:0:0:0:
64,192,53432,1,0,0:0:0:0:
448,192,53589,1,0,0:0:0:0:
192,192,53589,1,0,0:0:0:0:
320,192,53666,1,0,0:0:0:0:
192,192,53744,1,0,0:0:0:0:
448,192,53900,1,0,0:0:0:0:
320,192,53900,1,0,0:0:0:0:
448,192,54056,1,0,0:0:0:0:
320,192,54056,1,0,0:0:0:0:
64,192,54056,1,0,0:0:0:0:
192,192,54211,1,0,0:0:0:0:
320,192,54368,1,0,0:0:0:0:
64,192,54368,1,0,0:0:0:0:
448,192,54523,1,0,0:0:0:0:
320,192,54523,1,0,0:0:0:0:
448,192,54680,1,0,0:0:0:0:
192,192,54680,1,0,0:0:0:0:
64,192,54680,1,0,0:0:0:0:
320,192,54757,1,0,0:0:0:0:
64,192,54835,1,0,0:0:0:0:
448,192,54913,1,0,0:0:0:0:
192,192,54990,1,0,0:0:0:0:
64,192,54990,1,0,0:0:0:0:
320,192,55147,1,0,0:0:0:0:
448,192,55302,1,0,0:0:0:0:
320,192,55302,1,0,0:0:0:0:
64,192,55302,1,0,0:0:0:0:
192,192,55459,1,0,0:0:0:0:
448,192,55536,1,0,0:0:0:0:
64,192,55614,1,0,0:0:0:0:
448,192,55770,1,0,0:0:0:0:
320,192,55770,1,0,0:0:0:0:
448,192,55926,1,0,0:0:0:0:
192,192,55926,1,0,0:0:0:0:
64,192,55926,1,0,0:0:0:0:
320,192,56081,1,0,0:0:0:0:
192,192,56160,1,0,0:0:0:0:
320,192,56238,1,0,0:0:0:0:
192,192,56393,1,0,0:0:0:0:
64,192,56393,1,0,0:0:0:0:
448,192,56550,1,0,0:0:0:0:
320,192,56550,1,0,0:0:0:0:
64,192,56550,1,0,0:0:0:0:
448,192,56705,1,0,0:0:0:0:
192,192,56705,1,0,0:0:0:0:
320,192,56861,1,0,0:0:0:0:
448,192,57017,1,0,0:0:0:0:
64,192,57017,1,0,0:0:0:0:
320,192,57172,1,0,0:0:0:0:
192,192,57172,1,0,0:0:0:0:
64,192,57172,1,0,0:0:0:0:
448,192,57250,1,0,0:0:0:0:
192,192,57329,1,0,0:0:0:0:
320,192,57407,1,0,0:0:0:0:
448,192,57484,1,0,0:0:0:0:
64,192,57484,1,0,0:0:0:0:
192,192,57640,1,0,0:0:0:0:
64,192,57640,1,0,0:0:0:0:
448,192,57796,1,0,0:0:0:0:
320,192,57796,1,0,0:0:0:0:
64,192,57796,1,0,0:0:0:0:
192,192,57952,1,0,0:0:0:0:
448,192,58030,1,0,0:0:0:0:
320,192,58108,1,0,0:0:0:0:
64,192,58108,1,0,0:0:0:0:
448,192,58263,1,0,0:0:0:0:
320,192,58263,1,0,0:0:0:0:
448,192,58420,1,0,0:0:0:0:
192,192,58420,1,0,0:0:0:0:
64,192,58420,1,0,0:0:0:0:
320,192,58575,1,0,0:0:0:0:
64,192,58575,1,0,0:0:0:0:
192,192,58653,1,0,0:0:0:0:
448,192,58731,1,0,0:0:0:0:
320,192,58731,1,0,0:0:0:0:
448,192,58887,1,0,0:0:0:0:
64,192,58887,1,0,0:0:0:0:
320,192,59043,1,0,0:0:0:0:
192,192,59043,1,0,0:0:0:0:
64,192,59043,1,0,0:0:0:0:
448,192,59199,1,0,0:0:0:0:
192,192,59199,1,0,0:0:0:0:
320,192,59354,1,0,0:0:0:0:
64,192,59354,1,0,0:0:0:0:
192,192,59510,1,0,0:0:0:0:
64,192,59510,1,0,0:0:0:0:
448,192,59666,1,0,0:0:0:0:
320,192,59666,1,0,0:0:0:0:
64,192,59666,1,0,0:0:0:0:
192,192,59744,1,0,0:0:0:0:
448,192,59822,1,0,0:0:0:0:
192,192,59900,1,0,0:0:0:0:
448,192,59978,1,0,0:0:0:0:
320,192,59978,1,0,0:0:0:0:
64,192,59978,1,0,0:0:0:0:
192,192,60134,1,0,0:0:0:0:
448,192,60290,1,0,0:0:0:0:
192,192,60290,1,0,0:0:0:0:
64,192,60290,1,0,0:0:0:0:
320,192,60445,1,0,0:0:0:0:
192,192,60523,1,0,0:0:0:0:
320,192,60601,1,0,0:0:0:0:
64,192,60601,1,0,0:0:0:0:
64,192,60757,1,0,0:0:0:0:
448,192,60913,1,0,0:0:0:0:
320,192,60913,1,0,0:0:0:0:
192,192,60913,1,0,0:0:0:0:
448,192,61069,1,0,0:0:0:0:
64,192,61069,1,0,0:0:0:0:
192,192,61147,1,0,0:0:0:0:
320,192,61225,1,0,0:0:0:0:
192,192,61380,1,0,0:0:0:0:
64,192,61380,1,0,0:0:0:0:
448,192,61536,1,0,0:0:0:0:
320,192,61536,1,0,0:0:0:0:
64,192,61536,1,0,0:0:0:0:
192,192,61692,1,0,0:0:0:0:
320,192,61848,1,0,0:0:0:0:
64,192,61848,1,0,0:0:0:0:
448,192,62004,1,0,0:0:0:0:
448,192,62160,1,0,0:0:0:0:
320,192,62160,1,0,0:0:0:0:
64,192,62160,1,0,0:0:0:0:
192,192,62238,1,0,0:0:0:0:
320,192,62316,1,0,0:0:0:0:
64,192,62393,1,0,0:0:0:0:
448,192,62471,1,0,0:0:0:0:
320,192,62627,1,0,0:0:0:0:
64,192,62627,1,0,0:0:0:0:
64,192,62783,1,0,0:0:0:0:
448,192,62939,1,0,0:0:0:0:
192,192,62939,1,0,0:0:0:0:
64,192,63017,1,0,0:0:0:0:
320,192,63095,1,0,0:0:0:0:
192,192,63250,1,0,0:0:0:0:
64,192,63250,1,0,0:0:0:0:
448,192,63407,1,0,0:0:0:0:
320,192,63407,1,0,0:0:0:0:
64,192,63407,1,0,0:0:0:0:
448,192,63562,1,0,0:0:0:0:
192,192,63562,1,0,0:0:0:0:
320,192,63640,1,0,0:0:0:0:
192,192,63718,1,0,0:0:0:0:
448,192,63874,1,0,0:0:0:0:
64,192,63874,1,0,0:0:0:0:
448,192,64030,1,0,0:0:0:0:
320,192,64030,1,0,0:0:0:0:
64,192,64030,1,0,0:0:0:0:
192,192,64186,1,0,0:0:0:0:
448,192,64341,1,0,0:0:0:0:
320,192,64341,1,0,0:0:0:0:
448,192,64498,1,0,0:0:0:0:
320,192,64498,1,0,0:0:0:0:
448,192,64653,1,0,0:0:0:0:
192,192,64653,1,0,0:0:0:0:
64,192,64653,1,0,0:0:0:0:
320,192,64731,1,0,0:0:0:0:
64,192,64809,1,0,0:0:0:0:
448,192,64887,1,0,0:0:0:0:
192,192,64965,1,0,0:0:0:0:
64,192,64965,1,0,0:0:0:0:
448,192,65120,1,0,0:0:0:0:
320,192,65120,1,0,0:0:0:0:
448,192,65277,1,0,0:0:0:0:
320,192,65277,1,0,0:0:0:0:
64,192,65277,1,0,0:0:0:0:
192,192,65432,1,0,0:0:0:0:
320,192,65510,1,0,0:0:0:0:
192,192,65589,1,0,0:0:0:0:
64,192,65589,1,0,0:0:0:0:
448,192,65744,1,0,0:0:0:0:
320,192,65744,1,0,0:0:0:0:
448,192,65900,1,0,0:0:0:0:
192,192,65900,1,0,0:0:0:0:
64,192,65900,1,0,0:0:0:0:
320,192,66056,1,0,0:0:0:0:
192,192,66134,1,0,0:0:0:0:
448,192,66211,1,0,0:0:0:0:
320,192,66211,1,0,0:0:0:0:
192,192,66368,1,0,0:0:0:0:
64,192,66368,1,0,0:0:0:0:
448,192,66523,1,0,0:0:0:0:
320,192,66523,1,0,0:0:0:0:
64,192,66523,1,0,0:0:0:0:
192,192,66680,1,0,0:0:0:0:
192,192,66835,1,0,0:0:0:0:
448,192,66990,1,0,0:0:0:0:
320,192,66990,1,0,0:0:0:0:
320,192,67147,1,0,0:0:0:0:
192,192,67147,1,0,0:0:0:0:
64,192,67147,1,0,0:0:0:0:
448,192,67225,1,0,0:0:0:0:
192,192,67302,1,0,0:0:0:0:
320,192,67380,1,0,0:0:0:0:
448,192,67459,1,0,0:0:0:0:
64,192,67459,1,0,0:0:0:0:
192,192,67614,1,0,0:0:0:0:
64,192,67614,1,0,0:0:0:0:
448,192,67770,1,0,0:0:0:0:
320,192,67770,1,0,0:0:0:0:
64,192,67770,1,0,0:0:0:0:
448,192,67926,1,0,0:0:0:0:
192,192,67926,1,0,0:0:0:0:
320,192,68004,1,0,0:0:0:0:
192,192,68081,1,0,0:0:0:0:
64,192,68081,1,0,0:0:0:0:
320,192,68238,1,0,0:0:0:0:
64,192,68238,1,0,0:0:0:0:
448,192,68393,1,0,0:0:0:0:
320,192,68393,1,0,0:0:0:0:
192,192,68393,1,0,0:0:0:0:
448,192,68550,1,0,0:0:0:0:
192,192,68550,1,0,0:0:0:0:
320,192,68705,1,0,0:0:0:0:
64,192,68705,1,0,0:0:0:0:
192,192,68861,1,0,0:0:0:0:
64,192,68861,1,0,0:0:0:0:
448,192,69017,1,0,0:0:0:0:
320,192,69017,1,0,0:0:0:0:
64,192,69017,1,0,0:0:0:0:
448,192,69172,1,0,0:0:0:0:
320,192,69172,1,0,0:0:0:0:
448,192,69329,1,0,0:0:0:0:
192,192,69329,1,0,0:0:0:0:
192,192,69484,1,0,0:0:0:0:
64,192,69484,1,0,0:0:0:0:
448,192,69640,1,0,0:0:0:0:
320,192,69640,1,0,0:0:0:0:
64,192,69640,1,0,0:0:0:0:
192,192,69718,1,0,0:0:0:0:
320,192,69796,1,0,0:0:0:0:
64,192,69874,1,0,0:0:0:0:
448,192,69952,1,0,0:0:0:0:
320,192,69952,1,0,0:0:0:0:
192,192,70108,1,0,0:0:0:0:
448,192,70263,1,0,0:0:0:0:
192,192,70263,1,0,0:0:0:0:
64,192,70263,1,0,0:0:0:0:
320,192,70420,1,0,0:0:0:0:
192,192,70498,1,0,0:0:0:0:
448,192,70575,1,0,0:0:0:0:
192,192,70731,1,0,0:0:0:0:
64,192,70731,1,0,0:0:0:0:
448,192,70887,1,0,0:0:0:0:
320,192,70887,1,0,0:0:0:0:
64,192,70887,1,0,0:0:0:0:
192,192,71043,1,0,0:0:0:0:
320,192,71120,1,0,0:0:0:0:
192,192,71199,1,0,0:0:0:0:
448,192,71354,1,0,0:0:0:0:
320,192,71354,1,0,0:0:0:0:
448,192,71510,1,0,0:0:0:0:
192,192,71510,1,0,0:0:0:0:
64,192,71510,1,0,0:0:0:0:
320,192,71666,1,0,0:0:0:0:
448,192,71822,1,0,0:0:0:0:
64,192,71822,1,0,0:0:0:0:
192,192,71978,1,0,0:0:0:0:
64,192,71978,1,0,0:0:0:0:
448,192,72134,1,0,0:0:0:0:
320,192,72134,1,0,0:0:0:0:
192,192,72134,1,0,0:0:0:0:
64,192,72211,1,0,0:0:0:0:
320,192,72290,1,0,0:0:0:0:
192,192,72368,1,0,0:0:0:0:
448,192,72445,1,0,0:0:0:0:
64,192,72445,1,0,0:0:0:0:
192,192,72601,1,0,0:0:0:0:
64,192,72601,1,0,0:0:0:0:
448,192,72757,1,0,0:0:0:0:
320,192,72757,1,0,0:0:0:0:
64,192,72757,1,0,0:0:0:0:
448,192,72913,1,0,0:0:0:0:
192,192,72913,1,0,0:0:0:0:
320,192,72990,1,0,0:0:0:0:
192,192,73069,1,0,0:0:0:0:
64,192,73069,1,0,0:0:0:0:
320,192,73225,1,0,0:0:0:0:
64,192,73225,1,0,0:0:0:0:
448,192,73380,1,0,0:0:0:0:
320,192,73380,1,0,0:0:0:0:
192,192,73380,1,0,0:0:0:0:
448,192,73536,1,0,0:0:0:0:
192,192,73536,1,0,0:0:0:0:
320,192,73692,1,0,0:0:0:0:
64,192,73692,1,0,0:0:0:0:
192,192,73848,1,0,0:0:0:0:
64,192,73848,1,0,0:0:0:0:
448,192,74004,1,0,0:0:0:0:
320,192,74004,1,0,0:0:0:0:
64,192,74004,1,0,0:0:0:0:
448,192,74160,1,0,0:0:0:0:
320,192,74160,1,0,0:0:0:0:
448,192,74316,1,0,0:0:0:0:
192,192,74316,1,0,0:0:0:0:
192,192,74471,1,0,0:0:0:0:
64,192,74471,1,0,0:0:0:0:
448,192,74627,1,0,0:0:0:0:
320,192,74627,1,0,0:0:0:0:
64,192,74627,1,0,0:0:0:0:
192,192,74705,1,0,0:0:0:0:
320,192,74783,1,0,0:0:0:0:
192,192,74861,1,0,0:0:0:0:
448,192,74939,1,0,0:0:0:0:
320,192,74939,1,0,0:0:0:0:
192,192,75095,1,0,0:0:0:0:
448,192,75250,1,0,0:0:0:0:
192,192,75250,1,0,0:0:0:0:
64,192,75250,1,0,0:0:0:0:
320,192,75407,1,0,0:0:0:0:
192,192,75484,1,0,0:0:0:0:
448,192,75562,1,0,0:0:0:0:
192,192,75718,1,0,0:0:0:0:
64,192,75718,1,0,0:0:0:0:
448,192,75874,1,0,0:0:0:0:
320,192,75874,1,0,0:0:0:0:
64,192,75874,1,0,0:0:0:0:
192,192,76030,1,0,0:0:0:0:
320,192,76108,1,0,0:0:0:0:
192,192,76186,1,0,0:0:0:0:
448,192,76341,1,0,0:0:0:0:
320,192,76341,1,0,0:0:0:0:
448,192,76498,1,0,0:0:0:0:
192,192,76498,1,0,0:0:0:0:
64,192,76498,1,0,0:0:0:0:
320,192,76653,1,0,0:0:0:0:
320,192,76809,1,0,0:0:0:0:
192,192,76965,1,0,0:0:0:0:
64,192,76965,1,0,0:0:0:0:
448,192,77120,1,0,0:0:0:0:
320,192,77120,1,0,0:0:0:0:
192,192,77120,1,0,0:0:0:0:
64,192,77199,1,0,0:0:0:0:
320,192,77277,1,0,0:0:0:0:
192,192,77354,1,0,0:0:0:0:
448,192,77432,1,0,0:0:0:0:
64,192,77432,1,0,0:0:0:0:
192,192,77589,1,0,0:0:0:0:
448,192,77744,1,0,0:0:0:0:
192,192,77744,1,0,0:0:0:0:
64,192,77744,1,0,0:0:0:0:
320,192,77900,1,0,0:0:0:0:
192,192,77978,1,0,0:0:0:0:
448,192,78056,1,0,0:0:0:0:
192,192,78211,1,0,0:0:0:0:
64,192,78211,1,0,0:0:0:0:
448,192,78368,1,0,0:0:0:0:
320,192,78368,1,0,0:0:0:0:
64,192,78368,1,0,0:0:0:0:
192,192,78523,1,0,0:0:0:0:
448,192,78601,1,0,0:0:0:0:
320,192,78680,1,0,0:0:0:0:
64,192,78680,1,0,0:0:0:0:
448,192,78835,1,0,0:0:0:0:
320,192,78835,1,0,0:0:0:0:
448,192,78990,1,0,0:0:0:0:
192,192,78990,1,0,0:0:0:0:
64,192,78990,1,0,0:0:0:0:
320,192,79147,1,0,0:0:0:0:
320,192,79302,1,0,0:0:0:0:
192,192,79459,1,0,0:0:0:0:
64,192,79459,1,0,0:0:0:0:
448,192,79614,1,0,0:0:0:0:
320,192,79614,1,0,0:0:0:0:
192,192,79614,1,0,0:0:0:0:
64,192,79692,1,0,0:0:0:0:
320,192,79770,1,0,0:0:0:0:
192,192,79848,1,0,0:0:0:0:
448,192,79926,1,0,0:0:0:0:
320,192,79926,1,0,0:0:0:0:
64,192,79926,1,0,0:0:0:0:
320,192,80238,1,0,0:0:0:0:
192,192,80550,1,0,0:0:0:0:
320,192,81017,1,0,0:0:0:0:
192,192,81329,1,0,0:0:0:0:
320,192,81640,1,0,0:0:0:0:
448,192,81796,1,0,0:0:0:0:
64,192,81952,1,0,0:0:0:0:
448,192,82108,1,0,0:0:0:0:
320,192,82420,1,0,0:0:0:0:
192,192,82731,1,0,0:0:0:0:
64,192,83043,1,0,0:0:0:0:
192,192,83510,1,0,0:0:0:0:
64,192,83822,1,0,0:0:0:0:
192,192,84134,1,0,0:0:0:0:
64,192,84290,1,0,0:0:0:0:
448,192,84445,1,0,0:0:0:0:
192,192,84601,1,0,0:0:0:0:
64,192,84913,1,0,0:0:0:0:
320,192,85225,1,0,0:0:0:0:
192,192,85536,1,0,0:0:0:0:
320,192,86004,1,0,0:0:0:0:
192,192,86316,1,0,0:0:0:0:
320,192,86627,1,0,0:0:0:0:
448,192,86783,1,0,0:0:0:0:
64,192,86939,1,0,0:0:0:0:
448,192,87095,1,0,0:0:0:0:
64,192,87407,1,0,0:0:0:0:
320,192,87718,1,0,0:0:0:0:
192,192,88030,1,0,0:0:0:0:
320,192,88498,1,0,0:0:0:0:
64,192,88809,1,0,0:0:0:0:
192,192,89120,1,0,0:0:0:0:
448,192,89277,1,0,0:0:0:0:
64,192,89432,1,0,0:0:0:0:
320,192,89589,1,0,0:0:0:0:
64,192,89744,1,0,0:0:0:0:
320,192,90211,1,0,0:0:0:0:
192,192,90523,1,0,0:0:0:0:
320,192,90990,1,0,0:0:0:0:
192,192,91302,1,0,0:0:0:0:
320,192,91614,1,0,0:0:0:0:
448,192,91770,1,0,0:0:0:0:
64,192,91926,1,0,0:0:0:0:
448,192,92081,1,0,0:0:0:0:
320,192,92393,1,0,0:0:0:0:
192,192,92705,1,0,0:0:0:0:
64,192,93017,1,0,0:0:0:0:
448,192,93484,1,0,0:0:0:0:
64,192,93796,1,0,0:0:0:0:
192,192,94108,1,0,0:0:0:0:
64,192,94263,1,0,0:0:0:0:
448,192,94420,1,0,0:0:0:0:
192,192,94575,1,0,0:0:0:0:
64,192,94887,1,0,0:0:0:0:
320,192,95199,1,0,0:0:0:0:
192,192,95510,1,0,0:0:0:0:
320,192,95978,1,0,0:0:0:0:
192,192,96290,1,0,0:0:0:0:
320,192,96601,1,0,0:0:0:0:
448,192,96757,1,0,0:0:0:0:
64,192,96913,1,0,0:0:0:0:
448,192,97069,1,0,0:0:0:0:
64,192,97380,1,0,0:0:0:0:
320,192,97692,1,0,0:0:0:0:
192,192,98004,1,0,0:0:0:0:
320,192,98471,1,0,0:0:0:0:
64,192,98783,1,0,0:0:0:0:
192,192,99095,1,0,0:0:0:0:
448,192,99250,1,0,0:0:0:0:
64,192,99407,1,0,0:0:0:0:
448,192,99562,1,0,0:0:0:0:
192,192,99718,1,0,0:0:0:0:
320,192,99796,1,0,0:0:0:0:
448,192,99874,1,0,0:0:0:0:
192,192,99874,1,0,0:0:0:0:
64,192,99874,1,0,0:0:0:0:
320,192,100186,1,0,0:0:0:0:
448,192,100420,1,0,0:0:0:0:
192,192,100498,1,0,0:0:0:0:
64,192,100498,1,0,0:0:0:0:
320,192,100965,1,0,0:0:0:0:
192,192,101277,1,0,0:0:0:0:
320,192,101589,1,0,0:0:0:0:
448,192,101744,1,0,0:0:0:0:
64,192,101900,1,0,0:0:0:0:
448,192,102056,1,0,0:0:0:0:
320,192,102368,1,0,0:0:0:0:
64,192,102368,1,0,0:0:0:0:
192,192,102680,1,0,0:0:0:0:
64,192,102990,1,0,0:0:0:0:
192,192,103459,1,0,0:0:0:0:
64,192,103770,1,0,0:0:0:0:
192,192,104081,1,0,0:0:0:0:
64,192,104238,1,0,0:0:0:0:
448,192,104393,1,0,0:0:0:0:
192,192,104550,1,0,0:0:0:0:
448,192,104861,1,0,0:0:0:0:
64,192,104861,1,0,0:0:0:0:
320,192,105172,1,0,0:0:0:0:
192,192,105484,1,0,0:0:0:0:
320,192,105952,1,0,0:0:0:0:
192,192,106263,1,0,0:0:0:0:
320,192,106575,1,0,0:0:0:0:
448,192,106731,1,0,0:0:0:0:
64,192,106887,1,0,0:0:0:0:
448,192,107043,1,0,0:0:0:0:
192,192,107354,1,0,0:0:0:0:
64,192,107354,1,0,0:0:0:0:
320,192,107666,1,0,0:0:0:0:
192,192,107978,1,0,0:0:0:0:
320,192,108445,1,0,0:0:0:0:
64,192,108757,1,0,0:0:0:0:
192,192,109069,1,0,0:0:0:0:
448,192,109225,1,0,0:0:0:0:
64,192,109380,1,0,0:0:0:0:
320,192,109536,1,0,0:0:0:0:
448,192,109692,1,0,0:0:0:0:
64,192,109692,1,0,0:0:0:0:
320,192,110160,1,0,0:0:0:0:
448,192,110316,1,0,0:0:0:0:
64,192,110316,1,0,0:0:0:0:
192,192,110471,1,0,0:0:0:0:
448,192,110783,1,0,0:0:0:0:
64,192,110783,1,0,0:0:0:0:
320,192,110939,1,0,0:0:0:0:
448,192,111250,1,0,0:0:0:0:
64,192,111250,1,0,0:0:0:0:
320,192,111562,1,0,0:0:0:0:
448,192,111718,1,0,0:0:0:0:
64,192,111718,1,0,0:0:0:0:
192,192,111874,1,0,0:0:0:0:
448,192,112030,1,0,0:0:0:0:
320,192,112341,1,0,0:0:0:0:
192,192,112341,1,0,0:0:0:0:
192,192,112653,1,0,0:0:0:0:
320,192,112809,1,0,0:0:0:0:
192,192,112809,1,0,0:0:0:0:
64,192,112965,1,0,0:0:0:0:
320,192,113277,1,0,0:0:0:0:
192,192,113277,1,0,0:0:0:0:
192,192,113432,1,0,0:0:0:0:
320,192,113744,1,0,0:0:0:0:
192,192,113744,1,0,0:0:0:0:
192,192,114056,1,0,0:0:0:0:
320,192,114211,1,0,0:0:0:0:
192,192,114211,1,0,0:0:0:0:
448,192,114368,1,0,0:0:0:0:
320,192,114523,1,0,0:0:0:0:
192,192,114523,1,0,0:0:0:0:
448,192,114835,1,0,0:0:0:0:
64,192,114835,1,0,0:0:0:0:
320,192,115147,1,0,0:0:0:0:
320,192,115302,1,0,0:0:0:0:
64,192,115302,1,0,0:0:0:0:
192,192,115459,1,0,0:0:0:0:
320,192,115770,1,0,0:0:0:0:
64,192,115770,1,0,0:0:0:0:
320,192,115926,1,0,0:0:0:0:
320,192,116238,1,0,0:0:0:0:
64,192,116238,1,0,0:0:0:0:
320,192,116550,1,0,0:0:0:0:
320,192,116705,1,0,0:0:0:0:
64,192,116705,1,0,0:0:0:0:
192,192,116861,1,0,0:0:0:0:
320,192,117017,1,0,0:0:0:0:
320,192,117172,1,0,0:0:0:0:
64,192,117172,1,0,0:0:0:0:
192,192,117329,1,0,0:0:0:0:
64,192,117329,1,0,0:0:0:0:
320,192,117640,1,0,0:0:0:0:
192,192,117796,1,0,0:0:0:0:
64,192,117796,1,0,0:0:0:0:
192,192,117952,1,0,0:0:0:0:
192,192,118263,1,0,0:0:0:0:
64,192,118263,1,0,0:0:0:0:
320,192,118420,1,0,0:0:0:0:
448,192,118731,1,0,0:0:0:0:
320,192,118731,1,0,0:0:0:0:
192,192,119043,1,0,0:0:0:0:
448,192,119199,1,0,0:0:0:0:
320,192,119199,1,0,0:0:0:0:
64,192,119199,1,0,0:0:0:0:
64,192,119354,1,0,0:0:0:0:
448,192,119510,1,0,0:0:0:0:
192,192,119510,1,0,0:0:0:0:
320,192,119666,1,0,0:0:0:0:
448,192,119822,1,0,0:0:0:0:
192,192,119822,1,0,0:0:0:0:
64,192,119822,1,0,0:0:0:0:
192,192,119978,1,0,0:0:0:0:
64,192,119978,1,0,0:0:0:0:
448,192,120134,1,0,0:0:0:0:
320,192,120134,1,0,0:0:0:0:
64,192,120134,1,0,0:0:0:0:
192,192,120290,1,0,0:0:0:0:
448,192,120368,1,0,0:0:0:0:
320,192,120445,1,0,0:0:0:0:
64,192,120445,1,0,0:0:0:0:
448,192,120601,1,0,0:0:0:0:
320,192,120601,1,0,0:0:0:0:
448,192,120757,1,0,0:0:0:0:
192,192,120757,1,0,0:0:0:0:
64,192,120757,1,0,0:0:0:0:
320,192,120913,1,0,0:0:0:0:
64,192,120990,1,0,0:0:0:0:
448,192,121069,1,0,0:0:0:0:
192,192,121069,1,0,0:0:0:0:
192,192,121225,1,0,0:0:0:0:
64,192,121225,1,0,0:0:0:0:
448,192,121380,1,0,0:0:0:0:
320,192,121380,1,0,0:0:0:0:
64,192,121380,1,0,0:0:0:0:
192,192,121536,1,0,0:0:0:0:
448,192,121692,1,0,0:0:0:0:
64,192,121692,1,0,0:0:0:0:
448,192,121848,1,0,0:0:0:0:
320,192,121848,1,0,0:0:0:0:
320,192,122004,1,0,0:0:0:0:
192,192,122004,1,0,0:0:0:0:
64,192,122004,1,0,0:0:0:0:
448,192,122081,1,0,0:0:0:0:
64,192,122160,1,0,0:0:0:0:
320,192,122238,1,0,0:0:0:0:
192,192,122316,1,0,0:0:0:0:
64,192,122316,1,0,0:0:0:0:
320,192,122471,1,0,0:0:0:0:
448,192,122627,1,0,0:0:0:0:
320,192,122627,1,0,0:0:0:0:
64,192,122627,1,0,0:0:0:0:
192,192,122783,1,0,0:0:0:0:
448,192,122861,1,0,0:0:0:0:
320,192,122939,1,0,0:0:0:0:
64,192,122939,1,0,0:0:0:0:
192,192,123095,1,0,0:0:0:0:
64,192,123095,1,0,0:0:0:0:
448,192,123250,1,0,0:0:0:0:
320,192,123250,1,0,0:0:0:0:
192,192,123250,1,0,0:0:0:0:
448,192,123407,1,0,0:0:0:0:
64,192,123407,1,0,0:0:0:0:
320,192,123484,1,0,0:0:0:0:
192,192,123562,1,0,0:0:0:0:
64,192,123562,1,0,0:0:0:0:
320,192,123718,1,0,0:0:0:0:
192,192,123718,1,0,0:0:0:0:
448,192,123874,1,0,0:0:0:0:
320,192,123874,1,0,0:0:0:0:
64,192,123874,1,0,0:0:0:0:
448,192,124030,1,0,0:0:0:0:
192,192,124030,1,0,0:0:0:0:
320,192,124186,1,0,0:0:0:0:
64,192,124186,1,0,0:0:0:0:
192,192,124341,1,0,0:0:0:0:
64,192,124341,1,0,0:0:0:0:
448,192,124498,1,0,0:0:0:0:
320,192,124498,1,0,0:0:0:0:
64,192,124498,1,0,0:0:0:0:
192,192,124575,1,0,0:0:0:0:
448,192,124653,1,0,0:0:0:0:
64,192,124731,1,0,0:0:0:0:
448,192,124809,1,0,0:0:0:0:
320,192,124809,1,0,0:0:0:0:
192,192,124965,1,0,0:0:0:0:
320,192,125120,1,0,0:0:0:0:
192,192,125120,1,0,0:0:0:0:
64,192,125120,1,0,0:0:0:0:
448,192,125277,1,0,0:0:0:0:
192,192,125354,1,0,0:0:0:0:
320,192,125432,1,0,0:0:0:0:
64,192,125432,1,0,0:0:0:0:
64,192,125589,1,0,0:0:0:0:
448,192,125744,1,0,0:0:0:0:
320,192,125744,1,0,0:0:0:0:
192,192,125744,1,0,0:0:0:0:
448,192,125900,1,0,0:0:0:0:
64,192,125900,1,0,0:0:0:0:
192,192,125978,1,0,0:0:0:0:
320,192,126056,1,0,0:0:0:0:
192,192,126211,1,0,0:0:0:0:
64,192,126211,1,0,0:0:0:0:
448,192,126368,1,0,0:0:0:0:
320,192,126368,1,0,0:0:0:0:
64,192,126368,1,0,0:0:0:0:
192,192,126523,1,0,0:0:0:0:
192,192,126680,1,0,0:0:0:0:
448,192,126835,1,0,0:0:0:0:
320,192,126835,1,0,0:0:0:0:
448,192,126990,1,0,0:0:0:0:
320,192,126990,1,0,0:0:0:0:
64,192,126990,1,0,0:0:0:0:
192,192,127069,1,0,0:0:0:0:
320,192,127147,1,0,0:0:0:0:
64,192,127225,1,0,0:0:0:0:
448,192,127302,1,0,0:0:0:0:
320,192,127459,1,0,0:0:0:0:
64,192,127459,1,0,0:0:0:0:
64,192,127614,1,0,0:0:0:0:
448,192,127770,1,0,0:0:0:0:
192,192,127770,1,0,0:0:0:0:
64,192,127848,1,0,0:0:0:0:
320,192,127926,1,0,0:0:0:0:
192,192,128081,1,0,0:0:0:0:
64,192,128081,1,0,0:0:0:0:
448,192,128238,1,0,0:0:0:0:
320,192,128238,1,0,0:0:0:0:
64,192,128238,1,0,0:0:0:0:
448,192,128393,1,0,0:0:0:0:
192,192,128393,1,0,0:0:0:0:
320,192,128471,1,0,0:0:0:0:
192,192,128550,1,0,0:0:0:0:
448,192,128705,1,0,0:0:0:0:
448,192,128861,1,0,0:0:0:0:
320,192,128861,1,0,0:0:0:0:
64,192,128861,1,0,0:0:0:0:
192,192,129017,1,0,0:0:0:0:
320,192,129172,1,0,0:0:0:0:
64,192,129172,1,0,0:0:0:0:
448,192,129329,1,0,0:0:0:0:
320,192,129329,1,0,0:0:0:0:
448,192,129484,1,0,0:0:0:0:
192,192,129484,1,0,0:0:0:0:
64,192,129484,1,0,0:0:0:0:
320,192,129562,1,0,0:0:0:0:
64,192,129640,1,0,0:0:0:0:
448,192,129718,1,0,0:0:0:0:
320,192,129796,1,0,0:0:0:0:
192,192,129796,1,0,0:0:0:0:
192,192,129952,1,0,0:0:0:0:
64,192,129952,1,0,0:0:0:0:
448,192,130108,1,0,0:0:0:0:
320,192,130108,1,0,0:0:0:0:
64,192,130108,1,0,0:0:0:0:
192,192,130263,1,0,0:0:0:0:
320,192,130341,1,0,0:0:0:0:
448,192,130420,1,0,0:0:0:0:
64,192,130420,1,0,0:0:0:0:
448,192,130575,1,0,0:0:0:0:
320,192,130575,1,0,0:0:0:0:
320,192,130731,1,0,0:0:0:0:
192,192,130731,1,0,0:0:0:0:
64,192,130731,1,0,0:0:0:0:
448,192,130887,1,0,0:0:0:0:
192,192,130965,1,0,0:0:0:0:
320,192,131043,1,0,0:0:0:0:
64,192,131043,1,0,0:0:0:0:
192,192,131199,1,0,0:0:0:0:
64,192,131199,1,0,0:0:0:0:
448,192,131354,1,0,0:0:0:0:
320,192,131354,1,0,0:0:0:0:
192,192,131354,1,0,0:0:0:0:
64,192,131510,1,0,0:0:0:0:
320,192,131666,1,0,0:0:0:0:
192,192,131666,1,0,0:0:0:0:
448,192,131822,1,0,0:0:0:0:
320,192,131822,1,0,0:0:0:0:
448,192,131978,1,0,0:0:0:0:
192,192,131978,1,0,0:0:0:0:
64,192,131978,1,0,0:0:0:0:
320,192,132056,1,0,0:0:0:0:
192,192,132134,1,0,0:0:0:0:
448,192,132211,1,0,0:0:0:0:
192,192,132290,1,0,0:0:0:0:
64,192,132290,1,0,0:0:0:0:
448,192,132445,1,0,0:0:0:0:
320,192,132445,1,0,0:0:0:0:
448,192,132601,1,0,0:0:0:0:
192,192,132601,1,0,0:0:0:0:
64,192,132601,1,0,0:0:0:0:
320,192,132757,1,0,0:0:0:0:
64,192,132835,1,0,0:0:0:0:
448,192,132913,1,0,0:0:0:0:
192,192,132913,1,0,0:0:0:0:
192,192,133069,1,0,0:0:0:0:
64,192,133069,1,0,0:0:0:0:
448,192,133225,1,0,0:0:0:0:
320,192,133225,1,0,0:0:0:0:
64,192,133225,1,0,0:0:0:0:
448,192,133380,1,0,0:0:0:0:
192,192,133380,1,0,0:0:0:0:
320,192,133459,1,0,0:0:0:0:
192,192,133536,1,0,0:0:0:0:
64,192,133536,1,0,0:0:0:0:
448,192,133692,1,0,0:0:0:0:
64,192,133692,1,0,0:0:0:0:
448,192,133848,1,0,0:0:0:0:
320,192,133848,1,0,0:0:0:0:
192,192,133848,1,0,0:0:0:0:
320,192,134004,1,0,0:0:0:0:
64,192,134004,1,0,0:0:0:0:
448,192,134160,1,0,0:0:0:0:
192,192,134160,1,0,0:0:0:0:
192,192,134316,1,0,0:0:0:0:
64,192,134316,1,0,0:0:0:0:
448,192,134471,1,0,0:0:0:0:
320,192,134471,1,0,0:0:0:0:
64,192,134471,1,0,0:0:0:0:
192,192,134550,1,0,0:0:0:0:
448,192,134627,1,0,0:0:0:0:
64,192,134705,1,0,0:0:0:0:
448,192,134783,1,0,0:0:0:0:
320,192,134783,1,0,0:0:0:0:
192,192,134939,1,0,0:0:0:0:
320,192,135095,1,0,0:0:0:0:
192,192,135095,1,0,0:0:0:0:
64,192,135095,1,0,0:0:0:0:
448,192,135250,1,0,0:0:0:0:
192,192,135329,1,0,0:0:0:0:
320,192,135407,1,0,0:0:0:0:
64,192,135407,1,0,0:0:0:0:
64,192,135562,1,0,0:0:0:0:
448,192,135718,1,0,0:0:0:0:
320,192,135718,1,0,0:0:0:0:
192,192,135718,1,0,0:0:0:0:
448,192,135874,1,0,0:0:0:0:
64,192,135874,1,0,0:0:0:0:
192,192,135952,1,0,0:0:0:0:
320,192,136030,1,0,0:0:0:0:
192,192,136186,1,0,0:0:0:0:
64,192,136186,1,0,0:0:0:0:
448,192,136341,1,0,0:0:0:0:
320,192,136341,1,0,0:0:0:0:
64,192,136341,1,0,0:0:0:0:
192,192,136498,1,0,0:0:0:0:
192,192,136653,1,0,0:0:0:0:
448,192,136809,1,0,0:0:0:0:
320,192,136809,1,0,0:0:0:0:
448,192,136965,1,0,0:0:0:0:
320,192,136965,1,0,0:0:0:0:
64,192,136965,1,0,0:0:0:0:
192,192,137043,1,0,0:0:0:0:
320,192,137120,1,0,0:0:0:0:
64,192,137199,1,0,0:0:0:0:
448,192,137277,1,0,0:0:0:0:
320,192,137432,1,0,0:0:0:0:
64,192,137432,1,0,0:0:0:0:
64,192,137589,1,0,0:0:0:0:
448,192,137744,1,0,0:0:0:0:
192,192,137744,1,0,0:0:0:0:
64,192,137822,1,0,0:0:0:0:
320,192,137900,1,0,0:0:0:0:
192,192,138056,1,0,0:0:0:0:
64,192,138056,1,0,0:0:0:0:
448,192,138211,1,0,0:0:0:0:
320,192,138211,1,0,0:0:0:0:
64,192,138211,1,0,0:0:0:0:
448,192,138368,1,0,0:0:0:0:
192,192,138368,1,0,0:0:0:0:
320,192,138445,1,0,0:0:0:0:
192,192,138523,1,0,0:0:0:0:
448,192,138680,1,0,0:0:0:0:
320,192,138680,1,0,0:0:0:0:
448,192,138835,1,0,0:0:0:0:
320,192,138835,1,0,0:0:0:0:
64,192,138835,1,0,0:0:0:0:
192,192,138990,1,0,0:0:0:0:
320,192,139147,1,0,0:0:0:0:
64,192,139147,1,0,0:0:0:0:
448,192,139302,1,0,0:0:0:0:
320,192,139302,1,0,0:0:0:0:
448,192,139459,1,0,0:0:0:0:
192,192,139459,1,0,0:0:0:0:
64,192,139459,1,0,0:0:0:0:
320,192,139536,1,0,0:0:0:0:
192,192,139614,1,0,0:0:0:0:
448,192,139692,1,0,0:0:0:0:
320,192,139770,1,0,0:0:0:0:
192,192,139770,1,0,0:0:0:0:
64,192,139770,1,0,0:0:0:0:
448,192,139926,1,0,0:0:0:0:
320,192,139926,1,0,0:0:0:0:
448,192,140081,1,0,0:0:0:0:
192,192,140081,1,0,0:0:0:0:
64,192,140081,1,0,0:0:0:0:
320,192,140238,1,0,0:0:0:0:
64,192,140316,1,0,0:0:0:0:
448,192,140393,1,0,0:0:0:0:
192,192,140393,1,0,0:0:0:0:
192,192,140550,1,0,0:0:0:0:
64,192,140550,1,0,0:0:0:0:
448,192,140705,1,0,0:0:0:0:
320,192,140705,1,0,0:0:0:0:
64,192,140705,1,0,0:0:0:0:
192,192,140861,1,0,0:0:0:0:
448,192,140939,1,0,0:0:0:0:
320,192,141017,1,0,0:0:0:0:
64,192,141017,1,0,0:0:0:0:
448,192,141172,1,0,0:0:0:0:
320,192,141172,1,0,0:0:0:0:
448,192,141329,1,0,0:0:0:0:
192,192,141329,1,0,0:0:0:0:
64,192,141329,1,0,0:0:0:0:
320,192,141484,1,0,0:0:0:0:
192,192,141484,1,0,0:0:0:0:
448,192,141640,1,0,0:0:0:0:
64,192,141640,1,0,0:0:0:0:
192,192,141796,1,0,0:0:0:0:
64,192,141796,1,0,0:0:0:0:
448,192,141952,1,0,0:0:0:0:
320,192,141952,1,0,0:0:0:0:
192,192,141952,1,0,0:0:0:0:
64,192,142030,1,0,0:0:0:0:
448,192,142108,1,0,0:0:0:0:
192,192,142186,1,0,0:0:0:0:
448,192,142263,1,0,0:0:0:0:
320,192,142263,1,0,0:0:0:0:
192,192,142420,1,0,0:0:0:0:
64,192,142420,1,0,0:0:0:0:
448,192,142575,1,0,0:0:0:0:
192,192,142575,1,0,0:0:0:0:
64,192,142575,1,0,0:0:0:0:
320,192,142731,1,0,0:0:0:0:
64,192,142809,1,0,0:0:0:0:
448,192,142887,1,0,0:0:0:0:
192,192,142887,1,0,0:0:0:0:
448,192,143043,1,0,0:0:0:0:
320,192,143043,1,0,0:0:0:0:
320,192,143199,1,0,0:0:0:0:
192,192,143199,1,0,0:0:0:0:
64,192,143199,1,0,0:0:0:0:
448,192,143354,1,0,0:0:0:0:
64,192,143354,1,0,0:0:0:0:
192,192,143432,1,0,0:0:0:0:
448,192,143510,1,0,0:0:0:0:
320,192,143510,1,0,0:0:0:0:
320,192,143666,1,0,0:0:0:0:
192,192,143666,1,0,0:0:0:0:
448,192,143822,1,0,0:0:0:0:
192,192,143822,1,0,0:0:0:0:
64,192,143822,1,0,0:0:0:0:
320,192,143978,1,0,0:0:0:0:
64,192,143978,1,0,0:0:0:0:
448,192,144134,1,0,0:0:0:0:
192,192,144134,1,0,0:0:0:0:
448,192,144290,1,0,0:0:0:0:
320,192,144290,1,0,0:0:0:0:
320,192,144445,1,0,0:0:0:0:
192,192,144445,1,0,0:0:0:0:
64,192,144445,1,0,0:0:0:0:
448,192,144523,1,0,0:0:0:0:
64,192,144601,1,0,0:0:0:0:
320,192,144680,1,0,0:0:0:0:
192,192,144757,1,0,0:0:0:0:
64,192,144757,1,0,0:0:0:0:
448,192,144913,1,0,0:0:0:0:
448,192,145069,1,0,0:0:0:0:
192,192,145069,1,0,0:0:0:0:
64,192,145069,1,0,0:0:0:0:
320,192,145225,1,0,0:0:0:0:
192,192,145302,1,0,0:0:0:0:
448,192,145380,1,0,0:0:0:0:
64,192,145380,1,0,0:0:0:0:
64,192,145536,1,0,0:0:0:0:
448,192,145692,1,0,0:0:0:0:
320,192,145692,1,0,0:0:0:0:
192,192,145692,1,0,0:0:0:0:
448,192,145848,1,0,0:0:0:0:
64,192,145848,1,0,0:0:0:0:
192,192,145926,1,0,0:0:0:0:
320,192,146004,1,0,0:0:0:0:
192,192,146160,1,0,0:0:0:0:
64,192,146160,1,0,0:0:0:0:
448,192,146316,1,0,0:0:0:0:
320,192,146316,1,0,0:0:0:0:
64,192,146316,1,0,0:0:0:0:
192,192,146471,1,0,0:0:0:0:
192,192,146627,1,0,0:0:0:0:
448,192,146783,1,0,0:0:0:0:
320,192,146783,1,0,0:0:0:0:
448,192,146939,1,0,0:0:0:0:
320,192,146939,1,0,0:0:0:0:
64,192,146939,1,0,0:0:0:0:
192,192,147017,1,0,0:0:0:0:
320,192,147095,1,0,0:0:0:0:
64,192,147172,1,0,0:0:0:0:
448,192,147250,1,0,0:0:0:0:
320,192,147407,1,0,0:0:0:0:
64,192,147407,1,0,0:0:0:0:
64,192,147562,1,0,0:0:0:0:
448,192,147718,1,0,0:0:0:0:
192,192,147718,1,0,0:0:0:0:
64,192,147796,1,0,0:0:0:0:
320,192,147874,1,0,0:0:0:0:
192,192,148030,1,0,0:0:0:0:
64,192,148030,1,0,0:0:0:0:
448,192,148186,1,0,0:0:0:0:
320,192,148186,1,0,0:0:0:0:
64,192,148186,1,0,0:0:0:0:
448,192,148341,1,0,0:0:0:0:
192,192,148341,1,0,0:0:0:0:
320,192,148420,1,0,0:0:0:0:
192,192,148498,1,0,0:0:0:0:
448,192,148653,1,0,0:0:0:0:
448,192,148809,1,0,0:0:0:0:
320,192,148809,1,0,0:0:0:0:
64,192,148809,1,0,0:0:0:0:
192,192,148965,1,0,0:0:0:0:
320,192,149120,1,0,0:0:0:0:
64,192,149120,1,0,0:0:0:0:
448,192,149277,1,0,0:0:0:0:
320,192,149277,1,0,0:0:0:0:
448,192,149432,1,0,0:0:0:0:
192,192,149432,1,0,0:0:0:0:
64,192,149432,1,0,0:0:0:0:
320,192,149510,1,0,0:0:0:0:
64,192,149589,1,0,0:0:0:0:
448,192,149666,1,0,0:0:0:0:
320,192,149744,1,0,0:0:0:0:
192,192,149744,1,0,0:0:0:0:
448,192,149900,1,0,0:0:0:0:
320,192,149900,1,0,0:0:0:0:
448,192,150056,1,0,0:0:0:0:
192,192,150056,1,0,0:0:0:0:
64,192,150056,1,0,0:0:0:0:
320,192,150211,1,0,0:0:0:0:
192,192,150290,1,0,0:0:0:0:
448,192,150368,1,0,0:0:0:0:
64,192,150368,1,0,0:0:0:0:
192,192,150523,1,0,0:0:0:0:
64,192,150523,1,0,0:0:0:0:
448,192,150680,1,0,0:0:0:0:
320,192,150680,1,0,0:0:0:0:
192,192,150680,1,0,0:0:0:0:
64,192,150835,1,0,0:0:0:0:
320,192,150913,1,0,0:0:0:0:
448,192,150990,1,0,0:0:0:0:
192,192,150990,1,0,0:0:0:0:
448,192,151147,1,0,0:0:0:0:
320,192,151147,1,0,0:0:0:0:
320,192,151302,1,0,0:0:0:0:
192,192,151302,1,0,0:0:0:0:
64,192,151302,1,0,0:0:0:0:
448,192,151459,1,0,0:0:0:0:
320,192,151614,1,0,0:0:0:0:
192,192,151614,1,0,0:0:0:0:
192,192,151770,1,0,0:0:0:0:
64,192,151770,1,0,0:0:0:0:
448,192,151926,1,0,0:0:0:0:
320,192,151926,1,0,0:0:0:0:
64,192,151926,1,0,0:0:0:0:
192,192,152004,1,0,0:0:0:0:
320,192,152081,1,0,0:0:0:0:
64,192,152160,1,0,0:0:0:0:
448,192,152238,1,0,0:0:0:0:
320,192,152238,1,0,0:0:0:0:
192,192,152393,1,0,0:0:0:0:
64,192,152393,1,0,0:0:0:0:
448,192,152550,1,0,0:0:0:0:
320,192,152550,1,0,0:0:0:0:
64,192,152550,1,0,0:0:0:0:
448,192,152705,1,0,0:0:0:0:
320,192,152705,1,0,0:0:0:0:
192,192,152783,1,0,0:0:0:0:
448,192,152861,1,0,0:0:0:0:
64,192,152861,1,0,0:0:0:0:
192,192,153017,1,0,0:0:0:0:
64,192,153017,1,0,0:0:0:0:
448,192,153172,1,0,0:0:0:0:
320,192,153172,1,0,0:0:0:0:
64,192,153172,1,0,0:0:0:0:
448,192,153329,1,0,0:0:0:0:
192,192,153329,1,0,0:0:0:0:
320,192,153407,1,0,0:0:0:0:
192,192,153484,1,0,0:0:0:0:
64,192,153484,1,0,0:0:0:0:
320,192,153640,1,0,0:0:0:0:
64,192,153640,1,0,0:0:0:0:
448,192,153796,1,0,0:0:0:0:
320,192,153796,1,0,0:0:0:0:
192,192,153796,1,0,0:0:0:0:
448,192,153952,1,0,0:0:0:0:
320,192,153952,1,0,0:0:0:0:
192,192,154108,1,0,0:0:0:0:
64,192,154108,1,0,0:0:0:0:
192,192,154263,1,0,0:0:0:0:
64,192,154263,1,0,0:0:0:0:
448,192,154420,1,0,0:0:0:0:
320,192,154420,1,0,0:0:0:0:
64,192,154420,1,0,0:0:0:0:
192,192,154498,1,0,0:0:0:0:
320,192,154575,1,0,0:0:0:0:
64,192,154653,1,0,0:0:0:0:
448,192,154731,1,0,0:0:0:0:
320,192,154731,1,0,0:0:0:0:
192,192,154887,1,0,0:0:0:0:
448,192,155043,1,0,0:0:0:0:
192,192,155043,1,0,0:0:0:0:
64,192,155043,1,0,0:0:0:0:
320,192,155199,1,0,0:0:0:0:
192,192,155277,1,0,0:0:0:0:
448,192,155354,1,0,0:0:0:0:
192,192,155510,1,0,0:0:0:0:
64,192,155510,1,0,0:0:0:0:
448,192,155666,1,0,0:0:0:0:
320,192,155666,1,0,0:0:0:0:
64,192,155666,1,0,0:0:0:0:
192,192,155822,1,0,0:0:0:0:
320,192,155900,1,0,0:0:0:0:
192,192,155978,1,0,0:0:0:0:
64,192,155978,1,0,0:0:0:0:
320,192,156134,1,0,0:0:0:0:
64,192,156134,1,0,0:0:0:0:
448,192,156290,1,0,0:0:0:0:
320,192,156290,1,0,0:0:0:0:
192,192,156290,1,0,0:0:0:0:
448,192,156445,1,0,0:0:0:0:
320,192,156445,1,0,0:0:0:0:
192,192,156601,1,0,0:0:0:0:
64,192,156601,1,0,0:0:0:0:
192,192,156757,1,0,0:0:0:0:
64,192,156757,1,0,0:0:0:0:
448,192,156913,1,0,0:0:0:0:
320,192,156913,1,0,0:0:0:0:
64,192,156913,1,0,0:0:0:0:
192,192,156990,1,0,0:0:0:0:
320,192,157069,1,0,0:0:0:0:
192,192,157147,1,0,0:0:0:0:
448,192,157225,1,0,0:0:0:0:
320,192,157225,1,0,0:0:0:0:
192,192,157380,1,0,0:0:0:0:
64,192,157380,1,0,0:0:0:0:
448,192,157536,1,0,0:0:0:0:
320,192,157536,1,0,0:0:0:0:
64,192,157536,1,0,0:0:0:0:
448,192,157692,1,0,0:0:0:0:
320,192,157692,1,0,0:0:0:0:
192,192,157770,1,0,0:0:0:0:
448,192,157848,1,0,0:0:0:0:
64,192,157848,1,0,0:0:0:0:
192,192,158004,1,0,0:0:0:0:
64,192,158004,1,0,0:0:0:0:
448,192,158160,1,0,0:0:0:0:
320,192,158160,1,0,0:0:0:0:
64,192,158160,1,0,0:0:0:0:
448,192,158316,1,0,0:0:0:0:
192,192,158316,1,0,0:0:0:0:
320,192,158393,1,0,0:0:0:0:
192,192,158471,1,0,0:0:0:0:
64,192,158471,1,0,0:0:0:0:
320,192,158627,1,0,0:0:0:0:
64,192,158627,1,0,0:0:0:0:
448,192,158783,1,0,0:0:0:0:
320,192,158783,1,0,0:0:0:0:
192,192,158783,1,0,0:0:0:0:
192,192,158939,1,0,0:0:0:0:
64,192,158939,1,0,0:0:0:0:
448,192,159095,1,0,0:0:0:0:
320,192,159095,1,0,0:0:0:0:
448,192,159250,1,0,0:0:0:0:
320,192,159250,1,0,0:0:0:0:
448,192,159407,1,0,0:0:0:0:
192,192,159407,1,0,0:0:0:0:
64,192,159407,1,0,0:0:0:0:
320,192,159484,1,0,0:0:0:0:
192,192,159562,1,0,0:0:0:0:
320,192,159640,1,0,0:0:0:0:
448,192,159718,1,0,0:0:0:0:
192,192,159718,1,0,0:0:0:0:
64,192,159718,1,0,0:0:0:0:
320,192,159874,1,0,0:0:0:0:
448,192,160030,1,0,0:0:0:0:
320,192,160030,1,0,0:0:0:0:
64,192,160030,1,0,0:0:0:0:
192,192,160186,1,0,0:0:0:0:
320,192,160263,1,0,0:0:0:0:
64,192,160341,1,0,0:0:0:0:
448,192,160498,1,0,0:0:0:0:
320,192,160498,1,0,0:0:0:0:
448,192,160653,1,0,0:0:0:0:
192,192,160653,1,0,0:0:0:0:
64,192,160653,1,0,0:0:0:0:
320,192,160809,1,0,0:0:0:0:
192,192,160887,1,0,0:0:0:0:
320,192,160965,1,0,0:0:0:0:
192,192,161120,1,0,0:0:0:0:
64,192,161120,1,0,0:0:0:0:
448,192,161277,1,0,0:0:0:0:
320,192,161277,1,0,0:0:0:0:
64,192,161277,1,0,0:0:0:0:
192,192,161432,1,0,0:0:0:0:
448,192,161589,1,0,0:0:0:0:
64,192,161589,1,0,0:0:0:0:
448,192,161744,1,0,0:0:0:0:
320,192,161744,1,0,0:0:0:0:
320,192,161900,1,0,0:0:0:0:
192,192,161900,1,0,0:0:0:0:
64,192,161900,1,0,0:0:0:0:
448,192,161978,1,0,0:0:0:0:
192,192,162056,1,0,0:0:0:0:
320,192,162134,1,0,0:0:0:0:
448,192,162211,1,0,0:0:0:0:
192,192,162211,1,0,0:0:0:0:
64,192,162368,1,0,0:0:0:0:
448,192,162523,1,0,0:0:0:0:
192,192,162523,1,0,0:0:0:0:
64,192,162523,1,0,0:0:0:0:
320,192,162680,1,0,0:0:0:0:
192,192,162757,1,0,0:0:0:0:
448,192,162835,1,0,0:0:0:0:
192,192,162990,1,0,0:0:0:0:
64,192,162990,1,0,0:0:0:0:
448,192,163147,1,0,0:0:0:0:
320,192,163147,1,0,0:0:0:0:
64,192,163147,1,0,0:0:0:0:
192,192,163302,1,0,0:0:0:0:
320,192,163380,1,0,0:0:0:0:
192,192,163459,1,0,0:0:0:0:
448,192,163614,1,0,0:0:0:0:
320,192,163614,1,0,0:0:0:0:
448,192,163770,1,0,0:0:0:0:
192,192,163770,1,0,0:0:0:0:
64,192,163770,1,0,0:0:0:0:
320,192,163926,1,0,0:0:0:0:
448,192,164081,1,0,0:0:0:0:
64,192,164081,1,0,0:0:0:0:
192,192,164238,1,0,0:0:0:0:
64,192,164238,1,0,0:0:0:0:
448,192,164393,1,0,0:0:0:0:
320,192,164393,1,0,0:0:0:0:
192,192,164393,1,0,0:0:0:0:
64,192,164471,1,0,0:0:0:0:
320,192,164550,1,0,0:0:0:0:
192,192,164627,1,0,0:0:0:0:
448,192,164705,1,0,0:0:0:0:
320,192,164705,1,0,0:0:0:0:
192,192,164861,1,0,0:0:0:0:
448,192,165017,1,0,0:0:0:0:
192,192,165017,1,0,0:0:0:0:
64,192,165017,1,0,0:0:0:0:
320,192,165172,1,0,0:0:0:0:
192,192,165250,1,0,0:0:0:0:
448,192,165329,1,0,0:0:0:0:
192,192,165484,1,0,0:0:0:0:
64,192,165484,1,0,0:0:0:0:
448,192,165640,1,0,0:0:0:0:
320,192,165640,1,0,0:0:0:0:
64,192,165640,1,0,0:0:0:0:
192,192,165796,1,0,0:0:0:0:
320,192,165874,1,0,0:0:0:0:
192,192,165952,1,0,0:0:0:0:
448,192,166108,1,0,0:0:0:0:
320,192,166108,1,0,0:0:0:0:
448,192,166263,1,0,0:0:0:0:
192,192,166263,1,0,0:0:0:0:
64,192,166263,1,0,0:0:0:0:
320,192,166420,1,0,0:0:0:0:
320,192,166575,1,0,0:0:0:0:
192,192,166731,1,0,0:0:0:0:
64,192,166731,1,0,0:0:0:0:
448,192,166887,1,0,0:0:0:0:
320,192,166887,1,0,0:0:0:0:
192,192,166887,1,0,0:0:0:0:
64,192,166965,1,0,0:0:0:0:
320,192,167043,1,0,0:0:0:0:
192,192,167120,1,0,0:0:0:0:
448,192,167199,1,0,0:0:0:0:
64,192,167199,1,0,0:0:0:0:
320,192,167354,1,0,0:0:0:0:
448,192,167510,1,0,0:0:0:0:
320,192,167510,1,0,0:0:0:0:
64,192,167510,1,0,0:0:0:0:
192,192,167666,1,0,0:0:0:0:
320,192,167744,1,0,0:0:0:0:
64,192,167822,1,0,0:0:0:0:
448,192,167978,1,0,0:0:0:0:
320,192,167978,1,0,0:0:0:0:
448,192,168134,1,0,0:0:0:0:
192,192,168134,1,0,0:0:0:0:
64,192,168134,1,0,0:0:0:0:
320,192,168290,1,0,0:0:0:0:
64,192,168368,1,0,0:0:0:0:
448,192,168445,1,0,0:0:0:0:
192,192,168445,1,0,0:0:0:0:
192,192,168601,1,0,0:0:0:0:
64,192,168601,1,0,0:0:0:0:
448,192,168757,1,0,0:0:0:0:
320,192,168757,1,0,0:0:0:0:
64,192,168757,1,0,0:0:0:0:
192,192,168913,1,0,0:0:0:0:
192,192,169069,1,0,0:0:0:0:
448,192,169225,1,0,0:0:0:0:
320,192,169225,1,0,0:0:0:0:
320,192,169380,1,0,0:0:0:0:
192,192,169380,1,0,0:0:0:0:
64,192,169380,1,0,0:0:0:0:
448,192,169459,1,0,0:0:0:0:
192,192,169536,1,0,0:0:0:0:
320,192,169614,1,0,0:0:0:0:
192,192,169692,1,0,0:0:0:0:
64,192,169692,1,0,0:0:0:0:
448,192,169848,1,0,0:0:0:0:
448,192,170004,1,0,0:0:0:0:
320,192,170004,1,0,0:0:0:0:
64,192,170004,1,0,0:0:0:0:
192,192,170160,1,0,0:0:0:0:
448,192,170238,1,0,0:0:0:0:
64,192,170316,1,0,0:0:0:0:
448,192,170471,1,0,0:0:0:0:
320,192,170471,1,0,0:0:0:0:
320,192,170627,1,0,0:0:0:0:
192,192,170627,1,0,0:0:0:0:
64,192,170627,1,0,0:0:0:0:
448,192,170783,1,0,0:0:0:0:
192,192,170861,1,0,0:0:0:0:
448,192,170939,1,0,0:0:0:0:
192,192,171095,1,0,0:0:0:0:
64,192,171095,1,0,0:0:0:0:
448,192,171250,1,0,0:0:0:0:
320,192,171250,1,0,0:0:0:0:
64,192,171250,1,0,0:0:0:0:
192,192,171407,1,0,0:0:0:0:
448,192,171562,1,0,0:0:0:0:
64,192,171562,1,0,0:0:0:0:
448,192,171718,1,0,0:0:0:0:
320,192,171718,1,0,0:0:0:0:
320,192,171874,1,0,0:0:0:0:
192,192,171874,1,0,0:0:0:0:
64,192,171874,1,0,0:0:0:0:
448,192,171952,1,0,0:0:0:0:
192,192,172030,1,0,0:0:0:0:
320,192,172108,1,0,0:0:0:0:
448,192,172186,1,0,0:0:0:0:
192,192,172186,1,0,0:0:0:0:
64,192,172341,1,0,0:0:0:0:
320,192,172498,1,0,0:0:0:0:
192,192,172498,1,0,0:0:0:0:
64,192,172498,1,0,0:0:0:0:
448,192,172653,1,0,0:0:0:0:
192,192,172731,1,0,0:0:0:0:
320,192,172809,1,0,0:0:0:0:
192,192,172965,1,0,0:0:0:0:
64,192,172965,1,0,0:0:0:0:
448,192,173120,1,0,0:0:0:0:
320,192,173120,1,0,0:0:0:0:
64,192,173120,1,0,0:0:0:0:
192,192,173277,1,0,0:0:0:0:
448,192,173354,1,0,0:0:0:0:
192,192,173432,1,0,0:0:0:0:
448,192,173589,1,0,0:0:0:0:
320,192,173589,1,0,0:0:0:0:
448,192,173744,1,0,0:0:0:0:
192,192,173744,1,0,0:0:0:0:
64,192,173744,1,0,0:0:0:0:
320,192,173900,1,0,0:0:0:0:
448,192,174056,1,0,0:0:0:0:
64,192,174056,1,0,0:0:0:0:
192,192,174211,1,0,0:0:0:0:
64,192,174211,1,0,0:0:0:0:
448,192,174368,1,0,0:0:0:0:
320,192,174368,1,0,0:0:0:0:
192,192,174368,1,0,0:0:0:0:
64,192,174445,1,0,0:0:0:0:
320,192,174523,1,0,0:0:0:0:
192,192,174601,1,0,0:0:0:0:
448,192,174680,1,0,0:0:0:0:
320,192,174680,1,0,0:0:0:0:
192,192,174835,1,0,0:0:0:0:
320,192,174990,1,0,0:0:0:0:
192,192,174990,1,0,0:0:0:0:
64,192,174990,1,0,0:0:0:0:
448,192,175147,1,0,0:0:0:0:
192,192,175225,1,0,0:0:0:0:
320,192,175302,1,0,0:0:0:0:
192,192,175459,1,0,0:0:0:0:
64,192,175459,1,0,0:0:0:0:
448,192,175614,1,0,0:0:0:0:
320,192,175614,1,0,0:0:0:0:
64,192,175614,1,0,0:0:0:0:
192,192,175770,1,0,0:0:0:0:
448,192,175848,1,0,0:0:0:0:
192,192,175926,1,0,0:0:0:0:
448,192,176081,1,0,0:0:0:0:
320,192,176081,1,0,0:0:0:0:
320,192,176238,1,0,0:0:0:0:
192,192,176238,1,0,0:0:0:0:
64,192,176238,1,0,0:0:0:0:
448,192,176393,1,0,0:0:0:0:
448,192,176550,1,0,0:0:0:0:
192,192,176705,1,0,0:0:0:0:
64,192,176705,1,0,0:0:0:0:
448,192,176861,1,0,0:0:0:0:
320,192,176861,1,0,0:0:0:0:
192,192,176861,1,0,0:0:0:0:
64,192,176939,1,0,0:0:0:0:
448,192,177017,1,0,0:0:0:0:
192,192,177095,1,0,0:0:0:0:
320,192,177172,1,0,0:0:0:0:
64,192,177172,1,0,0:0:0:0:
448,192,177329,1,0,0:0:0:0:
448,192,177484,1,0,0:0:0:0:
320,192,177484,1,0,0:0:0:0:
64,192,177484,1,0,0:0:0:0:
192,192,177640,1,0,0:0:0:0:
448,192,177718,1,0,0:0:0:0:
64,192,177796,1,0,0:0:0:0:
448,192,177952,1,0,0:0:0:0:
320,192,177952,1,0,0:0:0:0:
448,192,178108,1,0,0:0:0:0:
192,192,178108,1,0,0:0:0:0:
64,192,178108,1,0,0:0:0:0:
320,192,178263,1,0,0:0:0:0:
64,192,178341,1,0,0:0:0:0:
448,192,178420,1,0,0:0:0:0:
192,192,178420,1,0,0:0:0:0:
192,192,178575,1,0,0:0:0:0:
64,192,178575,1,0,0:0:0:0:
448,192,178731,1,0,0:0:0:0:
320,192,178731,1,0,0:0:0:0:
64,192,178731,1,0,0:0:0:0:
192,192,178887,1,0,0:0:0:0:
192,192,179043,1,0,0:0:0:0:
448,192,179199,1,0,0:0:0:0:
320,192,179199,1,0,0:0:0:0:
448,192,179354,1,0,0:0:0:0:
192,192,179354,1,0,0:0:0:0:
64,192,179354,1,0,0:0:0:0:
320,192,179432,1,0,0:0:0:0:
192,192,179510,1,0,0:0:0:0:
320,192,179589,1,0,0:0:0:0:
448,192,179666,1,0,0:0:0:0:
192,192,179666,1,0,0:0:0:0:
64,192,179666,1,0,0:0:0:0:
