osu file format v14

[General]
AudioFilename: audio.mp3
AudioLeadIn: 0
PreviewTime: 86948
Countdown: 0
SampleSet: Soft
StackLeniency: 0.2
Mode: 0
LetterboxInBreaks: 0
WidescreenStoryboard: 0

[Editor]
Bookmarks: 20645,41071,61496,71709,87028,107454,127879,148305,168730,189156,212134,227454,242773,247879
DistanceSpacing: 0.2
BeatDivisor: 4
GridSize: 4
TimelineZoom: 2.3

[Metadata]
Title:El Dorado
TitleUnicode:El Dorado
Artist:Two Steps From Hell
ArtistUnicode:Two Steps From Hell
Creator:Nao Tomori
Version:Regnum Aeternitas
Source:
Tags:tsfh emu1337 schoolboy komore olibomby deca decaedeus lmt lmt1996 thomas bergersen nick phoenix skyworld epic instrumental orchestral electronic
BeatmapID:2061558
BeatmapSetID:985335

[Difficulty]
HPDrainRate:5
CircleSize:4.3
OverallDifficulty:8.8
ApproachRate:9.3
SliderMultiplier:1.9
SliderTickRate:1

[Events]
//Background and Video events
0,0,"323714.jpg",0,0
//Break Periods
2,61688,69854
//Storyboard Layer 0 (Background)
//Storyboard Layer 1 (Fail)
//Storyboard Layer 2 (Pass)
//Storyboard Layer 3 (Foreground)
//Storyboard Layer 4 (Overlay)
//Storyboard Sound Samples

[TimingPoints]
212,319.148936170213,4,2,1,40,1,0
212,-153.846153846154,4,2,1,40,0,0
10903,-133.333333333333,4,2,1,40,0,0
14733,-153.846153846154,4,2,1,40,0,0
16009,-133.333333333333,4,2,1,40,0,0
19360,-153.846153846154,4,2,1,40,0,0
19999,-100,4,2,1,40,0,0
20637,-90.9090909090909,4,2,1,50,0,0
20876,-90.9090909090909,4,2,1,5,0,0
20956,-133.333333333333,4,2,1,50,0,0
25105,-117.647058823529,4,2,1,50,0,0
25743,-95.2380952380951,4,2,1,50,0,0
25982,-95.2380952380951,4,2,1,5,0,0
26063,-133.333333333333,4,2,1,50,0,0
28935,-399.999999999997,4,2,2,50,0,0
29094,-285.714285714284,4,2,2,50,0,0
29254,-222.222222222221,4,2,2,50,0,0
29414,-181.818181818181,4,2,2,50,0,0
29573,-153.846153846153,4,2,3,50,0,0
29652,-153.846153846153,4,2,2,50,0,0
29892,-133.333333333333,4,2,2,50,0,0
30051,-133.333333333333,4,2,4,50,0,0
30131,-133.333333333333,4,2,5,50,0,0
30212,-133.333333333333,4,2,5,60,0,0
30850,-95.238095238095,4,2,1,50,0,0
31089,-95.238095238095,4,2,1,5,0,0
31169,-133.333333333333,4,2,1,50,0,0
35318,-117.647058823529,4,2,1,50,0,0
35956,-95.2380952380951,4,2,1,50,0,0
36195,-95.2380952380951,4,2,1,5,0,0
36275,-133.333333333333,4,2,1,50,0,0
37233,-285.714285714284,4,2,3,50,0,0
37312,-285.714285714284,4,2,2,50,0,0
37712,-133.333333333333,4,2,3,50,0,0
38031,-133.333333333333,4,2,2,50,0,0
38190,-285.714285714284,4,2,2,50,0,0
38509,-133.333333333333,4,2,1,50,0,0
40105,-285.714285714284,4,2,2,50,0,0
40265,-222.222222222221,4,2,3,50,0,0
40344,-222.222222222221,4,2,2,50,0,0
40424,-222.222222222221,4,2,5,50,0,0
40664,-222.222222222221,4,2,5,60,0,0
40823,-222.222222222221,4,2,5,65,0,0
40903,-222.222222222221,4,2,5,70,0,0
41063,-105.263157894737,4,2,1,60,0,0
41382,-105.263157894737,4,2,2,60,0,0
41541,-105.263157894737,4,2,1,60,0,0
41701,-105.263157894737,4,2,2,60,0,0
41940,-105.263157894737,4,2,2,5,0,0
42020,-105.263157894737,4,2,2,60,0,0
42339,-125,4,2,1,50,0,0
43297,-125,4,2,2,50,0,0
43616,-125,4,2,1,50,0,0
43935,-125,4,2,2,50,0,0
44094,-125,4,2,1,50,0,0
44254,-125,4,2,2,50,0,0
44892,-125,4,2,1,50,0,0
45211,-125,4,2,2,50,0,0
45371,-125,4,2,1,50,0,0
45531,-86.9565217391304,4,2,2,50,0,0
45610,-86.9565217391304,4,2,1,50,0,0
45850,-86.9565217391304,4,2,2,50,0,0
46169,-105.263157894737,4,2,1,60,0,0
46488,-105.263157894737,4,2,2,60,0,0
46648,-105.263157894737,4,2,1,60,0,0
46807,-105.263157894737,4,2,2,60,0,0
47046,-105.263157894737,4,2,2,5,0,0
47126,-105.263157894737,4,2,2,60,0,0
47446,-125,4,2,1,50,0,0
47765,-125,4,2,2,50,0,0
47924,-125,4,2,1,50,0,0
48403,-125,4,2,2,50,0,0
48722,-125,4,2,1,50,0,0
49041,-125,4,2,2,50,0,0
49201,-125,4,2,1,50,0,0
49360,-125,4,2,2,50,0,0
49999,-125,4,2,1,50,0,0
50318,-125,4,2,2,50,0,0
50477,-125,4,2,1,50,0,0
50637,-86.9565217391304,4,2,2,50,0,0
51275,-105.263157894737,4,2,1,60,0,0
51594,-105.263157894737,4,2,2,60,0,0
51754,-105.263157894737,4,2,1,60,0,0
51914,-105.263157894737,4,2,2,60,0,0
52153,-105.263157894737,4,2,2,5,0,0
52233,-105.263157894737,4,2,2,60,0,0
52552,-125,4,2,1,50,0,0
53509,-125,4,2,2,50,0,0
53829,-125,4,2,1,50,0,0
54148,-125,4,2,2,50,0,0
54307,-125,4,2,1,50,0,0
54467,-125,4,2,2,50,0,0
55105,-125,4,2,1,50,0,0
55424,-125,4,2,2,50,0,0
55584,-125,4,2,1,50,0,0
55743,-86.9565217391304,4,2,2,50,0,0
56382,-105.263157894737,4,2,1,60,0,0
56701,-105.263157894737,4,2,2,60,0,0
56860,-105.263157894737,4,2,1,60,0,0
57020,-105.263157894737,4,2,2,60,0,0
57259,-105.263157894737,4,2,2,5,0,0
57339,-105.263157894737,4,2,2,60,0,0
57658,-125,4,2,1,50,0,0
57977,-125,4,2,2,50,0,0
58137,-125,4,2,1,50,0,0
58616,-125,4,2,2,50,0,0
58935,-125,4,2,1,50,0,0
59094,-125,4,2,2,50,0,0
59414,-125,4,2,1,50,0,0
59573,-125,4,2,2,50,0,0
60212,-105.263157894737,4,2,1,50,0,0
60291,-105.263157894737,4,2,2,50,0,0
60371,-105.263157894737,4,2,3,50,0,0
60450,-105.263157894737,4,2,2,50,0,0
60531,-105.263157894737,4,2,3,50,0,0
60610,-105.263157894737,4,2,2,50,0,0
60690,-105.263157894737,4,2,4,50,0,0
60769,-105.263157894737,4,2,2,50,0,0
60850,-105.263157894737,4,2,5,50,0,0
61009,-105.263157894737,4,2,5,60,0,0
61169,-105.263157894737,4,2,5,70,0,0
61488,-105.263157894737,4,2,1,30,0,0
71701,-181.818181818182,4,2,5,30,0,0
74254,-181.818181818182,4,2,5,33,0,0
75291,-181.818181818182,4,2,2,33,0,0
75371,-181.818181818182,4,2,5,33,0,0
75610,-181.818181818182,4,2,2,33,0,0
75690,-181.818181818182,4,2,5,33,0,0
76807,-181.818181818182,4,2,5,38,0,0
77844,-181.818181818182,4,2,2,38,0,0
77924,-181.818181818182,4,2,5,38,0,0
78164,-181.818181818182,4,2,2,38,0,0
78243,-181.818181818182,4,2,5,38,0,0
78483,-181.818181818182,4,2,2,38,0,0
78563,-181.818181818182,4,2,5,38,0,0
78801,-181.818181818182,4,2,2,38,0,0
78881,-181.818181818182,4,2,5,38,0,0
79360,-181.818181818182,4,2,5,42,0,0
79759,-181.818181818182,4,2,2,42,0,0
79839,-181.818181818182,4,2,5,42,0,0
80397,-181.818181818182,4,2,2,42,0,0
80477,-181.818181818182,4,2,5,42,0,0
80717,-181.818181818182,4,2,2,42,0,0
80797,-181.818181818182,4,2,5,42,0,0
80876,-181.818181818182,4,2,2,42,0,0
80956,-181.818181818182,4,2,5,42,0,0
81035,-181.818181818182,4,2,2,42,0,0
81115,-181.818181818182,4,2,5,42,0,0
81195,-181.818181818182,4,2,2,42,0,0
81275,-181.818181818182,4,2,5,42,0,0
81355,-181.818181818182,4,2,2,42,0,0
81435,-181.818181818182,4,2,5,42,0,0
81515,-181.818181818182,4,2,2,42,0,0
81594,-181.818181818182,4,2,5,42,0,0
81673,-181.818181818182,4,2,2,42,0,0
81753,-181.818181818182,4,2,5,42,0,0
81833,-181.818181818182,4,2,2,42,0,0
81914,-181.818181818182,4,2,1,45,0,0
84467,-181.818181818182,4,2,1,50,0,0
84546,-181.818181818182,4,2,2,50,0,0
84626,-181.818181818182,4,2,1,50,0,0
84945,-181.818181818182,4,2,2,50,0,0
85105,-117.64705882353,4,2,1,60,0,0
85584,-117.64705882353,4,2,2,60,0,0
85743,-133.333333333334,4,2,3,60,0,0
86063,-133.333333333334,4,2,4,60,0,0
86222,-133.333333333334,4,2,3,60,0,0
86382,-133.333333333334,4,2,5,60,0,0
87020,-133.333333333334,4,2,2,60,0,0
87180,-100,4,2,2,60,0,0
87658,-100,4,2,1,60,0,0
87977,-100,4,2,4,60,0,0
88616,-100,4,2,2,60,0,0
89254,-100,4,2,6,60,0,0
89573,-100,4,2,2,60,0,0
90212,-100,4,2,1,60,0,0
90531,-100,4,2,6,60,0,0
90850,-100,4,2,2,60,0,0
91089,-100,4,2,2,5,0,0
91169,-100,4,2,2,60,0,0
91488,-100,4,2,1,60,0,0
91807,-100,4,2,4,60,0,0
92765,-100,4,2,2,60,0,0
93084,-100,4,2,6,60,0,0
93403,-100,4,2,2,60,0,0
93961,-100,4,2,2,5,0,0
94041,-100,4,2,2,60,0,0
94360,-100,4,2,6,60,0,0
94680,-100,4,2,2,60,0,0
95318,-100,4,2,1,60,0,0
95637,-100,4,2,6,60,0,0
95956,-100,4,2,2,60,0,0
96594,-100,4,2,1,60,0,0
96754,-100,4,2,4,60,0,0
97233,-100,4,2,2,60,0,0
97871,-100,4,2,1,60,0,0
98190,-100,4,2,6,60,0,0
98509,-100,4,2,2,60,0,0
99467,-100,4,2,6,60,0,0
99786,-100,4,2,2,60,0,0
100743,-100,4,2,6,60,0,0
101063,-100,4,2,2,60,0,0
101701,-100,4,2,1,60,0,0
102020,-100,4,2,6,60,0,0
102339,-100,4,2,2,60,0,0
103297,-100,4,2,6,60,0,0
103616,-100,4,2,2,60,0,0
104254,-100,4,2,1,60,0,0
104573,-100,4,2,4,60,0,0
104892,-100,4,2,2,60,0,0
105850,-100,4,2,6,60,0,0
106089,-100,4,2,6,5,0,0
106169,-100,4,2,2,60,0,0
106648,-100,4,2,4,60,0,0
106727,-100,4,2,2,60,0,0
106967,-100,4,2,4,60,0,0
107047,-100,4,2,2,60,0,0
107126,-100,4,2,1,60,0,0
107286,-100,4,2,4,60,0,0
107446,-100,4,2,6,65,0,0
108084,-100,4,2,3,65,0,0
108403,-100,4,2,4,65,0,0
109041,-100,4,2,2,65,0,0
109680,-100,4,2,6,65,0,0
109999,-100,4,2,2,65,0,0
110637,-100,4,2,1,65,0,0
110956,-100,4,2,6,65,0,0
111275,-100,4,2,2,65,0,0
111914,-100,4,2,1,65,0,0
112392,-100,4,2,4,65,0,0
113190,-100,4,2,2,65,0,0
113509,-100,4,2,6,65,0,0
113829,-100,4,2,2,65,0,0
114786,-100,4,2,6,65,0,0
115105,-100,4,2,2,65,0,0
115743,-100,4,2,1,65,0,0
116063,-100,4,2,6,65,0,0
116382,-100,4,2,2,65,0,0
117020,-100,4,2,1,65,0,0
117180,-100,4,2,4,65,0,0
117339,-100,4,2,1,65,0,0
117499,-100,4,2,6,65,0,0
118297,-100,4,2,3,65,0,0
118616,-100,4,2,6,65,0,0
118935,-100,4,2,2,65,0,0
119892,-100,4,2,6,65,0,0
120212,-100,4,2,2,65,0,0
121169,-100,4,2,6,65,0,0
121488,-100,4,2,2,65,0,0
122126,-100,4,2,1,65,0,0
122446,-100,4,2,2,65,0,0
122605,-100,4,2,4,65,0,0
122765,-100,4,2,2,65,0,0
123722,-100,4,2,6,65,0,0
124041,-100,4,2,2,65,0,0
124680,-100,4,2,1,65,0,0
124999,-100,4,2,4,65,0,0
125318,-100,4,2,2,65,0,0
126275,-100,4,2,6,65,0,0
126594,-100,4,2,2,65,0,0
127392,-100,4,2,4,65,0,0
127552,-100,4,2,1,65,0,0
127712,-100,4,2,4,65,0,0
127871,-153.846153846154,4,2,2,50,0,0
132977,-153.846153846154,4,2,1,50,0,0
146860,-153.846153846154,4,2,4,50,0,0
147020,-153.846153846154,4,2,1,50,0,0
147498,-153.846153846154,4,2,4,50,0,0
147658,-153.846153846154,4,2,1,50,0,0
148456,-133.333333333334,4,2,1,50,0,0
150850,-133.333333333334,4,2,1,55,0,0
153403,-133.333333333334,4,2,1,60,0,0
155956,-133.333333333334,4,2,1,55,0,0
157073,-133.333333333334,4,2,4,55,0,0
157233,-133.333333333334,4,2,1,55,0,0
158509,-133.333333333334,4,2,1,50,0,0
161063,-133.333333333334,4,2,1,55,0,0
163616,-133.333333333334,4,2,1,60,0,0
166169,-133.333333333334,4,2,1,65,0,0
166408,-133.333333333334,4,2,1,5,0,0
166488,-133.333333333334,4,2,1,65,0,0
167446,-133.333333333334,4,2,1,70,0,0
167924,-133.333333333334,4,2,4,70,0,0
168084,-133.333333333334,4,2,1,70,0,0
168722,-90.9090909090909,4,2,2,65,0,0
168961,-90.9090909090909,4,2,2,5,0,0
169041,-90.9090909090909,4,2,1,65,0,0
169680,-90.9090909090909,4,2,6,65,0,0
169999,-90.9090909090909,4,2,2,65,0,0
170158,-90.9090909090909,4,2,1,65,0,0
170318,-90.9090909090909,4,2,7,65,0,0
170637,-90.9090909090909,4,2,2,65,0,0
170956,-90.9090909090909,4,2,6,65,0,0
171275,-90.9090909090909,4,2,2,65,0,0
171594,-90.9090909090909,4,2,1,65,0,0
172153,-90.9090909090909,4,2,1,5,0,0
172233,-90.9090909090909,4,2,7,65,0,0
172871,-90.9090909090909,4,2,2,65,0,0
173190,-90.9090909090909,4,2,1,65,0,0
173509,-90.9090909090909,4,2,6,65,0,0
173829,-90.9090909090909,4,2,2,65,0,0
174467,-90.9090909090909,4,2,1,65,0,0
174786,-90.9090909090909,4,2,7,65,0,0
175743,-90.9090909090909,4,2,1,65,0,0
176063,-90.9090909090909,4,2,7,65,0,0
176382,-90.9090909090909,4,2,2,65,0,0
176860,-90.9090909090909,4,2,1,65,0,0
177339,-90.9090909090909,4,2,7,65,0,0
177658,-83.3333333333333,4,2,7,65,0,0
177817,-83.3333333333333,4,2,1,65,0,0
177977,-83.3333333333333,4,2,3,65,0,0
178084,-83.3333333333333,4,2,2,65,0,0
178297,-90.9090909090909,4,2,3,65,0,0
178456,-90.9090909090909,4,2,6,65,0,0
178935,-90.9090909090909,4,2,2,65,0,0
179094,-86.9565217391304,4,2,2,65,0,0
179253,-86.9565217391304,4,2,1,65,0,0
179892,-86.9565217391304,4,2,7,65,0,0
180371,-86.9565217391304,4,2,1,65,0,0
180531,-86.9565217391304,4,2,7,65,0,0
180850,-86.9565217391304,4,2,1,65,0,0
181169,-86.9565217391304,4,2,7,65,0,0
181329,-86.9565217391304,4,2,6,65,0,0
181488,-86.9565217391304,4,2,2,65,0,0
181807,-86.9565217391304,4,2,1,65,0,0
182446,-86.9565217391304,4,2,7,65,0,0
183084,-86.9565217391304,4,2,2,65,0,0
183243,-86.9565217391304,4,2,1,65,0,0
183722,-86.9565217391304,4,2,7,65,0,0
183882,-86.9565217391304,4,2,6,65,0,0
184041,-86.9565217391304,4,2,2,65,0,0
184360,-86.9565217391304,4,2,1,65,0,0
184999,-86.9565217391304,4,2,6,65,0,0
185318,-86.9565217391304,4,2,2,65,0,0
185557,-86.9565217391304,4,2,2,5,0,0
185637,-86.9565217391304,4,2,2,65,0,0
185796,-86.9565217391304,4,2,1,65,0,0
186275,-86.9565217391304,4,2,6,65,0,0
186594,-86.9565217391304,4,2,2,65,0,0
186913,-86.9565217391304,4,2,1,65,0,0
187552,-86.9565217391304,4,2,7,65,0,0
187977,-86.9565217391304,4,2,2,65,0,0
188190,-86.9565217391304,4,2,4,65,0,0
188297,-86.9565217391304,4,2,2,65,0,0
188509,-86.9565217391304,4,2,4,65,0,0
188669,-86.9565217391304,4,2,6,65,0,0
188829,-86.9565217391304,4,2,1,65,0,0
188988,-86.9565217391304,4,2,6,65,0,0
189148,-80,4,2,6,70,0,0
189786,-80,4,2,1,70,0,0
190105,-80,4,2,6,70,0,0
190424,-80,4,2,2,70,0,0
190583,-80,4,2,1,70,0,0
190743,-80,4,2,7,70,0,0
191063,-80,4,2,2,70,0,0
191382,-80,4,2,7,70,0,0
191541,-80,4,2,6,70,0,0
191701,-80,4,2,2,70,0,0
192019,-80,4,2,1,70,0,0
192658,-80,4,2,7,70,0,0
193297,-80,4,2,2,70,0,0
193456,-80,4,2,1,70,0,0
194094,-80,4,2,6,70,0,0
194254,-80,4,2,2,70,0,0
194892,-80,4,2,1,70,0,0
195212,-80,4,2,7,70,0,0
196169,-80,4,2,1,70,0,0
196488,-80,4,2,7,70,0,0
196807,-80,4,2,2,70,0,0
197126,-80,4,2,1,70,0,0
197765,-80,4,2,7,70,0,0
198243,-80,4,2,1,70,0,0
198403,-80,4,2,3,70,0,0
198509,-80,4,2,2,70,0,0
198722,-80,4,2,3,70,0,0
198881,-80,4,2,6,70,0,0
199041,-80,4,2,1,70,0,0
199201,-80,4,2,6,70,0,0
199520,-80,4,2,2,70,0,0
199839,-80,4,2,1,70,0,0
200318,-80,4,2,7,70,0,0
200796,-80,4,2,1,70,0,0
200956,-80,4,2,7,70,0,0
201275,-80,4,2,1,70,0,0
201594,-80,4,2,7,70,0,0
201754,-80,4,2,6,70,0,0
201914,-80,4,2,2,70,0,0
202233,-80,4,2,1,70,0,0
202871,-80,4,2,7,70,0,0
203031,-80,4,2,1,70,0,0
203190,-80,4,2,7,70,0,0
203509,-80,4,2,2,70,0,0
203829,-80,4,2,1,70,0,0
204307,-80,4,2,6,70,0,0
204467,-80,4,2,2,70,0,0
204785,-80,4,2,1,70,0,0
205424,-80,4,2,6,70,0,0
205743,-80,4,2,2,70,0,0
206222,-80,4,2,1,70,0,0
206701,-80,4,2,6,70,0,0
207020,-80,4,2,2,70,0,0
207339,-80,4,2,1,70,0,0
207977,-80,4,2,7,70,0,0
208456,-80,4,2,2,70,0,0
208616,-80,4,2,4,70,0,0
208696,-80,4,2,2,70,0,0
209094,-80,4,2,4,70,0,0
209174,-80,4,2,2,70,0,0
209254,-80,4,2,1,70,0,0
209414,-80,4,2,4,70,0,0
209573,-400,4,2,1,30,0,0
209732,-400,4,2,1,20,0,0
209892,-400,4,2,1,30,0,0
210051,-400,4,2,1,20,0,0
210211,-400,4,2,1,30,0,0
210370,-400,4,2,1,20,0,0
210530,-400,4,2,1,30,0,0
210690,-400,4,2,1,20,0,0
210850,-133.333333333333,4,2,3,50,0,0
210929,-133.333333333333,4,2,2,50,0,0
211169,-133.333333333333,4,2,3,50,0,0
211248,-133.333333333333,4,2,2,50,0,0
211488,-133.333333333333,4,2,3,50,0,0
211568,-133.333333333333,4,2,2,50,0,0
211807,-133.333333333333,4,2,3,50,0,0
211887,-133.333333333333,4,2,2,50,0,0
212126,-181.818181818182,4,2,2,40,0,0
212764,-181.818181818182,4,2,5,40,0,0
213722,-181.818181818182,4,2,4,40,0,0
214041,-181.818181818182,4,2,5,40,0,0
214360,-181.818181818182,4,2,4,40,0,0
215637,-181.818181818182,4,2,5,40,0,0
216594,-181.818181818182,4,2,4,40,0,0
217233,-181.818181818182,4,2,4,45,0,0
217871,-181.818181818182,4,2,5,45,0,0
218509,-181.818181818182,4,2,4,45,0,0
218829,-181.818181818182,4,2,5,45,0,0
219148,-181.818181818182,4,2,4,45,0,0
220902,-181.818181818182,4,2,5,45,0,0
221063,-181.818181818182,4,2,4,45,0,0
221382,-181.818181818182,4,2,5,45,0,0
221701,-181.818181818182,4,2,4,45,0,0
222339,-133.333333333333,4,2,1,55,0,0
222977,-142.857142857143,4,2,1,55,0,0
223616,-153.846153846154,4,2,1,55,0,0
224254,-166.666666666667,4,2,1,55,0,0
224892,-166.666666666667,4,2,1,65,0,0
225531,-133.333333333333,4,2,1,65,0,0
226009,-133.333333333333,4,2,2,65,0,0
226169,-133.333333333333,4,2,4,65,0,0
226248,-133.333333333333,4,2,2,65,0,0
226329,-133.333333333333,4,2,3,65,0,0
226408,-133.333333333333,4,2,2,65,0,0
226488,-133.333333333333,4,2,3,65,0,0
226568,-133.333333333333,4,2,2,65,0,0
226807,-133.333333333333,4,2,4,65,0,0
226887,-133.333333333333,4,2,5,65,0,0
226967,-133.333333333333,4,2,4,65,0,0
227047,-133.333333333333,4,2,5,65,0,0
227126,-133.333333333333,4,2,4,65,0,0
227205,-133.333333333333,4,2,5,65,0,0
227446,-133.333333333333,4,2,5,70,0,0
227605,-133.333333333333,4,2,8,60,0,0
227685,-133.333333333333,4,2,9,51,0,0
227765,-133.333333333333,4,2,10,42,0,0
227924,-133.333333333333,4,2,9,51,0,0
228004,-133.333333333333,4,2,8,60,0,0
228084,-133.333333333333,4,2,5,70,0,0
228243,-133.333333333333,4,2,8,60,0,0
228323,-133.333333333333,4,2,9,51,0,0
228403,-133.333333333333,4,2,10,42,0,0
228563,-133.333333333333,4,2,9,51,0,0
228642,-133.333333333333,4,2,8,60,0,0
228722,-133.333333333333,4,2,11,70,0,0
228802,-133.333333333333,4,2,5,70,0,0
228882,-133.333333333333,4,2,8,60,0,0
228962,-133.333333333333,4,2,9,51,0,0
229041,-100,4,2,10,42,0,0
229201,-100,4,2,9,51,0,0
229280,-100,4,2,8,60,0,0
229360,-100,4,2,5,70,0,0
229440,-100,4,2,8,60,0,0
229520,-100,4,2,9,51,0,0
229599,-100,4,2,8,60,0,0
229680,-100,4,2,5,70,0,0
229759,-100,4,2,8,60,0,0
229839,-100,4,2,9,51,0,0
229918,-100,4,2,8,60,0,0
229999,-100,4,2,11,70,0,0
230079,-100,4,2,5,70,0,0
230158,-100,4,2,8,60,0,0
230238,-100,4,2,9,51,0,0
230318,-100,4,2,10,42,0,0
230477,-100,4,2,9,51,0,0
230557,-100,4,2,8,60,0,0
230637,-100,4,2,5,70,0,0
230797,-100,4,2,8,60,0,0
230876,-100,4,2,9,51,0,0
230956,-100,4,2,10,42,0,0
231116,-100,4,2,9,51,0,0
231196,-100,4,2,8,60,0,0
231275,-100,4,2,11,70,0,0
231354,-100,4,2,5,70,0,0
231435,-100,4,2,8,60,0,0
231514,-100,4,2,9,51,0,0
231594,-100,4,2,10,42,0,0
231914,-100,4,2,12,70,0,0
231993,-100,4,2,9,51,0,0
232233,-100,4,2,8,60,0,0
232552,-100,4,2,11,70,0,0
232632,-100,4,2,5,70,0,0
232712,-100,4,2,8,60,0,0
232791,-100,4,2,9,51,0,0
232871,-100,4,2,10,42,0,0
233031,-100,4,2,9,51,0,0
233110,-100,4,2,8,60,0,0
233190,-100,4,2,5,70,0,0
233350,-100,4,2,8,60,0,0
233430,-100,4,2,9,51,0,0
233509,-100,4,2,10,42,0,0
233669,-100,4,2,9,51,0,0
233749,-100,4,2,8,60,0,0
233829,-100,4,2,11,70,0,0
233908,-100,4,2,5,70,0,0
233988,-100,4,2,8,60,0,0
234068,-100,4,2,9,51,0,0
234148,-100,4,2,10,42,0,0
234307,-100,4,2,9,51,0,0
234386,-100,4,2,8,60,0,0
234467,-100,4,2,5,70,0,0
234547,-100,4,2,8,60,0,0
234626,-100,4,2,9,51,0,0
234705,-100,4,2,8,60,0,0
234786,-100,4,2,5,70,0,0
234866,-100,4,2,8,60,0,0
234946,-100,4,2,9,51,0,0
235025,-100,4,2,8,60,0,0
235105,-100,4,2,11,70,0,0
235185,-100,4,2,5,70,0,0
235265,-100,4,2,8,60,0,0
235344,-100,4,2,9,51,0,0
235424,-100,4,2,10,42,0,0
235584,-100,4,2,9,51,0,0
235664,-100,4,2,8,60,0,0
235743,-100,4,2,5,70,0,0
235903,-100,4,2,8,60,0,0
235983,-100,4,2,9,51,0,0
236063,-100,4,2,10,42,0,0
236222,-100,4,2,9,51,0,0
236302,-100,4,2,8,60,0,0
236382,-100,4,2,11,70,0,0
236461,-100,4,2,5,70,0,0
236541,-100,4,2,8,60,0,0
236620,-100,4,2,9,51,0,0
236701,-100,4,2,10,42,0,0
236860,-100,4,2,9,51,0,0
237020,-100,4,2,8,60,0,0
237339,-100,4,2,5,70,0,0
237658,-100,4,2,11,75,0,0
237738,-100,4,2,5,75,0,0
237818,-100,4,2,8,64,0,0
237898,-100,4,2,9,55,0,0
237977,-100,4,2,10,45,0,0
238137,-100,4,2,9,55,0,0
238217,-100,4,2,8,64,0,0
238297,-100,4,2,5,75,0,0
238456,-100,4,2,8,64,0,0
238536,-100,4,2,9,55,0,0
238616,-100,4,2,10,45,0,0
238775,-100,4,2,9,55,0,0
238855,-100,4,2,8,64,0,0
238935,-100,4,2,11,75,0,0
239015,-100,4,2,5,75,0,0
239094,-100,4,2,8,64,0,0
239174,-100,4,2,9,55,0,0
239254,-100,4,2,10,45,0,0
239414,-100,4,2,9,55,0,0
239493,-100,4,2,8,64,0,0
239573,-100,4,2,5,75,0,0
239652,-100,4,2,8,64,0,0
239732,-100,4,2,9,55,0,0
239812,-100,4,2,8,64,0,0
239892,-100,4,2,5,75,0,0
239971,-100,4,2,8,64,0,0
240051,-100,4,2,9,55,0,0
240131,-100,4,2,8,64,0,0
240212,-100,4,2,11,75,0,0
240291,-100,4,2,5,75,0,0
240371,-100,4,2,8,64,0,0
240451,-100,4,2,9,55,0,0
240531,-100,4,2,10,45,0,0
240690,-100,4,2,9,55,0,0
240769,-100,4,2,8,64,0,0
240850,-100,4,2,5,75,0,0
241009,-100,4,2,8,64,0,0
241089,-100,4,2,9,55,0,0
241169,-100,4,2,10,45,0,0
241329,-100,4,2,9,55,0,0
241408,-100,4,2,8,64,0,0
241488,-100,4,2,11,75,0,0
241568,-100,4,2,5,75,0,0
241648,-100,4,2,8,64,0,0
241727,-100,4,2,9,55,0,0
241807,-100,4,2,10,45,0,0
242126,-100,4,2,5,75,0,0
242205,-100,4,2,8,64,0,0
242285,-100,4,2,9,55,0,0
242365,-100,4,2,8,64,0,0
242446,-100,4,2,5,75,0,0
242525,-100,4,2,8,64,0,0
242605,-100,4,2,9,55,0,0
242685,-100,4,2,8,64,0,0
242765,-100,4,2,11,80,0,0
242844,-100,4,2,5,80,0,0
242924,-100,4,2,8,69,0,0
243004,-100,4,2,9,58,0,0
243084,-100,4,2,10,48,0,0
243243,-100,4,2,9,58,0,0
243323,-100,4,2,8,69,0,0
243403,-100,4,2,5,80,0,0
243563,-100,4,2,8,69,0,0
243642,-100,4,2,9,58,0,0
243722,-100,4,2,10,48,0,0
243882,-100,4,2,9,58,0,0
243962,-100,4,2,8,69,0,0
244041,-100,4,2,4,80,0,0
244121,-100,4,2,5,80,0,0
244201,-100,4,2,8,69,0,0
244281,-100,4,2,9,58,0,0
244360,-100,4,2,10,48,0,0
244520,-100,4,2,9,58,0,0
244600,-100,4,2,8,69,0,0
244680,-100,4,2,5,80,0,0
244759,-100,4,2,8,69,0,0
244839,-100,4,2,9,58,0,0
244919,-100,4,2,8,69,0,0
244999,-100,4,2,5,80,0,0
245079,-100,4,2,8,69,0,0
245158,-100,4,2,9,58,0,0
245238,-100,4,2,8,69,0,0
245318,-80,4,2,4,85,0,0
245397,-80,4,2,5,85,0,0
245477,-80,4,2,8,73,0,0
245557,-80,4,2,9,62,0,0
245637,-80,4,2,10,51,0,0
245797,-80,4,2,9,62,0,0
245876,-80,4,2,8,73,0,0
245956,-80,4,2,5,85,0,0
246116,-80,4,2,8,73,0,0
246196,-80,4,2,9,62,0,0
246275,-80,4,2,10,51,0,0
246435,-80,4,2,9,62,0,0
246515,-80,4,2,8,73,0,0
246594,-80,4,2,4,90,0,0
246674,-80,4,2,5,90,0,0
246914,-80,4,2,5,92,0,0
247233,-80,4,2,5,94,0,0
247312,-80,4,2,8,81,0,0
247392,-74.0740740740741,4,2,5,94,0,0
247471,-74.0740740740741,4,2,8,81,0,0
247552,-68.9655172413793,4,2,5,96,0,0
247631,-68.9655172413793,4,2,8,83,0,0
247712,-64.5161290322581,4,2,5,96,0,0
247791,-64.5161290322581,4,2,8,83,0,0
247871,-64.5161290322581,4,2,1,80,0,0

[Colours]
Combo1 : 187,188,247
Combo2 : 253,153,153
Combo3 : 230,124,30
Combo4 : 177,218,248

[HitObjects]
75,275,212,6,0,P|61:236|66:201,2,61.7499999999999,2|0|0,2:0|2:0|2:0,2:0:0:0:
256,233,690,2,0,P|215:217|127:241,1,123.5,2|0,2:0|2:0,2:0:0:0:
320,279,1169,2,0,P|334:240|330:206,1,61.7499999999999,0|0,2:0|2:0,2:0:0:0:
271,88,1488,5,2,2:0:0:0:
271,88,1648,2,0,L|278:163,1,61.7499999999999,0|0,2:0|2:0,2:0:0:0:
232,264,1967,2,0,B|229:190|194:221|198:125,1,123.5,2|0,2:0|2:0,2:0:0:0:
153,256,2446,2,0,L|160:331,1,61.7499999999999,0|0,2:0|2:0,2:0:0:0:
99,194,2765,6,0,P|165:175|222:214,1,123.5,2|0,2:0|2:0,2:0:0:0:
315,172,3243,2,0,B|293:152|293:152|308:263,1,123.5,2|0,2:0|2:0,2:0:0:0:
385,309,3722,1,0,2:0:0:0:
385,309,3882,1,0,2:0:0:0:
462,246,4041,6,0,P|475:210|443:108,1,123.5,2|0,2:0|2:0,2:0:0:0:
263,182,4520,2,0,B|337:186|402:187|402:187,1,123.5,2|0,2:0|2:0,2:0:0:0:
195,129,4999,1,0,2:0:0:0:
461,357,5318,5,2,2:0:0:0:
461,357,5477,2,0,P|468:316|452:270,1,61.7499999999999,0|0,2:0|2:0,2:0:0:0:
263,300,5797,2,0,B|339:287|312:329|404:316,1,123.5,2|0,2:0|2:0,2:0:0:0:
191,264,6275,2,0,P|184:305|200:351,1,61.7499999999999,0|0,2:0|2:0,2:0:0:0:
263,217,6594,6,0,L|264:127,2,61.7499999999999,2|0|0,2:0|2:0|2:0,2:0:0:0:
188,121,7073,2,0,P|226:82|318:92,1,123.5,2|0,2:0|2:0,2:0:0:0:
105,135,7552,2,0,L|80:68,1,61.7499999999999,0|0,2:0|2:0,2:0:0:0:
42,190,7871,6,0,P|91:216|168:185,1,123.5,2|0,2:0|2:0,2:0:0:0:
345,274,8350,2,0,P|268:282|203:292,1,123.5,2|0,2:0|2:0,2:0:0:0:
300,365,8829,1,0,2:0:0:0:
300,365,8988,1,0,2:0:0:0:
386,170,9148,6,0,B|313:165|334:211|243:197,1,123.5,2|0,2:0|2:0,2:0:0:0:
170,155,9626,2,0,B|194:133|194:133|183:238,1,123.5,2|0,2:0|2:0,2:0:0:0:
117,292,10105,1,0,2:0:0:0:
104,74,10265,5,0,2:0:0:0:
104,74,10344,1,0,2:0:0:0:
104,74,10424,1,2,2:0:0:0:
184,29,10584,1,0,2:0:0:0:
256,82,10743,1,0,2:0:0:0:
339,42,10903,6,0,B|379:32|413:59|413:59|448:65|482:31,1,142.5,2|0,2:0|2:0,2:0:0:0:
358,118,11382,2,0,P|351:160|360:201,1,71.2500000000002,0|0,2:0|2:0,2:0:0:0:
462,342,11701,5,2,2:0:0:0:
385,290,11860,1,0,2:0:0:0:
309,340,12020,1,0,2:0:0:0:
216,290,12180,6,0,B|151:314|153:262|62:293,1,142.5,2|0,2:0|2:0,2:0:0:0:
179,149,12658,2,0,L|184:233,1,71.2500000000002,0|0,2:0|2:0,2:0:0:0:
29,353,12977,6,0,P|34:283|41:194,1,142.5,2|0,2:0|2:0,2:0:0:0:
102,139,13456,1,2,2:0:0:0:
6,122,13616,1,0,2:0:0:0:
39,210,13775,1,0,2:0:0:0:
67,48,13935,1,0,2:0:0:0:
39,210,14094,1,0,2:0:0:0:
195,152,14254,6,0,B|266:134|266:134|347:153,1,142.5,2|0,2:0|2:0,2:0:0:0:
279,272,14733,2,0,B|173:250|210:320|84:285,1,185.25,2|0,2:0|2:0,2:0:0:0:
248,357,15371,5,0,2:0:0:0:
248,357,15451,1,0,2:0:0:0:
248,357,15531,1,2,2:0:0:0:
351,316,15690,1,0,2:0:0:0:
451,356,15850,1,0,2:0:0:0:
503,254,16009,6,0,B|507:211|469:176|469:176|484:144|472:95,1,142.5,2|0,2:0|2:0,2:0:0:0:
398,5,16488,2,0,P|383:51|402:94,1,71.2500000000002,0|0,2:0|2:0,2:0:0:0:
322,179,16807,5,2,2:0:0:0:
229,132,16967,1,0,2:0:0:0:
142,184,17126,1,0,2:0:0:0:
8,72,17286,6,0,B|92:48|77:110|161:86,1,142.5,2|0,2:0|2:0,2:0:0:0:
40,226,17765,2,0,L|37:155,1,71.2500000000002,0|0,2:0|2:0,2:0:0:0:
193,8,18084,6,0,P|228:46|211:156,1,142.5,2|0,2:0|2:0,2:0:0:0:
147,206,18563,1,2,2:0:0:0:
53,168,18722,1,0,2:0:0:0:
147,206,18882,1,0,2:0:0:0:
139,99,19041,1,0,2:0:0:0:
53,168,19201,1,0,2:0:0:0:
227,132,19360,6,0,B|287:124|287:124|321:138|321:138|426:122,1,185.25,2|2,2:0|2:0,2:0:0:0:
482,43,19999,6,0,B|327:29|390:175|197:125,1,285,0|0,2:0|2:0,2:0:0:0:
48,92,20637,6,0,B|62:50|127:69|150:121|67:151|76:210,1,156.75,6|0,2:3|2:0,2:0:0:0:
75,188,20956,2,0,L|-12:197,1,71.2500000000002,0|2,2:0|3:2,2:0:0:0:
53,324,21275,1,0,3:0:0:0:
161,223,21435,2,0,P|178:190|166:137,1,71.2500000000002,0|0,2:0|3:0,2:0:0:0:
81,323,21754,1,0,2:0:0:0:
264,262,21914,5,2,3:2:0:0:
165,252,22073,1,0,3:0:0:0:
205,340,22233,1,0,2:0:0:0:
271,157,22392,2,0,P|315:185|417:163,1,142.5,2|0,3:2|2:0,2:0:0:0:
433,28,22871,1,0,3:0:0:0:
482,115,23031,1,0,2:0:0:0:
315,80,23190,6,0,P|298:47|310:-6,1,71.2500000000002,2|0,3:2|3:0,2:0:0:0:
197,59,23509,2,0,P|198:94|181:125,1,71.2500000000002,0|2,2:0|2:0,2:0:0:0:
94,37,23829,1,0,3:0:0:0:
19,104,23988,1,0,2:0:0:0:
97,176,24148,1,0,2:0:0:0:
2,127,24307,1,0,3:0:0:0:
58,268,24467,6,0,P|81:290|143:289,1,71.2500000000002,2|0,3:2|2:0,2:0:0:0:
196,225,24786,1,0,2:0:0:0:
281,331,24946,1,2,2:0:0:0:
281,331,25105,2,0,B|355:306|357:366|446:333,1,161.500000000001,0|0,3:0|3:0,2:0:0:0:
506,263,25584,1,0,3:0:0:0:
402,85,25743,6,0,B|422:60|473:71|478:131|414:201,1,149.625,6|0,2:3|2:0,2:0:0:0:
413,196,26063,2,0,L|322:207,1,71.2500000000002,0|2,2:0|3:2,2:0:0:0:
282,103,26382,1,0,3:0:0:0:
272,259,26541,2,0,P|265:290|226:326,1,71.2500000000002,0|0,2:0|3:0,2:0:0:0:
206,176,26860,1,0,2:0:0:0:
132,262,27020,5,2,3:2:0:0:
78,172,27180,1,0,3:0:0:0:
31,267,27339,1,0,2:0:0:0:
206,176,27499,2,0,P|274:165|331:206,1,142.5,2|0,3:2|2:0,2:0:0:0:
278,365,27977,1,0,3:0:0:0:
252,266,28137,1,0,3:0:0:0:
376,331,28297,6,0,L|455:341,1,71.2500000000002,2|0,3:2|2:0,2:0:0:0:
512,231,28616,2,0,L|433:241,1,71.2500000000002,0|2,3:0|2:0,2:0:0:0:
451,135,28935,2,0,L|452:123,1,11.8750000000001,2|2,2:0|2:0,2:0:0:0:
369,179,29094,2,0,L|346:183,1,16.6250000000001,2|2,2:0|2:0,2:0:0:0:
298,111,29254,2,0,L|275:106,1,21.3750000000001,2|2,2:0|2:0,2:0:0:0:
353,197,29414,2,0,L|308:205,1,26.1250000000001,2|2,2:0|2:0,2:0:0:0:
203,182,29573,6,0,L|167:188,3,30.8750000000002,2|2|2|2,2:0|2:0|2:0|2:0,2:0:0:0:
153,93,29892,2,0,L|117:86,3,35.6250000000001,2|2|2|2,2:0|2:0|2:0|2:0,2:0:0:0:
50,151,30212,1,2,2:0:0:0:
40,179,30291,1,2,2:0:0:0:
39,210,30371,1,2,2:0:0:0:
48,239,30451,1,2,2:0:0:0:
66,263,30531,1,2,2:0:0:0:
91,281,30610,1,2,2:0:0:0:
120,290,30690,1,2,2:0:0:0:
150,290,30770,1,2,2:0:0:0:
181,277,30850,6,0,B|223:255|253:292|245:345|169:377,1,149.625,6|0,2:3|2:0,2:0:0:0:
166,374,31169,2,0,L|88:380,1,71.2500000000002,0|2,2:0|3:2,2:0:0:0:
264,306,31488,1,0,3:0:0:0:
224,195,31648,2,0,P|216:157|226:120,1,71.2500000000002,0|0,2:0|3:0,2:0:0:0:
315,109,31967,1,0,2:0:0:0:
288,284,32126,5,2,3:2:0:0:
376,237,32286,1,0,3:0:0:0:
245,201,32446,1,0,2:0:0:0:
428,321,32605,2,0,P|469:270|454:174,1,142.5,2|0,3:2|2:0,2:0:0:0:
398,67,33084,1,0,3:0:0:0:
371,164,33243,1,0,2:0:0:0:
264,85,33403,6,0,L|176:96,1,71.2500000000002,2|0,3:2|3:0,2:0:0:0:
206,235,33722,2,0,P|234:197|224:144,1,71.2500000000002,0|2,2:0|3:2,2:0:0:0:
109,238,34041,1,0,3:0:0:0:
248,321,34201,1,0,2:0:0:0:
140,342,34360,1,0,2:0:0:0:
273,300,34520,1,0,3:0:0:0:
91,269,34680,6,0,P|64:291|53:325,1,71.2500000000002,2|0,3:2|2:0,2:0:0:0:
166,321,34999,1,0,2:0:0:0:
15,218,35158,1,2,2:0:0:0:
15,218,35318,2,0,B|-10:134|54:138|35:58,1,161.500000000001,0|0,3:0|3:0,2:0:0:0:
124,26,35797,1,0,3:0:0:0:
188,185,35956,6,0,B|200:232|248:230|288:188|263:130,1,149.625,6|0,2:3|2:0,2:0:0:0:
245,117,36275,2,0,L|237:43,1,71.2500000000002,0|2,2:0|3:2,2:0:0:0:
357,143,36594,1,0,3:0:0:0:
435,42,36754,2,0,P|394:39|358:67,1,71.2500000000002,0|0,2:0|3:0,2:0:0:0:
350,174,37073,1,0,2:0:0:0:
501,109,37233,6,0,L|501:89,1,16.6250000000001,2|2,3:2|2:0,2:0:0:0:
488,262,37392,2,0,L|492:239,1,16.6250000000001,2|2,2:0|2:0,2:0:0:0:
441,180,37552,2,0,L|443:153,1,16.6250000000001,2|2,2:0|2:0,2:0:0:0:
416,327,37712,2,0,P|338:352|281:329,1,142.5,2|2,3:2|2:0,2:0:0:0:
266,199,38190,2,0,L|286:187,1,16.6250000000001,2|2,3:2|2:0,2:0:0:0:
348,250,38350,2,0,L|367:251,1,16.6250000000001,2|2,3:2|2:0,2:0:0:0:
178,249,38509,6,0,P|163:212|179:158,1,71.2500000000002,2|0,3:2|2:0,2:0:0:0:
73,121,38829,2,0,P|75:156|61:188,1,71.2500000000002,0|2,2:0|3:2,2:0:0:0:
161,88,39148,1,0,3:0:0:0:
255,138,39307,1,0,2:0:0:0:
163,209,39467,1,0,3:0:0:0:
278,126,39626,1,0,2:0:0:0:
270,286,39786,6,0,L|267:357,1,71.2500000000002,2|0,3:2|2:0,2:0:0:0:
101,363,40105,2,0,L|71:371,1,16.6250000000001,2|2,2:0|2:0,2:0:0:0:
162,297,40265,2,0,L|182:302,1,21.3750000000001,2|2,2:0|2:0,2:0:0:0:
96,237,40424,1,2,2:0:0:0:
91,202,40504,1,2,2:0:0:0:
99,169,40584,1,2,2:0:0:0:
121,142,40664,1,2,2:0:0:0:
151,125,40743,1,2,2:0:0:0:
185,121,40823,1,2,2:0:0:0:
218,131,40903,1,2,2:0:0:0:
245,153,40983,1,2,2:0:0:0:
260,184,41063,6,0,L|376:174,1,90.2499999999999,6|0,2:1|2:0,2:0:0:0:
219,264,41382,1,2,2:1:0:0:
302,87,41541,1,2,3:1:0:0:
398,254,41701,2,0,P|461:270|512:230,1,135.375,2|0,3:1|2:0,2:0:0:0:
462,101,42020,2,0,P|442:171|459:217,1,90.2499999999999,2|0,3:1|2:0,2:0:0:0:
290,350,42339,6,0,P|305:298|274:174,1,152,2|0,3:1|2:0,2:0:0:0:
115,158,42818,2,0,P|99:209|131:333,1,152,2|0,3:1|2:0,2:0:0:0:
204,271,43297,2,0,L|197:178,1,76,2|0,3:1|2:0,2:0:0:0:
115,35,43616,6,0,B|9:19,1,76,2|0,3:1|2:0,2:0:0:0:
149,118,43935,1,2,2:1:0:0:
203,52,44094,1,2,3:1:0:0:
346,84,44254,2,0,P|310:104|258:103,1,76,2|0,3:1|2:0,2:0:0:0:
429,137,44573,1,2,2:1:0:0:
433,50,44733,1,2,3:1:0:0:
359,174,44892,6,0,P|364:224|374:269,2,76,2|0|2,3:1|2:0|2:1,2:0:0:0:
279,269,45371,1,2,2:1:0:0:
279,269,45531,2,0,B|216:243|178:304|118:265|118:265|154:237|181:242,1,218.5,2|2,3:1|3:1,2:0:0:0:
243,348,46009,1,2,3:1:0:0:
75,174,46169,6,0,P|64:127|91:66,1,90.2499999999999,6|0,2:1|2:0,2:0:0:0:
166,21,46488,1,2,2:1:0:0:
313,78,46648,1,2,3:1:0:0:
399,22,46807,2,0,B|412:192,1,135.375,2|0,3:1|2:0,2:0:0:0:
460,229,47126,2,0,P|487:194|489:150,1,90.2499999999999,2|0,3:1|2:0,2:0:0:0:
158,192,47446,6,0,P|243:198|318:197,1,152,2|2,3:1|2:1,2:0:0:0:
118,117,47924,2,0,P|72:181|94:253,1,152,2|0,3:1|2:0,2:0:0:0:
165,350,48403,2,0,P|164:297|162:250,1,76,2|0,3:1|2:0,2:0:0:0:
241,82,48722,6,0,L|241:166,1,76,2|0,3:1|2:0,2:0:0:0:
242,250,49041,1,2,2:1:0:0:
158,192,49201,1,2,3:1:0:0:
3,238,49360,2,0,P|2:289|7:341,1,76,2|0,3:1|2:0,2:0:0:0:
63,155,49680,2,0,P|61:113|58:73,1,76,2|2,2:1|3:1,2:0:0:0:
3,238,49999,6,0,B|50:231|80:258|80:258|114:284|177:263,1,152,2|2,3:1|2:1,2:0:0:0:
21,328,50477,1,2,3:1:0:0:
223,185,50637,2,0,B|344:167|307:269|443:241,1,218.5,2|2,3:1|3:1,2:0:0:0:
399,147,51116,1,2,2:1:0:0:
258,274,51275,6,0,B|219:286|219:286|146:274,1,90.2499999999999,6|0,2:1|2:0,2:0:0:0:
280,371,51594,1,2,2:1:0:0:
310,181,51754,1,2,3:1:0:0:
170,277,51914,2,0,B|98:265|98:265|0:296,1,135.375,2|0,3:1|2:0,2:0:0:0:
62,364,52233,2,0,B|107:351|107:351|172:364,1,90.2499999999999,2|0,3:1|2:0,2:0:0:0:
376,257,52552,6,0,P|397:198|355:105,1,152,2|0,3:1|2:0,2:0:0:0:
160,175,53031,2,0,B|222:204|222:204|334:188,1,152,2|0,3:1|2:0,2:0:0:0:
172,103,53509,2,0,P|156:143|172:198,1,76,2|0,3:1|2:0,2:0:0:0:
317,267,53829,6,0,P|304:188|301:163,1,76,2|0,3:1|2:0,2:0:0:0:
237,319,54148,1,2,2:1:0:0:
403,223,54307,1,2,3:1:0:0:
232,129,54467,2,0,P|208:173|216:222,1,76,2|0,3:1|2:0,2:0:0:0:
300,153,54786,2,0,P|256:129|207:137,1,76,2|2,2:1|3:1,2:0:0:0:
295,245,55105,6,0,B|345:248|374:213|374:213|467:224,1,152,2|2,3:1|2:1,2:0:0:0:
300,153,55584,1,2,2:1:0:0:
121,226,55743,2,0,B|140:197|164:191|164:191|236:246|168:360,1,218.5,2|2,3:1|3:1,2:0:0:0:
98,384,56222,1,2,3:1:0:0:
37,119,56382,6,0,P|31:72|23:4,1,90.2499999999999,6|0,2:1|2:0,2:0:0:0:
17,216,56701,1,2,2:1:0:0:
126,128,56860,1,2,3:1:0:0:
238,237,57020,2,0,P|172:260|110:195,1,135.375,2|0,3:1|2:0,2:0:0:0:
232,149,57339,2,0,B|244:191|244:191|236:254,1,90.2499999999999,2|0,3:1|2:0,2:0:0:0:
196,74,57658,6,0,B|282:45|270:116|365:84,1,152,2|2,3:1|2:1,2:0:0:0:
503,183,58137,2,0,P|440:158|348:212,1,152,2|0,3:1|2:0,2:0:0:0:
431,320,58616,2,0,P|436:274|440:227,1,76,2|0,3:1|3:0,2:0:0:0:
232,149,58935,6,0,P|220:198|240:249,1,76,2|2,3:1|2:1,2:0:0:0:
272,351,59254,1,2,2:1:0:0:
246,323,59334,1,2,2:1:0:0:
212,308,59414,1,2,3:1:0:0:
75,286,59573,1,2,3:1:0:0:
111,278,59653,1,2,2:1:0:0:
141,255,59733,1,2,2:1:0:0:
72,120,59892,2,0,L|80:214,1,76,2|2,3:1|2:1,2:0:0:0:
303,125,60212,6,0,L|325:71,1,45.1249999999999,2|2,3:1|2:0,2:0:0:0:
208,56,60371,2,0,L|200:-2,1,45.1249999999999,2|2,2:1|2:0,2:0:0:0:
301,264,60531,6,0,L|323:210,1,45.1249999999999,2|2,2:1|2:0,2:0:0:0:
206,195,60690,2,0,L|198:137,1,45.1249999999999,2|2,2:1|2:0,2:0:0:0:
68,243,60850,5,2,2:1:0:0:
67,252,60930,1,2,2:0:0:0:
65,263,61009,1,2,2:0:0:0:
63,275,61089,1,2,2:0:0:0:
64,288,61169,6,0,P|77:332|87:350,1,45.1249999999999,2|2,2:1|2:0,2:0:0:0:
174,384,61329,2,0,P|181:362|186:340,1,45.1249999999999,2|2,2:0|2:0,2:0:0:0:
283,297,61488,5,4,2:0:0:0:
256,192,70424,12,0,71541,2:0:0:0:
348,253,71701,6,0,P|362:233|366:194,1,52.25,2|2,2:0|2:0,2:0:0:0:
261,145,72020,2,0,P|265:170|280:191,1,52.25,2|2,2:0|2:0,2:0:0:0:
367,206,72339,2,0,L|426:202,1,52.25,2|2,2:0|2:0,2:0:0:0:
296,283,72658,2,0,L|237:279,1,52.25,2|2,2:0|2:0,2:0:0:0:
155,215,72977,6,0,L|165:274,1,52.25,2|2,2:0|2:0,2:0:0:0:
70,167,73297,2,0,L|60:226,1,52.25,2|2,2:0|2:0,2:0:0:0:
72,357,73616,2,0,L|80:305,1,52.25,2|2,2:0|2:0,2:0:0:0:
163,266,73935,2,0,L|154:214,1,52.25,2|2,2:0|2:0,2:0:0:0:
122,44,74254,5,2,2:0:0:0:
129,30,74414,1,2,2:0:0:0:
198,85,74573,2,0,P|223:86|248:78,1,52.25,2|2,2:0|2:0,2:0:0:0:
353,43,74892,2,0,P|338:64|333:89,1,52.25,2|2,2:0|2:0,2:0:0:0:
285,180,75212,2,0,L|280:142,2,26.125,2|2|2,2:0|2:0|2:0,2:0:0:0:
248,78,75531,6,0,L|253:40,2,26.125,2|2|2,2:0|2:0|2:0,2:0:0:0:
333,89,75850,2,0,L|396:95,1,52.25,2|2,2:0|2:0,2:0:0:0:
281,154,76169,2,0,L|218:160,1,52.25,2|2,2:0|2:0,2:0:0:0:
344,217,76488,2,0,L|407:223,1,52.25,2|2,2:0|2:0,2:0:0:0:
488,356,76807,5,2,2:0:0:0:
500,369,76967,1,2,2:0:0:0:
414,314,77126,2,0,P|388:312|363:320,1,52.25,2|2,2:0|2:0,2:0:0:0:
243,366,77446,2,0,P|268:367|293:359,1,52.25,2|2,2:0|2:0,2:0:0:0:
309,261,77765,2,0,L|313:223,2,26.125,2|2|2,2:0|2:0|2:0,2:0:0:0:
227,188,78084,5,2,2:0:0:0:
226,174,78164,1,2,2:0:0:0:
225,161,78243,1,2,2:0:0:0:
157,255,78403,1,2,2:0:0:0:
156,268,78483,1,2,2:0:0:0:
155,282,78563,1,2,2:0:0:0:
88,195,78722,2,0,L|84:157,2,26.125,2|2|2,2:0|2:0|2:0,2:0:0:0:
54,274,79041,2,0,P|28:275|3:267,1,52.25,2|2,2:0|2:0,2:0:0:0:
31,112,79360,5,2,2:0:0:0:
27,91,79520,1,2,2:0:0:0:
111,56,79680,2,0,L|140:55,2,26.125,2|2|2,2:0|2:0|2:0,2:0:0:0:
110,168,79999,1,2,2:0:0:0:
118,150,80158,1,2,2:0:0:0:
215,157,80318,2,0,L|236:176,2,26.125,2|2|2,2:0|2:0|2:0,2:0:0:0:
251,41,80637,5,2,2:0:0:0:
270,39,80717,1,2,2:0:0:0:
289,42,80797,1,2,2:0:0:0:
307,49,80876,1,2,2:0:0:0:
323,61,80956,2,0,L|369:56,3,26.125,2|2|2|2,2:0|2:0|2:0|2:0,2:0:0:0:
384,130,81275,1,2,2:0:0:0:
403,131,81355,1,2,2:0:0:0:
422,128,81435,1,2,2:0:0:0:
440,121,81515,1,2,2:0:0:0:
456,110,81594,2,0,L|502:115,3,26.125,2|2|2|2,2:0|2:0|2:0|2:0,2:0:0:0:
478,196,81914,5,2,2:0:0:0:
497,200,82073,1,2,2:0:0:0:
347,186,82233,2,0,L|326:112,1,52.25,2|0,2:0|2:0,2:0:0:0:
428,280,82552,5,2,2:0:0:0:
443,294,82712,1,2,2:0:0:0:
313,174,82871,2,0,L|292:100,1,52.25,2|0,2:0|2:0,2:0:0:0:
343,329,83190,5,2,2:0:0:0:
348,348,83350,1,2,2:0:0:0:
278,163,83509,2,0,L|257:89,1,52.25,2|0,2:0|2:0,2:0:0:0:
244,328,83829,5,2,2:0:0:0:
239,347,83988,1,2,2:0:0:0:
245,155,84148,2,0,L|224:81,1,52.25,2|0,2:0|2:0,2:0:0:0:
30,202,84467,6,0,L|-1:176,1,26.125,2|2,2:1|2:0,2:0:0:0:
25,221,84626,1,2,2:0:0:0:
102,290,84786,2,0,P|119:268|127:228,1,52.25,2|2,2:0|2:0,2:0:0:0:
81,80,85105,6,0,B|118:105|118:105|194:89|194:89|238:107,1,161.499999999999,2|2,2:1|2:0,2:0:0:0:
233,203,85584,1,2,2:0:0:0:
219,229,85664,1,2,2:0:0:0:
196,252,85743,2,0,P|155:254|120:242,1,71.2499999999996,2|2,2:0|2:0,2:0:0:0:
319,154,86063,2,0,P|344:178|359:210,1,71.2499999999996,2|2,2:1|2:1,2:0:0:0:
324,346,86382,5,2,2:0:0:0:
295,318,86462,1,2,2:0:0:0:
293,278,86541,1,2,2:1:0:0:
463,196,86701,1,2,2:1:0:0:
460,245,86781,1,2,2:0:0:0:
425,279,86860,1,2,2:0:0:0:
299,7,87020,5,6,2:1:0:0:
193,82,87180,2,0,P|111:78|-10:68,1,190,4|0,2:3|2:0,2:0:0:0:
240,194,87658,2,0,B|291:186|291:186|358:199,1,95,8|0,2:0|2:0,2:0:0:0:
188,306,87977,2,0,P|143:316|80:285,1,95,0|0,3:0|2:0,2:0:0:0:
322,99,88297,6,0,L|336:222,1,95,4|0,2:3|2:0,2:0:0:0:
188,306,88616,2,0,L|198:211,1,95,6|0,2:1|2:0,2:0:0:0:
101,63,88935,2,0,B|53:54|53:54|-14:71,1,95,10|0,2:1|2:0,2:0:0:0:
103,179,89254,1,2,3:1:0:0:
201,25,89414,1,0,3:0:0:0:
330,203,89573,5,6,2:1:0:0:
408,156,89733,2,0,B|438:145|468:150|468:150|513:214|464:286,1,190,4|0,2:3|2:0,2:0:0:0:
330,110,90212,2,0,L|333:6,1,95,8|0,2:0|2:0,2:0:0:0:
153,157,90531,2,0,B|201:171|201:171|273:152,1,95,2|0,3:1|2:0,2:0:0:0:
96,75,90850,6,0,P|55:125|81:222,1,142.5,6|0,2:1|2:0,2:0:0:0:
106,355,91169,2,0,L|126:252,1,95,4|0,2:3|2:0,2:0:0:0:
153,157,91488,1,8,2:0:0:0:
153,157,91648,1,0,2:0:0:0:
330,201,91807,2,0,B|383:207|383:207|460:182,1,95,0|0,3:0|3:0,2:0:0:0:
261,95,92126,5,4,2:3:0:0:
360,299,92286,2,0,B|450:285|503:280|503:280|433:322,1,190,4|0,2:3|2:0,2:0:0:0:
278,359,92765,6,0,L|272:242,1,95,10|0,2:1|2:0,2:0:0:0:
122,97,93084,2,0,L|114:207,1,95,2|0,3:1|2:0,2:0:0:0:
202,48,93403,2,0,P|151:6|102:5,1,95,6|0,2:1|2:0,2:0:0:0:
210,132,93722,2,0,B|286:155|286:155|363:140,1,142.5,6|0,2:1|2:0,2:0:0:0:
460,216,94041,2,0,B|412:207|412:207|360:216,1,95,10|0,2:1|2:0,2:0:0:0:
192,347,94360,1,2,3:1:0:0:
210,132,94520,1,0,3:0:0:0:
345,320,94680,5,6,2:1:0:0:
228,258,94839,2,0,B|131:234|133:312|34:271,1,190,4|0,2:3|2:0,2:0:0:0:
142,68,95318,2,0,L|147:162,1,95,8|0,2:0|2:0,2:0:0:0:
192,347,95637,2,0,P|238:353|281:334,1,95,2|0,3:1|2:0,2:0:0:0:
412,105,95956,6,0,B|401:151|401:151|418:219,1,95,6|0,2:1|2:0,2:0:0:0:
512,360,96275,2,0,B|523:314|523:314|506:246,1,95,4|0,2:3|2:0,2:0:0:0:
315,83,96594,5,8,2:0:0:0:
428,313,96754,1,0,3:0:0:0:
501,148,96914,1,0,3:0:0:0:
249,258,97073,1,0,3:0:0:0:
272,0,97233,5,6,2:1:0:0:
361,146,97392,2,0,P|350:251|339:358,1,190,4|0,2:3|2:0,2:0:0:0:
155,258,97871,6,0,B|203:248|203:248|283:264,1,95,8|0,2:0|2:0,2:0:0:0:
20,170,98190,2,0,B|66:180|66:180|114:170,1,95,2|0,3:1|2:0,2:0:0:0:
277,102,98509,2,0,P|194:92|157:119,1,95,6|0,2:1|2:0,2:0:0:0:
357,165,98829,2,0,L|370:65,1,95,6|0,2:1|2:0,2:0:0:0:
289,244,99148,1,10,2:1:0:0:
451,131,99307,1,0,2:0:0:0:
198,164,99467,5,2,3:1:0:0:
410,246,99626,1,0,3:0:0:0:
211,368,99786,5,6,2:1:0:0:
303,131,99946,2,0,B|291:198|291:198|301:237|301:237|288:323,1,190,4|2,2:3|2:1,2:0:0:0:
234,72,100424,2,0,P|293:40|343:46,1,95,10|0,2:1|2:0,2:0:0:0:
208,255,100743,2,0,L|101:250,1,95,2|0,3:1|2:0,2:0:0:0:
326,328,101063,6,0,B|432:351|404:280|520:307,2,190,6|4|8,2:1|2:3|2:0,2:0:0:0:
208,255,101860,1,0,2:0:0:0:
307,133,102020,2,0,L|294:267,1,95,2|0,3:1|3:0,2:0:0:0:
120,339,102339,5,6,2:1:0:0:
44,119,102499,1,4,2:3:0:0:
198,166,102658,2,0,P|145:192|95:176,1,95,2|0,2:1|2:0,2:0:0:0:
251,61,102977,2,0,B|291:89|291:89|311:145,1,95,10|0,2:1|2:0,2:0:0:0:
4,226,103297,2,0,L|17:120,1,95,2|0,3:1|2:0,2:0:0:0:
198,166,103616,6,0,L|178:377,2,190,6|4|8,2:1|2:3|2:0,2:0:0:0:
98,286,104414,1,0,2:0:0:0:
285,214,104573,2,0,P|299:153|274:104,1,95,0|0,3:0|3:0,2:0:0:0:
136,83,104892,5,6,2:1:0:0:
270,309,105052,2,0,P|372:306|480:303,1,190,4|0,2:3|2:0,2:0:0:0:
207,244,105531,2,0,P|178:303|190:355,1,95,10|0,2:1|2:0,2:0:0:0:
292,216,105850,2,0,L|274:38,1,142.5,2|0,3:1|2:0,2:0:0:0:
198,30,106169,5,6,2:1:0:0:
373,141,106329,1,0,2:0:0:0:
207,244,106488,2,0,L|129:230,1,47.5,6|2,2:1|2:0,2:0:0:0:
276,305,106648,2,0,L|348:286,1,47.5,0|2,3:0|2:0,2:0:0:0:
216,366,106807,5,10,2:1:0:0:
391,233,106967,1,0,3:0:0:0:
430,220,107047,1,2,2:0:0:0:
469,208,107126,1,8,2:0:0:0:
374,106,107286,1,0,3:0:0:0:
195,215,107446,6,0,B|141:226|141:226|0:193,1,190,6|0,2:1|2:0,2:0:0:0:
184,125,107924,1,0,2:0:0:0:
106,311,108084,2,0,L|-11:286,1,95,8|0,2:0|2:0,2:0:0:0:
195,215,108403,2,0,L|312:190,1,95,0|0,3:0|2:0,2:0:0:0:
73,27,108722,6,0,P|65:77|98:122,1,95,4|0,2:3|2:0,2:0:0:0:
195,215,109041,1,6,2:1:0:0:
156,61,109201,1,0,2:0:0:0:
28,182,109360,2,0,P|73:206|126:190,1,95,10|0,2:1|2:0,2:0:0:0:
177,34,109680,1,2,3:1:0:0:
222,237,109839,1,0,3:0:0:0:
388,33,109999,5,6,2:1:0:0:
328,219,110158,2,0,P|371:235|424:224,1,95,4|0,2:3|2:0,2:0:0:0:
443,101,110477,1,0,2:0:0:0:
328,219,110637,2,0,L|319:313,1,95,8|0,2:0|2:0,2:0:0:0:
505,263,110956,2,0,P|513:216|497:172,1,95,2|0,3:1|2:0,2:0:0:0:
141,192,111275,6,0,P|125:148|134:102,1,95,6|0,2:1|2:0,2:0:0:0:
285,155,111594,2,0,P|301:111|293:65,1,95,4|0,2:3|2:0,2:0:0:0:
192,346,111914,1,8,2:0:0:0:
226,243,112073,1,0,2:0:0:0:
296,324,112233,1,8,2:0:0:0:
377,257,112392,1,0,3:0:0:0:
91,320,112552,5,4,2:3:0:0:
28,183,112712,2,0,B|-2:314|-2:314|8:368,1,190,4|0,2:3|2:0,2:0:0:0:
173,366,113190,2,0,B|182:318|182:318|172:273,1,95,10|0,2:1|2:0,2:0:0:0:
28,183,113509,1,2,3:1:0:0:
91,320,113669,1,0,2:0:0:0:
123,126,113829,6,0,L|138:30,1,95,6|0,2:1|2:0,2:0:0:0:
250,180,114148,2,0,L|264:273,1,95,6|0,2:1|2:0,2:0:0:0:
229,79,114467,1,10,2:1:0:0:
168,254,114626,1,0,2:0:0:0:
351,214,114786,1,2,3:1:0:0:
250,180,114946,1,0,3:0:0:0:
418,356,115105,5,6,2:1:0:0:
492,242,115265,2,0,L|484:138,1,95,4|0,2:3|2:0,2:0:0:0:
478,255,115584,1,0,2:0:0:0:
404,97,115743,2,0,L|411:2,1,95,8|0,2:0|2:0,2:0:0:0:
496,130,116063,1,2,3:1:0:0:
354,184,116222,1,0,2:0:0:0:
277,66,116382,6,0,P|250:103|253:166,1,95,6|0,2:1|2:0,2:0:0:0:
288,376,116701,2,0,P|285:329|258:291,1,95,4|0,2:3|2:0,2:0:0:0:
26,328,117020,1,8,2:0:0:0:
188,226,117180,1,0,3:0:0:0:
21,127,117339,1,8,2:0:0:0:
145,344,117499,1,0,3:0:0:0:
154,35,117658,6,0,B|208:24|208:24|349:57,1,190,6|0,2:1|2:0,2:0:0:0:
432,79,118137,1,0,2:0:0:0:
306,135,118297,2,0,L|189:110,1,95,8|0,2:0|2:0,2:0:0:0:
357,214,118616,2,0,L|474:239,1,95,2|0,3:1|2:0,2:0:0:0:
227,365,118935,6,0,P|204:324|213:278,1,95,6|0,2:1|2:0,2:0:0:0:
366,316,119254,1,6,2:1:0:0:
193,269,119414,1,0,2:0:0:0:
362,227,119573,2,0,P|384:186|375:140,1,95,10|0,2:1|2:0,2:0:0:0:
147,193,119892,1,2,3:1:0:0:
396,131,120052,1,0,3:0:0:0:
129,27,120212,5,6,2:1:0:0:
241,97,120371,2,0,B|286:95|286:95|330:61,1,95,4|0,2:3|2:0,2:0:0:0:
147,15,120690,1,2,2:1:0:0:
236,187,120850,2,0,L|228:301,1,95,10|0,2:1|2:0,2:0:0:0:
85,171,121169,2,0,L|78:76,1,95,2|0,3:1|2:0,2:0:0:0:
35,352,121488,6,0,P|18:307|27:261,1,95,6|0,2:1|2:0,2:0:0:0:
221,372,121807,2,0,P|237:327|228:281,1,95,4|0,2:3|2:0,2:0:0:0:
80,154,122126,1,8,2:0:0:0:
134,227,122286,1,0,2:0:0:0:
144,71,122446,1,10,2:1:0:0:
133,249,122605,1,0,3:0:0:0:
350,113,122765,5,6,2:1:0:0:
308,274,122924,2,0,B|285:232|285:232|292:185,1,95,4|2,2:3|2:1,2:0:0:0:
420,168,123243,1,0,2:0:0:0:
363,349,123403,2,0,P|321:371|274:364,1,95,10|0,2:1|2:0,2:0:0:0:
425,191,123722,2,0,P|471:184|512:207,1,95,2|0,3:1|2:0,2:0:0:0:
347,94,124041,6,0,L|336:-13,1,95,6|0,2:1|2:0,2:0:0:0:
285,270,124360,2,0,L|274:377,1,95,4|0,2:3|2:0,2:0:0:0:
379,254,124680,1,8,2:0:0:0:
253,180,124839,1,0,2:0:0:0:
195,311,124999,1,0,3:0:0:0:
285,270,125158,1,0,3:0:0:0:
45,194,125318,5,6,2:1:0:0:
24,98,125477,2,0,P|121:132|139:219,1,190,4|0,2:3|2:0,2:0:0:0:
108,356,125956,2,0,P|83:317|96:245,1,95,10|0,2:1|2:0,2:0:0:0:
309,183,126275,2,0,P|309:229|284:269,1,95,2|0,3:1|3:0,2:0:0:0:
143,115,126594,5,6,2:1:0:0:
204,325,126754,1,4,2:3:0:0:
251,79,126914,1,6,2:1:0:0:
203,341,127073,1,4,2:3:0:0:
58,181,127233,5,10,2:1:0:0:
339,186,127392,1,0,3:0:0:0:
87,295,127552,1,8,2:0:0:0:
119,23,127712,1,0,3:0:0:0:
292,293,127871,6,0,P|395:285|439:281,1,123.5,4|0,2:0|2:0,2:0:0:0:
474,211,128350,1,0,2:0:0:0:
378,172,128509,2,0,P|365:121|368:41,1,123.5,0|0,2:0|2:0,2:0:0:0:
207,110,129148,2,0,P|204:157|198:193,2,61.7499999999999,0|0|0,2:0|2:0|2:0,2:0:0:0:
49,41,129786,2,0,P|52:83|62:125,1,61.7499999999999,0|0,2:0|2:0,2:0:0:0:
78,243,130105,2,0,P|83:212|84:181,1,61.7499999999999,0|0,2:0|2:0,2:0:0:0:
17,307,130424,6,0,P|55:327|143:296,1,123.5,0|0,2:0|2:0,2:0:0:0:
213,361,130903,1,0,2:0:0:0:
305,305,131063,2,0,P|376:294|449:285,1,123.5,0|0,2:0|2:0,2:0:0:0:
248,221,131701,2,0,P|182:210|158:207,2,61.7499999999999,0|0|0,2:0|2:0|2:0,2:0:0:0:
396,153,132339,2,0,P|366:159|336:164,2,61.7499999999999,0|0|0,2:0|2:0|3:0,2:0:0:0:
171,50,132977,5,4,2:3:0:0:
244,0,133137,2,0,P|262:42|254:138,1,123.5,4|0,2:3|2:0,2:0:0:0:
165,253,133616,2,0,P|160:191|181:134,1,123.5,0|0,2:0|2:0,2:0:0:0:
247,307,134254,2,0,L|242:384,2,61.7499999999999,0|0|0,2:0|2:0|2:0,2:0:0:0:
362,147,134892,2,0,P|361:178|354:208,1,61.7499999999999,0|0,2:0|2:0,2:0:0:0:
454,274,135212,2,0,P|445:235|447:196,1,61.7499999999999,0|0,2:0|2:0,2:0:0:0:
512,338,135531,6,0,P|456:360|398:341,1,123.5,0|0,2:0|2:0,2:0:0:0:
305,371,136009,1,0,2:0:0:0:
213,313,136169,2,0,L|206:185,2,123.5,0|0|4,2:0|3:0|2:3,2:0:0:0:
131,365,136967,1,0,2:0:0:0:
44,322,137126,1,0,2:0:0:0:
166,92,137446,5,4,2:3:0:0:
135,9,137605,1,0,2:0:0:0:
62,80,137765,1,0,3:0:0:0:
93,163,137924,1,0,3:0:0:0:
298,81,138084,5,4,2:3:0:0:
378,123,138243,2,0,B|442:115|435:167|516:146,1,123.5,4|0,2:3|2:0,2:0:0:0:
306,178,138722,2,0,P|300:222|288:312,1,123.5,0|0,2:0|2:0,2:0:0:0:
141,363,139360,2,0,P|133:320|124:290,1,61.7499999999999,0|0,2:0|2:0,2:0:0:0:
33,258,139680,2,0,P|43:211|56:174,1,61.7499999999999,0|0,2:0|2:0,2:0:0:0:
118,79,139999,6,0,P|132:124|140:229,1,123.5,0|0,2:0|2:0,2:0:0:0:
229,251,140477,1,0,2:0:0:0:
327,199,140637,2,0,P|391:190|479:180,1,123.5,0|0,2:0|2:0,2:0:0:0:
379,107,141116,1,0,2:0:0:0:
379,107,141275,2,0,P|317:99|256:91,1,123.5,0|0,2:0|2:0,2:0:0:0:
99,154,141914,2,0,P|38:163|22:163,2,61.7499999999999,0|0|0,2:0|2:0|2:0,2:0:0:0:
224,276,142552,2,0,P|216:232|193:193,1,61.7499999999999,0|0,2:0|2:0,2:0:0:0:
134,266,142871,1,0,3:0:0:0:
300,221,143031,1,0,3:0:0:0:
196,365,143190,5,4,2:3:0:0:
311,210,143350,2,0,P|378:188|441:218,1,123.5,4|0,2:3|2:0,2:0:0:0:
240,146,143829,2,0,P|235:81|231:14,1,123.5,0|0,2:0|2:0,2:0:0:0:
160,205,144467,2,0,P|109:192|80:194,2,61.7499999999999,0|0|0,2:0|2:0|2:0,2:0:0:0:
332,248,145105,2,0,P|299:259|276:275,1,61.7499999999999,0|0,2:0|2:0,2:0:0:0:
246,363,145424,5,0,3:0:0:0:
195,75,145743,1,4,2:3:0:0:
427,177,146063,2,0,P|478:168|512:165,2,61.7499999999999,0|0|0,2:0|2:0|2:0,2:0:0:0:
278,275,146701,5,0,3:0:0:0:
309,165,146860,1,0,3:0:0:0:
268,296,147020,2,0,P|237:300|207:305,1,61.7499999999999,0|0,3:0|2:0,2:0:0:0:
426,327,147339,2,0,P|432:288|420:255,1,61.7499999999999,0|0,3:0|3:0,2:0:0:0:
243,122,147658,5,4,2:3:0:0:
276,275,147818,1,4,2:3:0:0:
345,75,147977,1,0,3:0:0:0:
174,206,148137,1,0,3:0:0:0:
17,19,148297,5,4,2:3:0:0:
68,96,148456,2,0,P|102:100|147:84,2,71.2499999999996,4|0|0,2:3|2:0|2:0,2:0:0:0:
10,168,148935,2,0,P|2:204|15:256,1,71.2499999999996,2|0,2:0|2:0,2:0:0:0:
34,323,149254,1,0,2:0:0:0:
304,348,149573,5,0,2:0:0:0:
383,309,149733,1,0,2:0:0:0:
448,366,149892,1,2,2:0:0:0:
465,353,150212,5,2,2:0:0:0:
479,213,150371,1,2,2:0:0:0:
448,366,150531,1,2,2:0:0:0:
383,309,150690,1,0,2:0:0:0:
246,347,150850,6,0,P|228:306|226:198,1,142.499999999999,0|0,2:0|2:0,2:0:0:0:
290,155,151329,1,0,2:0:0:0:
362,200,151488,2,0,P|366:241|357:274,1,71.2499999999996,2|0,2:0|2:0,2:0:0:0:
209,186,151807,2,0,P|205:145|214:112,1,71.2499999999996,0|0,2:0|2:0,2:0:0:0:
422,98,152126,5,0,2:0:0:0:
392,20,152286,1,0,2:0:0:0:
310,32,152446,1,2,2:0:0:0:
290,47,152765,5,2,2:0:0:0:
439,85,152924,1,2,2:0:0:0:
273,62,153084,1,2,3:2:0:0:
347,127,153243,1,0,2:0:0:0:
167,200,153403,5,4,2:3:0:0:
166,109,153563,2,0,P|139:85|106:73,1,71.2499999999996,4|0,2:3|2:0,2:0:0:0:
3,183,153882,1,0,2:0:0:0:
174,205,154041,2,0,P|207:194|234:171,1,71.2499999999996,2|0,2:0|2:0,2:0:0:0:
58,259,154360,2,0,P|50:293|56:328,1,71.2499999999996,0|0,2:0|2:0,2:0:0:0:
243,320,154680,5,2,2:0:0:0:
178,246,154839,1,2,2:0:0:0:
148,338,154999,1,2,2:0:0:0:
138,346,155318,5,2,2:0:0:0:
175,233,155477,1,2,2:0:0:0:
255,324,155637,1,2,2:0:0:0:
148,338,155797,1,2,2:0:0:0:
346,362,155956,6,0,L|497:351,1,142.499999999999,0|0,2:0|2:0,2:0:0:0:
512,263,156435,1,0,2:0:0:0:
440,203,156594,2,0,P|424:234|421:270,1,71.2499999999996,2|0,2:0|2:0,2:0:0:0:
512,156,156914,1,0,3:0:0:0:
341,223,157073,1,0,3:0:0:0:
460,76,157233,6,0,L|455:1,2,71.2499999999996,4|0|0,2:3|2:0|2:0,2:0:0:0:
172,213,157871,1,6,2:3:0:0:
279,304,158031,1,2,2:0:0:0:
163,197,158190,1,0,3:0:0:0:
195,357,158350,1,0,3:0:0:0:
225,126,158509,5,4,2:3:0:0:
300,172,158669,2,0,B|368:146|370:198|441:167,1,142.499999999999,4|0,2:3|2:0,2:0:0:0:
443,164,159148,1,0,3:0:0:0:
268,277,159467,1,0,2:0:0:0:
182,45,159786,6,0,P|144:46|111:33,2,71.2499999999996,0|0|0,3:0|2:0|2:0,2:0:0:0:
69,231,160424,2,0,P|33:231|0:243,2,71.2499999999996,0|0|0,3:0|2:0|2:0,2:0:0:0:
105,311,160903,1,2,2:0:0:0:
271,209,161063,6,0,P|272:263|235:352,1,142.499999999999,0|0,3:0|2:0,2:0:0:0:
186,275,161541,1,0,2:0:0:0:
354,246,161701,2,0,P|354:206|334:152,1,71.2499999999996,2|0,3:2|2:0,2:0:0:0:
292,53,162020,2,0,P|283:87|284:123,1,71.2499999999996,0|0,2:0|2:0,2:0:0:0:
485,315,162339,5,0,3:0:0:0:
441,245,162499,1,0,2:0:0:0:
404,320,162658,1,2,2:0:0:0:
412,329,162977,5,0,3:0:0:0:
428,247,163137,1,0,2:0:0:0:
494,345,163297,1,2,3:2:0:0:
479,185,163456,1,0,3:0:0:0:
312,353,163616,5,4,2:3:0:0:
273,277,163775,2,0,P|230:271|189:278,1,71.2499999999996,4|0,2:3|2:0,2:0:0:0:
135,336,164094,1,0,2:0:0:0:
239,187,164254,2,0,P|222:146|196:114,1,71.2499999999996,2|0,3:2|2:0,2:0:0:0:
80,199,164573,2,0,P|123:205|163:198,1,71.2499999999996,0|0,2:0|2:0,2:0:0:0:
317,62,164892,6,0,L|400:58,2,71.2499999999996,0|0|2,3:0|2:0|2:0,2:0:0:0:
230,29,165371,1,0,2:0:0:0:
171,145,165531,2,0,P|154:97|161:60,1,71.2499999999996,0|0,3:0|2:0,2:0:0:0:
71,95,165850,1,2,3:2:0:0:
254,153,166009,1,2,3:2:0:0:
163,272,166169,6,0,P|113:299|57:292,1,106.874999999999,4|0,2:3|2:0,2:0:0:0:
43,278,166488,1,0,2:0:0:0:
170,171,166648,1,0,2:0:0:0:
247,294,166807,2,0,P|236:327|191:360,1,71.2499999999996,2|0,3:2|2:0,2:0:0:0:
351,279,167126,2,0,P|325:254|314:220,1,71.2499999999996,0|0,2:0|2:0,2:0:0:0:
368,127,167446,5,2,3:2:0:0:
440,258,167605,1,2,2:0:0:0:
221,193,167765,1,2,3:2:0:0:
463,169,167924,1,0,3:0:0:0:
263,356,168084,5,6,2:3:0:0:
295,76,168243,1,6,2:3:0:0:
430,361,168403,1,6,2:3:0:0:
394,53,168563,1,6,2:3:0:0:
141,286,168722,6,0,P|62:276|-27:268,1,156.75,6|0,2:1|2:0,2:0:0:0:
206,348,169041,2,0,P|225:295|210:225,1,104.5,2|2,2:0|2:0,2:0:0:0:
25,86,169360,2,0,L|35:206,1,104.5,10|0,2:0|2:0,2:0:0:0:
306,273,169680,2,0,B|359:262|359:262|440:272,1,104.5,2|0,3:2|2:0,2:0:0:0:
372,60,169999,6,0,P|305:74|239:36,1,104.5,6|2,2:3|2:0,2:0:0:0:
33,190,170318,2,0,P|96:175|151:196,1,104.5,6|0,2:1|2:0,2:0:0:0:
291,376,170637,2,0,P|298:315|310:248,1,104.5,10|0,2:1|2:0,2:0:0:0:
193,365,170956,1,2,3:1:0:0:
399,292,171116,1,2,3:2:0:0:
227,157,171275,5,6,2:1:0:0:
394,319,171435,2,0,P|455:307|516:301,1,104.5,4|2,2:3|2:0,2:0:0:0:
235,184,171754,1,2,2:0:0:0:
139,255,171914,2,0,P|57:279|-12:225,1,156.75,10|0,2:0|2:0,2:0:0:0:
43,88,172233,2,0,P|65:150|52:198,1,104.5,2|0,3:1|2:0,2:0:0:0:
274,336,172552,6,0,P|240:277|280:125,1,209,6|6,2:1|2:3,2:0:0:0:
329,208,173031,1,0,2:0:0:0:
159,334,173190,1,10,2:0:0:0:
181,88,173350,1,2,2:0:0:0:
361,191,173509,1,2,3:2:0:0:
90,257,173669,1,2,3:2:0:0:
372,299,173829,5,4,2:3:0:0:
108,271,173988,1,4,2:3:0:0:
108,271,174068,1,0,2:0:0:0:
108,271,174148,2,0,P|53:285|-11:268,1,104.5,0|0,2:0|2:0,2:0:0:0:
162,32,174467,6,0,B|178:82|178:82|162:167,1,104.5,10|0,2:1|2:0,2:0:0:0:
380,243,174786,2,0,B|364:193|364:193|380:108,1,104.5,2|0,3:1|2:0,2:0:0:0:
447,345,175105,2,0,P|385:365|337:354,1,104.5,6|0,2:1|2:0,2:0:0:0:
106,233,175424,2,0,P|157:227|205:246,1,104.5,6|0,2:1|2:0,2:0:0:0:
46,336,175743,1,10,2:1:0:0:
69,128,175903,1,0,2:0:0:0:
158,344,176063,5,2,3:1:0:0:
64,98,176222,1,0,3:0:0:0:
13,221,176382,5,6,2:1:0:0:
173,133,176541,2,0,B|286:110|257:187|380:155,1,209,4|2,2:3|2:0,2:0:0:0:
119,66,177020,2,0,P|90:123|117:193,1,104.5,10|0,2:0|2:0,2:0:0:0:
294,295,177339,2,0,L|285:173,1,104.5,2|0,3:1|2:0,2:0:0:0:
41,309,177658,6,0,B|100:297|100:297|181:317,1,114,6|2,2:1|2:0,2:0:0:0:
189,120,177977,1,6,2:3:0:0:
167,147,178084,1,2,2:0:0:0:
161,181,178190,1,2,2:0:0:0:
166,216,178297,6,0,P|229:200|276:189,1,104.5,10|2,2:0|3:2,2:0:0:0:
129,311,178616,1,2,3:2:0:0:
188,86,178775,1,2,3:2:0:0:
366,271,178935,5,6,2:1:0:0:
509,191,179094,2,0,B|459:170|459:170|405:178,1,109.25,4|2,2:3|2:0,2:0:0:0:
229,281,179414,1,2,2:0:0:0:
344,367,179573,2,0,P|391:371|447:330,1,109.25,10|0,2:0|2:0,2:0:0:0:
234,147,179892,2,0,B|227:288,1,109.25,2|0,3:1|2:0,2:0:0:0:
132,89,180212,6,0,B|79:79|79:79|9:100,1,109.25,6|2,2:1|2:0,2:0:0:0:
318,72,180531,2,0,B|371:82|371:82|441:61,1,109.25,6|0,2:1|2:0,2:0:0:0:
192,10,180850,1,10,2:1:0:0:
247,232,181009,1,2,2:0:0:0:
218,24,181169,5,2,3:1:0:0:
147,317,181329,1,2,3:2:0:0:
247,208,181488,6,0,P|139:189|31:173,1,218.5,6|2,2:1|2:0,2:0:0:0:
236,108,181967,1,2,2:1:0:0:
152,289,182126,2,0,P|97:300|29:252,1,109.25,10|0,2:1|2:0,2:0:0:0:
252,0,182446,2,0,L|237:108,1,109.25,2|0,3:1|2:0,2:0:0:0:
318,285,182765,2,0,B|371:279|371:279|447:304,1,109.25,6|0,2:1|2:0,2:0:0:0:
295,171,183084,5,6,2:3:0:0:
358,384,183243,1,2,2:0:0:0:
498,217,183403,1,10,2:0:0:0:
318,285,183563,1,2,2:0:0:0:
409,296,183722,5,2,3:1:0:0:
102,251,183882,1,2,3:2:0:0:
481,369,184041,6,0,P|506:310|477:237,1,109.25,6|4,2:1|2:3,2:0:0:0:
320,53,184360,2,0,L|329:178,1,109.25,2|0,2:1|2:0,2:0:0:0:
160,352,184680,2,0,L|152:243,1,109.25,10|0,2:1|2:0,2:0:0:0:
260,336,184999,1,2,3:1:0:0:
51,220,185158,1,2,2:0:0:0:
316,202,185318,6,0,B|406:178|388:259|518:195,1,163.875,6|0,2:1|2:0,2:0:0:0:
444,28,185637,2,0,L|431:166,1,109.25,6|2,2:3|2:0,2:0:0:0:
244,258,185956,2,0,B|225:205|225:205|249:131,1,109.25,10|0,2:0|2:0,2:0:0:0:
339,286,186275,1,2,3:2:0:0:
136,231,186435,1,0,3:0:0:0:
305,19,186594,6,0,B|353:44|362:99|362:99|313:152|321:234,1,218.5,6|2,2:1|2:0,2:0:0:0:
271,353,187073,1,2,2:0:0:0:
99,239,187233,2,0,P|26:224|-21:250,1,109.25,10|0,2:1|2:0,2:0:0:0:
183,136,187552,2,0,L|168:-3,1,109.25,2|0,3:1|2:0,2:0:0:0:
340,183,187871,5,6,2:1:0:0:
340,183,187977,2,0,P|310:189|245:182,1,72.8333333333334,2|2,2:0|2:0,2:0:0:0:
5,78,188190,5,6,2:1:0:0:
5,78,188297,2,0,P|36:71|95:82,1,72.8333333333334,2|2,2:0|2:0,2:0:0:0:
104,355,188509,5,10,2:1:0:0:
46,160,188669,1,2,3:2:0:0:
267,269,188829,1,10,2:0:0:0:
305,77,188988,1,2,3:2:0:0:
435,362,189148,6,0,B|319:315|317:402|202:349,1,237.5,6|2,2:1|2:0,2:0:0:0:
54,239,189626,1,2,2:0:0:0:
239,160,189786,2,0,P|267:203|250:298,1,118.75,10|0,2:0|2:0,2:0:0:0:
147,120,190105,1,2,3:2:0:0:
88,324,190265,1,0,2:0:0:0:
157,96,190424,6,0,B|204:63|204:63|270:69,1,118.75,6|2,2:3|2:0,2:0:0:0:
465,119,190743,2,0,P|402:124|356:171,1,118.75,6|0,2:1|2:0,2:0:0:0:
274,378,191063,2,0,P|301:320|283:257,1,118.75,10|0,2:1|2:0,2:0:0:0:
189,102,191382,1,2,3:1:0:0:
195,306,191541,1,2,3:2:0:0:
81,174,191701,5,6,2:1:0:0:
384,240,191860,2,0,L|501:264,1,118.75,4|2,2:3|2:0,2:0:0:0:
345,84,192180,1,2,2:0:0:0:
231,196,192339,2,0,L|114:220,1,118.75,10|0,2:0|2:0,2:0:0:0:
289,326,192658,1,2,3:1:0:0:
227,81,192818,1,0,2:0:0:0:
40,289,192977,6,0,B|9:241|9:241|25:154,1,118.75,6|0,2:1|2:0,2:0:0:0:
321,41,193297,2,0,B|332:101|332:101|301:149,1,118.75,6|2,2:3|2:0,2:0:0:0:
137,338,193616,1,10,2:0:0:0:
345,242,193775,1,2,2:0:0:0:
176,138,193935,1,10,2:0:0:0:
285,376,194094,1,2,3:2:0:0:
489,213,194254,5,4,2:3:0:0:
381,139,194414,2,0,B|342:193|342:242|342:242|387:286|372:360,1,237.5,4|0,2:3|2:0,2:0:0:0:
184,256,194892,2,0,P|213:298|287:320,1,118.75,10|0,2:1|2:0,2:0:0:0:
489,213,195212,1,2,3:1:0:0:
257,195,195371,1,0,2:0:0:0:
498,349,195531,6,0,B|466:301|466:301|480:231,1,118.75,6|0,2:1|2:0,2:0:0:0:
401,31,195850,2,0,B|412:90|412:90|380:138,1,118.75,6|0,2:1|2:0,2:0:0:0:
241,177,196169,2,0,L|117:162,1,118.75,10|0,2:1|2:0,2:0:0:0:
72,23,196488,1,2,3:1:0:0:
75,251,196648,1,0,3:0:0:0:
317,73,196807,5,6,2:1:0:0:
272,272,196967,2,0,P|284:333|331:375,1,118.75,4|2,2:3|2:0,2:0:0:0:
446,372,197286,1,2,2:0:0:0:
334,200,197446,2,0,P|275:179|215:199,1,118.75,10|0,2:0|2:0,2:0:0:0:
172,350,197765,1,2,3:1:0:0:
415,249,197924,1,0,2:0:0:0:
133,176,198084,6,0,L|122:50,1,118.75,6|2,2:1|2:0,2:0:0:0:
305,170,198403,5,6,2:3:0:0:
348,184,198509,1,2,2:0:0:0:
389,167,198616,1,2,2:0:0:0:
416,133,198722,6,0,L|427:7,1,118.75,10|2,2:0|3:2,2:0:0:0:
216,79,199041,1,10,2:0:0:0:
512,199,199201,1,2,3:2:0:0:
255,351,199360,5,6,2:1:0:0:
246,170,199520,2,0,B|132:229|141:132|5:183,1,237.5,4|2,2:3|2:0,2:0:0:0:
169,356,199999,2,0,P|219:317|225:212,1,118.75,10|0,2:0|2:0,2:0:0:0:
185,86,200318,1,2,3:1:0:0:
79,269,200477,1,0,2:0:0:0:
333,285,200637,6,0,P|324:222|236:164,1,118.75,6|2,2:1|2:0,2:0:0:0:
80,71,200956,2,0,P|86:129|124:174,1,118.75,6|0,2:1|2:0,2:0:0:0:
275,98,201275,1,10,2:1:0:0:
155,317,201435,1,2,2:0:0:0:
282,80,201594,1,2,3:1:0:0:
267,341,201754,1,2,3:2:0:0:
512,93,201914,6,0,P|426:90|336:203,1,237.5,6|2,2:1|2:0,2:0:0:0:
354,384,202392,1,2,2:1:0:0:
510,288,202552,2,0,P|507:220|463:157,1,118.75,10|0,2:1|2:0,2:0:0:0:
308,294,202871,1,2,3:1:0:0:
282,32,203031,1,2,2:0:0:0:
215,285,203190,6,0,B|158:304|158:304|88:282,1,118.75,6|0,2:1|2:0,2:0:0:0:
105,98,203509,2,0,B|161:78|161:78|231:100,1,118.75,4|0,2:3|2:0,2:0:0:0:
158,193,203829,2,0,L|10:192,1,118.75,10|2,2:0|2:0,2:0:0:0:
2,324,204148,1,10,2:1:0:0:
194,292,204307,1,2,3:2:0:0:
119,13,204467,5,6,2:1:0:0:
27,110,204626,2,0,P|13:164|45:221,1,118.75,4|2,2:3|2:1,2:0:0:0:
185,266,204946,1,0,2:0:0:0:
232,132,205105,2,0,L|87:151,1,118.75,10|0,2:1|2:0,2:0:0:0:
324,177,205424,2,0,P|338:123|306:66,1,118.75,2|2,3:1|2:0,2:0:0:0:
224,344,205743,6,0,B|280:361|280:361|337:341,1,118.75,6|0,2:1|2:0,2:0:0:0:
451,170,206063,2,0,B|408:210|408:210|396:268,1,118.75,6|2,2:3|2:0,2:0:0:0:
499,383,206382,2,0,L|490:254,1,118.75,10|0,2:0|2:0,2:0:0:0:
365,354,206701,1,2,3:2:0:0:
449,144,206860,1,0,3:0:0:0:
248,330,207020,6,0,B|248:254|248:254|281:171|281:171|280:92,1,237.5,6|2,2:1|2:0,2:0:0:0:
282,11,207499,1,2,2:0:0:0:
191,148,207658,2,0,L|191:30,1,118.75,10|0,2:1|2:0,2:0:0:0:
363,175,207977,2,0,L|363:49,1,118.75,2|0,3:1|3:0,2:0:0:0:
257,246,208297,5,6,2:1:0:0:
142,354,208456,1,6,2:3:0:0:
109,202,208616,1,6,2:1:0:0:
90,179,208696,1,2,2:0:0:0:
71,156,208775,1,2,2:0:0:0:
278,273,208935,5,10,2:1:0:0:
119,175,209094,1,0,3:0:0:0:
105,143,209174,1,2,2:0:0:0:
89,110,209254,1,8,2:0:0:0:
109,361,209414,1,0,3:0:0:0:
171,263,209573,6,0,L|184:240,7,23.75,4|0|0|0|0|0|0|0,2:3|2:0|2:0|2:0|2:0|2:0|2:0|2:0,2:0:0:0:
222,327,210850,6,0,L|230:371,3,35.6250000000001,2|2|2|2,2:0|2:0|2:0|2:0,2:0:0:0:
296,280,211169,2,0,L|302:244,3,35.6250000000001,2|2|2|2,2:0|2:0|2:0|2:0,2:0:0:0:
357,344,211488,1,2,2:0:0:0:
370,345,211568,1,2,2:0:0:0:
383,346,211648,1,2,2:0:0:0:
396,348,211727,1,2,2:0:0:0:
410,349,211807,1,2,2:0:0:0:
423,350,211887,1,2,2:0:0:0:
436,352,211967,1,2,2:0:0:0:
450,353,212047,1,2,2:0:0:0:
462,354,212126,6,0,P|486:306|458:146,1,209,4|2,2:0|2:0,2:0:0:0:
393,96,213084,1,2,2:0:0:0:
218,151,213403,2,0,B|269:161|269:161|323:148,1,104.5,2|2,2:0|2:0,2:0:0:0:
135,103,214041,2,0,L|24:95,1,104.5,2|2,2:0|2:0,2:0:0:0:
80,269,214680,6,0,P|109:291|261:236,1,209,2|2,2:0|2:0,2:0:0:0:
188,183,215637,1,2,2:0:0:0:
296,343,215956,2,0,P|355:338|409:336,1,104.5,2|2,2:0|2:0,2:0:0:0:
188,183,216594,2,0,P|135:180|83:176,1,104.5,2|2,2:0|2:0,2:0:0:0:
253,67,217233,6,0,B|339:74|339:74|380:99|380:99|457:102,2,209,2|2|2,2:0|2:0|2:0,2:0:0:0:
180,133,218829,1,2,2:0:0:0:
242,212,219148,2,0,P|277:211|367:201,1,104.5,2|2,2:0|2:0,2:0:0:0:
202,323,219786,6,0,P|144:299|17:371,1,209,2|2,2:0|2:0,2:0:0:0:
94,219,220743,2,0,L|86:158,1,52.25,2|2,2:0|2:0,2:0:0:0:
11,103,221063,2,0,P|27:70|40:0,1,104.5,2|2,2:0|2:0,2:0:0:0:
167,89,221701,2,0,P|175:140|195:188,1,104.5,2|2,2:0|2:0,2:0:0:0:
425,205,222339,6,0,L|355:215,2,71.2500000000002,2|2|2,2:0|2:0|2:0,2:0:0:0:
179,260,222977,6,0,P|212:260|244:270,2,66.4999999999999,2|2|2,2:0|2:0|2:0,2:0:0:0:
339,321,223616,6,0,P|376:323|407:318,2,61.7499999999999,2|2|2,2:0|2:0|2:0,2:0:0:0:
249,367,224254,6,0,L|189:362,2,56.9999999999999,2|2|2,2:0|2:0|2:0,2:0:0:0:
356,149,224892,5,2,2:1:0:0:
299,87,225052,1,2,2:0:0:0:
344,176,225212,1,2,2:0:0:0:
142,234,225531,6,0,P|149:193|164:152,1,71.2500000000002,2|2,2:0|2:0,2:0:0:0:
207,283,225850,1,2,2:0:0:0:
69,172,226009,1,2,2:0:0:0:
69,172,226089,1,2,2:0:0:0:
69,172,226169,6,0,L|60:109,1,35.6250000000001,2|2,2:1|2:0,2:0:0:0:
4,235,226329,2,0,L|10:271,1,35.6250000000001,2|2,2:0|2:0,2:0:0:0:
80,335,226488,5,2,2:0:0:0:
93,332,226568,1,2,2:0:0:0:
106,329,226648,1,2,2:0:0:0:
119,327,226727,1,2,2:0:0:0:
132,324,226807,1,2,2:0:0:0:
145,321,226887,1,2,2:0:0:0:
158,319,226967,1,2,2:0:0:0:
171,316,227047,1,2,2:0:0:0:
183,311,227126,6,0,L|245:318,1,35.6250000000001,2|2,2:0|2:0,2:0:0:0:
297,253,227286,2,0,L|362:261,1,35.6250000000001,2|2,2:0|2:0,2:0:0:0:
449,301,227446,5,6,2:1:0:0:
479,264,227525,1,2,2:0:0:0:
491,219,227605,1,2,2:0:0:0:
483,172,227685,1,2,2:0:0:0:
456,134,227765,1,2,2:0:0:0:
444,137,227844,1,2,2:0:0:0:
433,141,227924,1,2,2:0:0:0:
422,145,228004,1,2,2:0:0:0:
410,149,228084,5,2,2:0:0:0:
373,119,228164,1,2,2:0:0:0:
328,107,228243,1,2,2:0:0:0:
281,115,228323,1,2,2:0:0:0:
243,142,228403,1,2,2:0:0:0:
246,153,228483,1,2,2:0:0:0:
250,164,228563,1,2,2:0:0:0:
254,175,228642,1,2,2:0:0:0:
258,187,228722,5,6,2:1:0:0:
240,230,228802,1,2,2:0:0:0:
200,255,228882,1,2,2:0:0:0:
153,252,228962,1,2,2:0:0:0:
117,223,229041,2,0,L|106:150,1,47.5,2|2,2:0|2:0,2:0:0:0:
42,337,229201,2,0,L|34:383,1,47.5,2|2,2:0|2:0,2:0:0:0:
178,355,229360,5,2,2:0:0:0:
224,345,229440,1,2,2:0:0:0:
271,336,229520,2,0,L|278:289,1,47.5,2|2,2:0|2:0,2:0:0:0:
139,268,229680,1,2,2:0:0:0:
93,258,229759,1,2,2:0:0:0:
46,249,229839,2,0,L|38:202,1,47.5,2|2,2:0|2:0,2:0:0:0:
209,81,229999,5,6,2:1:0:0:
238,115,230079,1,2,2:0:0:0:
225,159,230158,1,2,2:0:0:0:
182,173,230238,1,2,2:0:0:0:
147,145,230318,1,2,2:0:0:0:
135,141,230398,1,2,2:0:0:0:
124,138,230477,1,2,2:0:0:0:
112,135,230557,1,2,2:0:0:0:
101,132,230637,5,2,2:0:0:0:
83,88,230717,1,2,2:0:0:0:
100,45,230797,1,2,2:0:0:0:
141,25,230876,1,2,2:0:0:0:
186,38,230956,1,2,2:0:0:0:
198,37,231036,1,2,2:0:0:0:
209,36,231116,1,2,2:0:0:0:
221,35,231196,1,2,2:0:0:0:
233,34,231275,6,0,L|293:28,1,47.5,6|2,2:1|2:0,2:0:0:0:
279,137,231435,2,0,L|327:101,1,47.5,2|2,2:0|2:0,2:0:0:0:
370,203,231594,2,0,L|394:148,1,47.5,2|2,2:0|2:0,2:0:0:0:
481,214,231754,2,0,L|475:153,1,47.5,2|2,2:0|2:0,2:0:0:0:
491,328,231914,1,2,2:1:0:0:
491,333,231993,1,2,2:0:0:0:
492,339,232073,1,2,2:0:0:0:
492,345,232153,1,2,2:0:0:0:
493,351,232233,1,2,2:0:0:0:
493,357,232313,1,2,2:0:0:0:
494,363,232392,1,2,2:0:0:0:
495,369,232472,1,2,2:0:0:0:
495,369,232552,5,6,2:1:0:0:
458,339,232632,1,2,2:0:0:0:
412,327,232712,1,2,2:0:0:0:
366,334,232791,1,2,2:0:0:0:
326,359,232871,1,2,2:0:0:0:
324,347,232951,1,2,2:0:0:0:
323,335,233031,1,2,2:0:0:0:
322,323,233110,1,2,2:0:0:0:
321,311,233190,5,2,2:0:0:0:
284,340,233270,1,2,2:0:0:0:
238,352,233350,1,2,2:0:0:0:
192,345,233430,1,2,2:0:0:0:
152,321,233509,1,2,2:0:0:0:
150,332,233589,1,2,2:0:0:0:
149,344,233669,1,2,2:0:0:0:
148,356,233749,1,2,2:0:0:0:
147,367,233829,5,6,2:1:0:0:
100,369,233908,1,2,2:0:0:0:
65,338,233988,1,2,2:0:0:0:
62,292,234068,1,2,2:0:0:0:
92,257,234148,2,0,L|150:251,1,47.5,2|2,2:0|2:0,2:0:0:0:
47,168,234307,2,0,L|-11:162,1,47.5,2|2,2:0|2:0,2:0:0:0:
234,192,234467,5,2,2:1:0:0:
262,168,234547,1,2,2:0:0:0:
271,132,234626,2,0,P|264:107|257:87,1,47.5,2|2,2:0|2:0,2:0:0:0:
99,53,234786,1,2,2:0:0:0:
103,89,234866,1,2,2:0:0:0:
130,115,234946,2,0,P|155:122|179:126,1,47.5,2|2,2:0|2:0,2:0:0:0:
344,42,235105,5,6,2:1:0:0:
390,41,235185,1,2,2:0:0:0:
421,74,235265,1,2,2:0:0:0:
418,120,235344,1,2,2:0:0:0:
382,149,235424,1,2,2:0:0:0:
380,160,235504,1,2,2:0:0:0:
379,172,235584,1,2,2:0:0:0:
378,184,235664,1,2,2:0:0:0:
377,196,235743,5,2,2:0:0:0:
330,195,235823,1,2,2:0:0:0:
299,228,235903,1,2,2:0:0:0:
302,274,235983,1,2,2:0:0:0:
339,303,236063,1,2,2:0:0:0:
340,314,236142,1,2,2:0:0:0:
341,326,236222,1,2,2:0:0:0:
342,338,236302,1,2,2:0:0:0:
343,350,236382,6,0,P|363:343|394:317,1,47.5,6|2,2:1|2:0,2:0:0:0:
473,328,236541,2,0,P|471:306|454:270,1,47.5,2|2,2:0|2:0,2:0:0:0:
485,196,236701,2,0,P|464:192|424:199,1,47.5,2|2,2:0|2:0,2:0:0:0:
360,150,236860,2,0,P|350:169|347:209,1,47.5,2|2,2:0|2:0,2:0:0:0:
283,275,237020,1,2,2:0:0:0:
259,277,237100,1,2,2:0:0:0:
235,279,237180,1,2,2:0:0:0:
212,281,237259,1,2,2:0:0:0:
188,283,237339,1,2,2:0:0:0:
164,285,237419,1,2,2:0:0:0:
141,287,237499,1,2,2:0:0:0:
117,289,237579,1,2,2:0:0:0:
93,291,237658,5,6,2:1:0:0:
112,248,237738,1,2,2:0:0:0:
115,201,237818,1,2,2:0:0:0:
98,156,237898,1,2,2:0:0:0:
67,121,237977,1,2,2:0:0:0:
55,124,238057,1,2,2:0:0:0:
43,126,238137,1,2,2:0:0:0:
32,129,238217,1,2,2:0:0:0:
20,131,238297,5,2,2:0:0:0:
21,84,238376,1,2,2:0:0:0:
48,46,238456,1,2,2:0:0:0:
91,29,238536,1,2,2:0:0:0:
137,40,238616,1,2,2:0:0:0:
140,52,238696,1,2,2:0:0:0:
143,63,238775,1,2,2:0:0:0:
146,74,238855,1,2,2:0:0:0:
150,86,238935,5,6,2:1:0:0:
192,105,239015,1,2,2:0:0:0:
239,99,239094,1,2,2:0:0:0:
276,70,239174,1,2,2:0:0:0:
293,27,239254,1,2,2:0:0:0:
304,28,239334,1,2,2:0:0:0:
316,30,239414,1,2,2:0:0:0:
328,32,239493,1,2,2:0:0:0:
339,34,239573,6,0,L|399:44,3,47.5,2|2|2|2,2:1|2:0|2:0|2:0,2:0:0:0:
302,133,239892,2,0,L|242:143,3,47.5,2|2|2|2,2:1|2:0|2:0|2:0,2:0:0:0:
408,147,240212,5,6,2:1:0:0:
433,186,240291,1,2,2:0:0:0:
441,232,240371,1,2,2:0:0:0:
431,278,240451,1,2,2:0:0:0:
403,317,240531,1,2,2:0:0:0:
363,341,240610,1,2,2:0:0:0:
316,347,240690,2,0,L|246:334,1,47.5,2|2,2:0|2:0,2:0:0:0:
234,229,240850,5,2,2:1:0:0:
195,204,240930,1,2,2:0:0:0:
149,196,241009,1,2,2:0:0:0:
103,206,241089,1,2,2:0:0:0:
64,234,241169,1,2,2:0:0:0:
40,274,241249,1,2,2:0:0:0:
34,321,241329,2,0,L|47:391,1,47.5,2|2,2:0|2:0,2:0:0:0:
237,324,241488,5,6,2:1:0:0:
236,300,241568,1,2,2:0:0:0:
235,276,241648,1,2,2:0:0:0:
235,252,241727,1,2,2:0:0:0:
234,229,241807,1,2,2:0:0:0:
233,205,241887,1,2,2:0:0:0:
233,181,241967,1,2,2:0:0:0:
232,157,242047,1,2,2:0:0:0:
231,134,242126,6,0,L|163:142,3,47.5,2|2|2|2,2:1|2:0|2:0|2:0,2:0:0:0:
308,65,242446,6,0,L|376:73,3,47.5,2|2|2|2,2:0|2:0|2:0|2:0,2:0:0:0:
442,123,242765,5,6,2:1:0:0:
457,172,242844,1,2,2:0:0:0:
438,221,242924,1,2,2:0:0:0:
393,249,243004,1,2,2:0:0:0:
341,246,243084,1,2,2:0:0:0:
295,219,243164,1,2,2:0:0:0:
258,180,243243,1,2,2:0:0:0:
220,144,243323,1,2,2:0:0:0:
171,122,243403,1,2,2:0:0:0:
118,119,243483,1,2,2:0:0:0:
68,136,243563,1,2,2:0:0:0:
31,173,243642,1,2,2:0:0:0:
17,224,243722,1,2,2:0:0:0:
30,276,243802,1,2,2:0:0:0:
64,316,243882,1,2,2:0:0:0:
114,335,243962,1,2,2:0:0:0:
165,326,244041,5,6,2:3:0:0:
196,281,244121,1,2,2:0:0:0:
213,229,244201,1,2,2:0:0:0:
213,175,244281,1,2,2:0:0:0:
198,122,244360,1,2,2:0:0:0:
169,77,244440,1,2,2:0:0:0:
127,41,244520,1,2,2:0:0:0:
78,19,244600,1,2,2:0:0:0:
24,13,244680,5,2,2:0:0:0:
24,73,244759,1,2,2:0:0:0:
45,129,244839,1,2,2:0:0:0:
81,178,244919,1,2,2:0:0:0:
130,213,244999,1,2,2:0:0:0:
188,232,245079,1,2,2:0:0:0:
248,232,245158,1,2,2:0:0:0:
306,215,245238,1,2,2:0:0:0:
356,180,245318,6,0,L|329:78,1,59.375,6|2,2:3|2:0,2:0:0:0:
478,230,245477,5,2,2:0:0:0:
434,283,245557,1,2,2:0:0:0:
370,306,245637,1,2,2:0:0:0:
303,294,245717,1,2,2:0:0:0:
251,249,245797,1,2,2:0:0:0:
229,185,245876,1,2,2:0:0:0:
243,116,245956,5,2,2:0:0:0:
295,160,246036,1,2,2:0:0:0:
314,226,246116,1,2,2:0:0:0:
294,290,246196,1,2,2:0:0:0:
242,335,246275,1,2,2:0:0:0:
175,343,246355,1,2,2:0:0:0:
113,316,246435,1,2,2:0:0:0:
76,258,246515,1,2,2:0:0:0:
97,190,246594,5,6,2:3:0:0:
101,205,246674,1,2,2:0:0:0:
103,219,246754,1,2,2:0:0:0:
103,236,246834,1,2,2:0:0:0:
102,251,246914,1,2,2:0:0:0:
99,266,246993,1,2,2:0:0:0:
95,281,247073,1,2,2:0:0:0:
90,296,247153,1,2,2:0:0:0:
82,315,247233,6,0,P|117:328|164:331,1,59.375,2|2,2:0|2:0,2:0:0:0:
265,206,247392,2,0,P|270:174|271:142,1,64.125,2|2,2:0|2:0,2:0:0:0:
355,276,247552,2,0,L|422:264,1,68.875,2|2,2:0|2:0,2:0:0:0:
226,352,247712,2,0,L|152:346,1,73.6249999999999,2|2,2:0|2:0,2:0:0:0:
319,382,247871,5,4,2:3:0:0:
256,192,247951,12,0,250424,2:0:0:0:
