osu file format v14

[General]
AudioFilename: Nightcore - Winterspell.mp3
AudioLeadIn: 0
PreviewTime: 67146
Countdown: 1
SampleSet: Normal
StackLeniency: 0.7
Mode: 0
LetterboxInBreaks: 0
WidescreenStoryboard: 0

[Editor]
DistanceSpacing: 1.7
BeatDivisor: 3
GridSize: 4
TimelineZoom: 1

[Metadata]
Title:Winterspell (Nightcore Mix)
TitleUnicode:Winterspell (Nightcore Mix)
Artist:Two Steps From Hell
ArtistUnicode:Two Steps From Hell
Creator:Nayrus
Version:Winterwind
Source:
Tags:
BeatmapID:879376
BeatmapSetID:404447

[Difficulty]
HPDrainRate:3.8
CircleSize:4
OverallDifficulty:9.7
ApproachRate:10
SliderMultiplier:1.8
SliderTickRate:1

[Events]
//Background and Video events
0,0,"BG.jpg",0,0
//Break Periods
//Storyboard Layer 0 (Background)
//Storyboard Layer 1 (Fail)
//Storyboard Layer 2 (Pass)
//Storyboard Layer 3 (Foreground)
//Storyboard Sound Samples

[TimingPoints]
1395,374.298190892077,4,2,0,40,1,0
13372,-100,4,2,0,25,0,0
25350,-125,4,2,0,15,0,0
36953,-80,4,1,0,55,0,0
43316,-100,4,2,0,55,0,0
55293,-111.111111111111,4,2,0,45,0,0
64277,-111.111111111111,4,1,0,20,0,0
64776,-100,4,1,0,25,0,0
65275,-100,4,1,0,30,0,0
65774,-86.2068965517241,4,1,0,40,0,0
66148,-86.2068965517241,4,1,0,50,0,0
66522,-75.7575757575758,4,1,0,60,0,0
67146,-66.6666666666667,4,1,0,80,0,0
79249,-66.6666666666667,4,1,0,60,0,0
100209,-80,4,1,0,65,0,0
101706,-76.9230769230769,4,1,0,70,0,0
103204,-71.4285714285714,4,1,0,75,0,0
104701,-66.6666666666667,4,1,0,80,0,0
106198,-62.5,4,1,0,85,0,0
109068,-62.5,4,1,0,90,0,0
110690,-62.5,4,1,0,95,0,0
113684,-57.1428571428571,4,1,0,100,0,1
137639,-66.6666666666667,4,1,0,80,0,0

[HitObjects]
118,317,1270,5,0,0:0:0:0:
68,282,1395,2,0,P|78:214|118:168,1,120
168,171,1769,2,0,L|246:278,1,120
297,279,2143,2,0,P|276:301|259:328,2,60
367,245,2517,1,0,0:0:0:0:
430,290,2642,1,0,0:0:0:0:
416,184,2767,1,0,0:0:0:0:
325,240,2892,2,0,L|354:310,2,60
277,177,3266,5,0,0:0:0:0:
200,194,3391,1,0,0:0:0:0:
159,260,3516,1,0,0:0:0:0:
183,333,3640,1,0,0:0:0:0:
252,369,3765,1,0,0:0:0:0:
327,349,3890,1,0,0:0:0:0:
331,271,4015,2,0,P|357:235|380:216,1,60
446,223,4264,1,0,0:0:0:0:
406,290,4389,6,0,L|307:201,1,120
270,247,4763,2,0,P|203:264|146:248,1,120
97,199,5137,1,0,0:0:0:0:
102,121,5262,1,0,0:0:0:0:
169,81,5387,2,0,L|234:83,1,60
280,142,5637,2,0,L|364:146,1,60
400,194,5886,1,0,0:0:0:0:
492,152,6011,2,0,L|454:114,2,30
380,89,6260,6,0,L|424:135,2,60
320,102,6635,2,0,P|280:159|227:192,1,120
183,164,7009,2,0,B|197:100|197:100|256:134,1,120
238,186,7383,2,0,P|199:238|144:270,1,120
105,229,7758,2,0,L|74:102,1,120
121,42,8132,6,0,L|174:97,1,60
214,154,8381,1,0,0:0:0:0:
114,260,8506,2,0,L|167:205,1,60
214,154,8755,1,0,0:0:0:0:
288,113,8880,1,0,0:0:0:0:
361,153,9005,1,0,0:0:0:0:
372,230,9130,1,0,0:0:0:0:
315,297,9255,2,0,L|293:357,2,60
453,217,9629,2,0,P|472:242|485:273,2,60
373,176,10003,1,0,0:0:0:0:
319,242,10128,1,0,0:0:0:0:
359,311,10253,1,0,0:0:0:0:
434,303,10378,6,0,P|465:244|454:182,1,120
404,167,10752,2,0,L|270:198,1,120
209,203,11126,1,0,0:0:0:0:
146,154,11251,1,0,0:0:0:0:
156,74,11376,1,0,0:0:0:0:
233,49,11501,1,0,0:0:0:0:
292,102,11625,1,0,0:0:0:0:
283,178,11750,1,0,0:0:0:0:
209,203,11875,1,0,0:0:0:0:
221,130,12000,5,0,0:0:0:0:
221,130,12062,1,0,0:0:0:0:
221,130,12124,1,0,0:0:0:0:
283,178,12249,2,0,L|353:184,2,60
158,241,12623,2,0,L|88:235,2,60
285,315,12998,2,0,L|290:182,1,120
321,210,13372,6,0,P|396:195|445:154,1,120
490,166,13746,2,0,P|470:109|407:70,1,120
344,77,14121,2,0,B|311:196,1,120
250,240,14495,2,0,P|178:220|141:162,1,120
74,168,14869,2,0,P|115:123|186:112,1,120
240,147,15244,2,0,L|185:270,1,120
118,284,15618,2,0,P|165:331|220:337,1,120
293,346,15992,2,0,B|339:298|339:298|352:228,1,120
319,172,16366,1,0,0:0:0:0:
256,192,16491,12,0,18987,0:0:0:0:
81,220,19361,6,0,P|84:151|122:100,1,120
188,99,19735,2,0,L|308:156,1,120
354,202,20109,2,0,P|423:185|457:136,1,120
320,71,20484,2,0,P|371:112|396:162,1,120
367,232,20858,2,0,L|261:322,1,120
197,315,21232,2,0,P|186:252|212:196,1,120
285,199,21607,2,0,P|351:168|372:122,1,120
227,39,21981,2,0,L|249:160,1,120
178,244,22355,6,0,P|270:284|364:248,2,180
256,192,23229,12,0,24975,0:0:0:0:
115,267,25350,6,0,P|153:292|224:290,1,96
231,258,25724,2,0,L|331:234,1,96
333,188,26098,2,0,P|393:202|431:231,1,96
338,318,26472,2,0,L|372:220,1,96
415,210,26847,2,0,P|434:163|430:113,1,96
393,89,27221,2,0,L|297:132,1,96
298,224,27595,2,0,P|253:257|207:264,1,96
168,278,27970,2,0,P|140:241|131:183,1,96
153,151,28344,1,0,0:0:0:0:
256,192,28469,12,0,30964,0:0:0:0:
292,135,31338,6,0,P|255:109|197:98,1,96
175,135,31713,2,0,L|85:184,1,96
38,215,32087,2,0,P|9:174|-1:125,1,96
34,92,32461,2,0,L|119:44,1,96
165,39,32836,2,0,P|194:80|204:129,1,96
176,163,33210,2,0,P|222:140|275:139,1,96
301,170,33584,2,0,P|361:191|403:187,1,96
435,210,33958,2,0,P|481:177|493:140,1,96
466,100,34333,2,0,P|417:72|330:72,2,144
256,192,35206,12,0,36953,0:0:0:0:
321,80,37078,6,0,L|408:77,1,75
477,149,37327,1,0,0:0:0:0:
388,327,37452,2,0,P|322:275|286:197,1,150
357,105,37826,2,0,L|218:216,1,150
113,285,38325,1,0,0:0:0:0:
151,33,38575,1,0,0:0:0:0:
151,33,38700,1,0,0:0:0:0:
269,116,38824,5,0,0:0:0:0:
102,224,38949,2,0,P|90:149|122:72,1,150
241,33,39323,2,0,L|153:161,1,150
160,304,39698,2,0,L|80:296,1,75
246,199,39947,2,0,L|172:193,1,75
217,83,40197,1,0,0:0:0:0:
343,212,40322,1,0,0:0:0:0:
343,212,40446,1,0,0:0:0:0:
85,296,40696,1,0,0:0:0:0:
85,296,40821,1,0,0:0:0:0:
161,103,41070,6,0,P|201:85|247:84,1,75
373,162,41320,2,0,P|333:180|287:181,1,75
243,33,41569,2,0,L|316:78,1,75
313,238,41819,2,0,L|226:183,1,75
82,116,42068,2,0,P|163:87|197:92,1,75
364,175,42318,2,0,P|283:204|249:199,1,75
113,250,42567,2,0,L|164:169,1,75
337,30,42817,2,0,L|286:111,1,75
199,260,43066,1,0,0:0:0:0:
112,108,43191,1,0,0:0:0:0:
295,251,43316,6,0,P|271:315|220:354,1,120
131,311,43690,2,0,L|70:181,1,120
108,99,44064,2,0,P|168:60|217:51,1,120
286,84,44439,2,0,L|223:208,1,120
249,267,44813,2,0,P|324:307|375:302,1,120
426,341,45187,2,0,P|480:278|485:228,1,120
509,179,45562,2,0,P|444:136|387:130,1,120
368,259,45936,2,0,P|422:224|450:160,1,120
423,101,46310,6,0,L|276:102,1,120
239,147,46685,2,0,P|153:160|97:142,1,120
83,84,47059,2,0,B|156:55|156:55|186:113,1,120
142,162,47433,2,0,P|137:224|165:284,1,120
198,343,47807,2,0,P|259:335|312:295,1,120
216,213,48182,2,0,L|261:341,1,120
322,366,48556,2,0,P|395:333|416:293,1,120
465,242,48930,2,0,P|445:193|387:130,1,120
326,121,49305,6,0,P|284:161|221:192,1,120
163,231,49679,2,0,P|125:174|117:110,1,120
169,67,50053,2,0,B|212:116|212:116|284:144,1,120
334,169,50428,2,0,P|403:159|444:117,1,120
338,37,50802,2,0,L|390:151,1,120
438,205,51176,2,0,P|388:265|333:289,1,120
292,334,51550,2,0,L|224:218,1,120
169,181,51925,2,0,P|107:192|67:235,1,120
83,308,52299,6,0,B|138:260|138:260|119:199,1,120
73,155,52673,2,0,P|102:96|146:61,1,120
198,5,53048,2,0,P|267:32|314:71,1,120
312,137,53422,2,0,L|215:237,1,120
205,297,53796,2,0,P|164:244|171:165,1,120
212,133,54171,2,0,P|282:136|347:154,1,120
385,203,54545,2,0,P|443:164|455:111,1,120
406,57,54919,2,0,L|332:181,1,120
284,196,55293,6,0,P|220:203|167:189,1,107.999996704102
107,192,55668,2,0,L|136:77,1,107.999996704102
185,39,56042,2,0,P|249:32|302:46,1,107.999996704102
361,35,56416,2,0,L|332:150,1,107.999996704102
339,210,56791,2,0,L|366:268,2,53.9999983520508
244,139,57165,2,0,L|217:81,2,53.9999983520508
238,257,57539,2,0,L|265:315,2,53.9999983520508
143,186,57913,2,0,L|116:128,2,53.9999983520508
137,310,58288,6,0,P|181:348|251:351,1,107.999996704102
298,361,58662,2,0,L|383:276,1,107.999996704102
444,267,59036,2,0,P|454:202|440:155,1,107.999996704102
476,99,59411,2,0,P|403:81|355:91,1,107.999996704102
330,142,59785,2,0,P|262:157|203:148,1,107.999996704102
176,101,60159,2,0,L|261:10,1,107.999996704102
277,118,60534,2,0,L|192:209,1,107.999996704102
136,218,60908,2,0,P|88:176|82:121,1,107.999996704102
154,31,61282,6,0,L|202:-3,2,53.9999983520508
145,154,61657,2,0,L|97:188,2,53.9999983520508
261,98,62031,2,0,L|309:64,2,53.9999983520508
252,221,62406,2,0,L|204:255,2,53.9999983520508
369,170,62779,1,0,0:0:0:0:
369,170,62904,2,0,L|437:190,1,53.9999983520508
297,244,63154,1,0,0:0:0:0:
297,244,63279,2,0,L|365:264,1,53.9999983520508
209,286,63528,1,0,0:0:0:0:
209,286,63653,2,0,L|157:301,1,53.9999983520508
137,212,63902,1,0,0:0:0:0:
137,212,64027,2,0,L|85:227,1,53.9999983520508
20,154,64277,6,0,P|51:68|127:28,1,161.999995056153
174,53,64776,2,0,L|261:67,1,60
282,123,65025,1,0,0:0:0:0:
235,185,65150,1,0,0:0:0:0:
158,167,65275,1,0,0:0:0:0:
151,89,65399,1,0,0:0:0:0:
224,45,65524,2,0,L|292:40,1,60
380,133,65774,6,0,L|301:138,1,69.6000021240235
223,113,66023,1,0,0:0:0:0:
344,240,66148,2,0,L|265:245,1,69.6000021240235
191,207,66397,1,0,0:0:0:0:
151,314,66522,2,0,L|59:292,1,79.1999997583008
8,236,66772,1,0,0:0:0:0:
11,148,66897,1,0,0:0:0:0:
79,95,67021,1,0,0:0:0:0:
170,133,67146,5,0,0:0:0:0:
91,194,67271,1,0,0:0:0:0:
379,157,67521,1,0,0:0:0:0:
206,265,67645,1,0,0:0:0:0:
445,69,67895,1,0,0:0:0:0:
382,199,68020,1,0,0:0:0:0:
356,91,68144,1,0,0:0:0:0:
464,206,68269,1,0,0:0:0:0:
310,229,68394,1,0,0:0:0:0:
239,83,68519,2,0,P|291:68|349:83,1,90.0000034332277
386,153,68768,5,0,0:0:0:0:
248,258,68893,1,0,0:0:0:0:
280,101,69018,1,0,0:0:0:0:
333,232,69142,1,0,0:0:0:0:
159,218,69267,1,0,0:0:0:0:
252,46,69392,1,0,0:0:0:0:
248,258,69517,1,0,0:0:0:0:
163,96,69642,1,0,0:0:0:0:
248,258,69766,1,0,0:0:0:0:
163,96,69891,1,0,0:0:0:0:
242,355,70141,5,0,0:0:0:0:
184,260,70265,1,0,0:0:0:0:
388,160,70515,1,0,0:0:0:0:
268,280,70640,1,0,0:0:0:0:
226,60,70889,1,0,0:0:0:0:
226,60,71014,2,0,L|307:136,1,90.0000034332277
283,320,71263,2,0,L|202:244,1,90.0000034332277
151,124,71513,1,0,0:0:0:0:
340,190,71638,1,0,0:0:0:0:
230,320,71763,5,0,0:0:0:0:
282,115,71887,1,0,0:0:0:0:
334,250,72012,1,0,0:0:0:0:
181,198,72137,1,0,0:0:0:0:
312,61,72262,1,0,0:0:0:0:
248,247,72386,1,0,0:0:0:0:
169,111,72511,1,0,0:0:0:0:
397,197,72636,1,0,0:0:0:0:
169,111,72761,1,0,0:0:0:0:
397,197,72885,1,0,0:0:0:0:
452,51,73135,5,0,0:0:0:0:
397,197,73260,1,0,0:0:0:0:
193,296,73509,1,0,0:0:0:0:
269,115,73634,1,0,0:0:0:0:
345,338,73884,1,0,0:0:0:0:
246,172,74008,1,0,0:0:0:0:
419,199,74133,2,0,L|341:276,1,90.0000034332277
156,268,74383,1,0,0:0:0:0:
237,69,74507,1,0,0:0:0:0:
270,320,74632,1,0,0:0:0:0:
139,173,74757,5,0,0:0:0:0:
362,89,74882,1,0,0:0:0:0:
267,275,75006,1,0,0:0:0:0:
273,45,75131,1,0,0:0:0:0:
424,211,75256,1,0,0:0:0:0:
201,313,75381,1,0,0:0:0:0:
340,122,75506,1,0,0:0:0:0:
343,348,75630,1,0,0:0:0:0:
340,122,75755,1,0,0:0:0:0:
343,348,75880,1,0,0:0:0:0:
56,208,76129,5,0,0:0:0:0:
115,74,76254,1,0,0:0:0:0:
282,324,76504,1,0,0:0:0:0:
371,99,76628,2,0,B|320:83|320:83|261:89,1,90.0000034332277
152,166,76878,1,0,0:0:0:0:
287,279,77003,1,0,0:0:0:0:
227,47,77128,1,0,0:0:0:0:
212,230,77252,1,0,0:0:0:0:
373,157,77377,1,0,0:0:0:0:
142,95,77502,1,0,0:0:0:0:
212,310,77627,1,0,0:0:0:0:
280,198,77751,5,0,0:0:0:0:
175,48,77876,1,0,0:0:0:0:
138,264,78001,1,0,0:0:0:0:
62,126,78126,1,0,0:0:0:0:
217,140,78250,1,0,0:0:0:0:
113,298,78375,1,0,0:0:0:0:
140,118,78500,1,0,0:0:0:0:
262,250,78625,1,0,0:0:0:0:
140,118,78749,1,0,0:0:0:0:
262,250,78874,2,0,L|314:329,2,90.0000034332277
152,79,79249,5,0,0:0:0:0:
232,327,79498,1,0,0:0:0:0:
382,91,79748,1,0,0:0:0:0:
487,199,79872,1,0,0:0:0:0:
345,239,79997,2,0,P|260:243|166:201,2,180.000006866455
194,24,80746,2,0,L|146:100,1,90.0000034332277
244,292,80995,2,0,L|292:212,1,90.0000034332277
396,130,81245,2,0,P|440:143|474:171,1,90.0000034332277
510,254,81494,2,0,L|332:303,1,180.000006866455
100,89,81993,6,0,P|136:58|182:49,1,90.0000034332277
302,92,82243,2,0,L|197:105,1,90.0000034332277
95,211,82492,2,0,P|77:160|79:108,1,90.0000034332277
121,36,82742,1,0,0:0:0:0:
177,149,82867,1,0,0:0:0:0:
95,270,82992,1,0,0:0:0:0:
177,149,83116,1,0,0:0:0:0:
244,274,83241,1,0,0:0:0:0:
492,128,83491,1,0,0:0:0:0:
317,56,83740,6,0,P|273:64|235:91,1,90.0000034332277
218,211,83990,1,0,0:0:0:0:
321,280,84114,1,0,0:0:0:0:
397,177,84239,1,0,0:0:0:0:
293,105,84364,1,0,0:0:0:0:
122,109,84489,2,0,P|89:184|128:281,1,180.000006866455
237,316,84863,1,0,0:0:0:0:
201,194,84988,2,0,L|166:281,1,90.0000034332277
272,348,85237,6,0,P|332:340|368:328,1,90.0000034332277
376,164,85487,1,0,0:0:0:0:
316,308,85612,1,0,0:0:0:0:
448,360,85736,1,0,0:0:0:0:
512,218,85861,1,0,0:0:0:0:
352,96,85986,1,0,0:0:0:0:
352,96,86111,1,0,0:0:0:0:
389,257,86235,1,0,0:0:0:0:
389,257,86360,1,0,0:0:0:0:
260,353,86485,2,0,P|216:337|176:301,1,90.0000034332277
168,88,86734,6,0,L|200:180,1,90.0000034332277
312,116,86984,2,0,L|348:208,1,90.0000034332277
244,320,87234,1,0,0:0:0:0:
107,228,87358,1,0,0:0:0:0:
244,320,87483,2,0,P|324:316|388:224,1,180.000006866455
424,148,87857,1,0,0:0:0:0:
328,116,87982,2,0,L|288:196,1,90.0000034332277
176,280,88232,6,0,P|96:216|76:140,1,180.000006866455
296,40,88606,1,0,0:0:0:0:
240,256,88731,1,0,0:0:0:0:
104,108,88856,1,0,0:0:0:0:
212,288,88980,2,0,B|304:352|304:352|408:336,1,180.000006866455
416,172,89355,2,0,L|504:128,2,90.0000034332277
312,296,89729,6,0,P|204:268|164:208,1,180.000006866455
216,36,90103,1,0,0:0:0:0:
260,224,90228,2,0,L|156:316,1,90.0000034332277
92,88,90477,2,0,L|188:112,1,90.0000034332277
260,224,90727,2,0,L|372:248,1,90.0000034332277
472,204,90977,1,0,0:0:0:0:
392,120,91101,1,0,0:0:0:0:
304,200,91226,6,0,P|252:208|200:196,1,90.0000034332277
272,60,91476,2,0,L|256:160,1,90.0000034332277
88,256,91725,2,0,P|64:204|68:144,1,90.0000034332277
180,52,91975,1,0,0:0:0:0:
144,260,92099,1,0,0:0:0:0:
80,104,92224,1,0,0:0:0:0:
236,208,92349,1,0,0:0:0:0:
64,208,92474,2,0,P|96:176|140:160,1,90.0000034332277
328,268,92723,6,0,L|436:300,1,90.0000034332277
348,112,92973,2,0,L|244:84,1,90.0000034332277
84,153,93222,1,0,0:0:0:0:
152,309,93347,1,0,0:0:0:0:
316,344,93472,2,0,P|380:268|344:188,1,180.000006866455
180,100,93846,1,0,0:0:0:0:
264,264,93971,1,0,0:0:0:0:
284,128,94096,1,0,0:0:0:0:
164,252,94220,6,0,L|268:316,1,90.0000034332277
380,288,94470,2,0,L|288:228,1,90.0000034332277
52,204,94720,2,0,P|88:272|112:292,1,90.0000034332277
276,308,94969,2,0,L|332:124,1,180.000006866455
96,68,95468,1,0,0:0:0:0:
176,328,95718,5,0,0:0:0:0:
333,306,95842,1,0,0:0:0:0:
194,210,95967,1,0,0:0:0:0:
280,164,96092,1,0,0:0:0:0:
104,220,96217,2,0,P|112:272|144:312,1,90.0000034332277
376,344,96466,2,0,P|340:272|244:212,1,180.000006866455
136,284,96841,1,0,0:0:0:0:
80,136,96965,1,0,0:0:0:0:
232,96,97090,1,0,0:0:0:0:
172,304,97215,6,0,L|224:204,1,90.0000034332277
424,176,97464,2,0,L|376:272,1,90.0000034332277
296,356,97714,2,0,L|296:248,1,90.0000034332277
296,32,97963,1,0,0:0:0:0:
296,356,98213,1,0,0:0:0:0:
296,112,98462,1,0,0:0:0:0:
296,266,98712,5,0,0:0:0:0:
178,332,98837,1,0,0:0:0:0:
58,264,98962,1,0,0:0:0:0:
58,120,99086,1,0,0:0:0:0:
178,52,99211,1,0,0:0:0:0:
296,118,99336,1,0,0:0:0:0:
156,250,99461,2,0,P|104:154|108:78,1,180.000006866455
229,19,99835,1,0,0:0:0:0:
299,138,99960,2,0,L|270:236,1,90.0000034332277
360,344,100209,6,0,L|416:288,1,75
408,176,100459,1,0,0:0:0:0:
288,252,100584,2,0,P|336:280|388:284,1,75
400,108,100833,1,0,0:0:0:0:
228,192,100958,2,0,L|336:232,1,75
456,84,101207,2,0,L|348:44,1,75
216,148,101457,1,0,0:0:0:0:
376,272,101582,1,0,0:0:0:0:
296,72,101706,6,0,L|236:164,1,77.9999964294435
288,280,101956,1,0,0:0:0:0:
424,232,102081,2,0,P|408:188|392:156,1,77.9999964294435
240,88,102330,1,0,0:0:0:0:
76,216,102455,2,0,L|152:284,1,77.9999964294435
328,276,102705,2,0,L|256:208,1,77.9999964294435
88,152,102954,1,0,0:0:0:0:
260,284,103079,1,0,0:0:0:0:
224,84,103204,6,0,P|168:84|124:100,1,83.9999974365235
148,336,103453,1,0,0:0:0:0:
266,255,103578,1,0,0:0:0:0:
186,135,103703,1,0,0:0:0:0:
69,216,103827,1,0,0:0:0:0:
196,352,103952,6,0,P|252:352|296:336,1,83.9999974365235
444,184,104202,2,0,L|356:232,1,83.9999974365235
160,244,104451,2,0,L|248:188,1,83.9999974365235
448,136,104701,2,0,P|436:184|404:232,1,90.0000034332277
164,180,104950,1,0,0:0:0:0:
376,32,105075,2,0,L|356:140,1,90.0000034332277
188,320,105325,1,0,0:0:0:0:
236,64,105449,2,0,L|248:172,1,90.0000034332277
136,368,105699,2,0,L|124:260,1,90.0000034332277
172,36,105948,5,0,0:0:0:0:
188,320,106073,1,0,0:0:0:0:
172,36,106198,2,0,L|384:68,1,192
448,36,106572,2,0,P|344:64|304:148,1,192
188,324,106947,2,0,L|388:348,1,192
288,104,107321,2,0,L|76:84,1,192
72,324,107695,2,0,P|192:324|228:244,1,192
100,100,108069,2,0,L|132:220,1,96
280,312,108319,2,0,L|248:192,1,96
384,48,108569,6,0,L|296:120,1,96
332,332,108818,2,0,L|428:260,2,96
188,348,109192,1,0,0:0:0:0:
248,104,109317,1,0,0:0:0:0:
203,301,109442,1,0,0:0:0:0:
64,184,109567,2,0,L|140:120,1,96
404,120,109816,2,0,P|364:136|288:152,1,96
132,56,110066,2,0,P|184:80|216:124,1,96
228,336,110315,1,0,0:0:0:0:
140,108,110440,1,0,0:0:0:0:
376,216,110565,1,0,0:0:0:0:
220,268,110690,5,0,0:0:0:0:
332,84,110814,1,0,0:0:0:0:
296,336,110939,1,0,0:0:0:0:
244,104,111064,1,0,0:0:0:0:
384,332,111189,1,0,0:0:0:0:
152,108,111313,1,0,0:0:0:0:
420,72,111438,1,0,0:0:0:0:
180,344,111563,1,0,0:0:0:0:
288,48,111688,1,0,0:0:0:0:
258,373,111812,1,0,0:0:0:0:
288,48,111937,1,0,0:0:0:0:
258,373,112062,1,0,0:0:0:0:
256,192,112187,12,4,112935,0:0:0:0:
138,54,113559,5,0,0:0:0:0:
168,329,113684,2,0,P|267:373|372:368,1,210.000002002716
411,93,114058,2,0,L|264:288,1,210.000002002716
88,283,114433,1,0,0:0:0:0:
234,98,114557,1,0,0:0:0:0:
185,349,114682,1,0,0:0:0:0:
139,68,114807,1,0,0:0:0:0:
296,309,114932,1,0,0:0:0:0:
48,188,115056,1,0,0:0:0:0:
327,64,115181,6,0,L|290:195,1,105.000001001358
43,342,115431,2,0,L|86:222,1,105.000001001358
254,104,115680,1,0,0:0:0:0:
115,319,115805,1,0,0:0:0:0:
172,45,115930,1,0,0:0:0:0:
231,364,116055,1,0,0:0:0:0:
172,45,116179,1,0,0:0:0:0:
352,309,116304,2,0,P|259:343|128:325,1,210.000002002716
47,147,116678,6,0,P|149:158|162:263,1,210.000002002716
0,302,117053,2,0,L|158:152,1,210.000002002716
426,177,117427,1,0,0:0:0:0:
206,318,117552,1,0,0:0:0:0:
289,46,117676,1,0,0:0:0:0:
320,303,117801,1,0,0:0:0:0:
211,167,117926,1,0,0:0:0:0:
403,221,118051,1,0,0:0:0:0:
257,371,118176,6,0,L|210:255,1,105.000001001358
243,28,118425,2,0,L|289:137,1,105.000001001358
277,350,118675,1,0,0:0:0:0:
467,222,118799,1,0,0:0:0:0:
145,164,118924,1,0,0:0:0:0:
398,324,119049,1,0,0:0:0:0:
145,164,119174,1,0,0:0:0:0:
398,324,119298,1,0,0:0:0:0:
356,89,119548,5,0,0:0:0:0:
225,299,119673,2,0,P|140:328|72:237,1,210.000002002716
24,59,120047,2,0,P|155:116|168:185,1,210.000002002716
53,325,120421,1,0,0:0:0:0:
101,92,120546,1,0,0:0:0:0:
196,353,120671,1,0,0:0:0:0:
7,184,120796,2,0,L|93:112,1,105.000001001358
300,92,121045,1,0,0:0:0:0:
182,343,121170,6,0,P|155:271|161:221,1,105.000001001358
291,43,121419,1,0,0:0:0:0:
232,316,121544,1,0,0:0:0:0:
210,127,121669,1,0,0:0:0:0:
356,264,121794,1,0,0:0:0:0:
91,295,121919,1,0,0:0:0:0:
344,150,122043,1,0,0:0:0:0:
91,295,122168,1,0,0:0:0:0:
344,150,122293,1,0,0:0:0:0:
372,346,122542,5,0,0:0:0:0:
247,61,122667,2,0,P|142:129|129:212,1,210.000002002716
207,348,123041,1,0,0:0:0:0:
227,141,123166,1,0,0:0:0:0:
75,291,123291,1,0,0:0:0:0:
373,312,123416,1,0,0:0:0:0:
234,67,123540,2,0,L|222:190,1,105.000001001358
309,356,123790,1,0,0:0:0:0:
403,165,123915,1,0,0:0:0:0:
226,281,124040,1,0,0:0:0:0:
386,318,124164,5,0,0:0:0:0:
261,125,124289,1,0,0:0:0:0:
296,313,124414,1,0,0:0:0:0:
364,63,124539,1,0,0:0:0:0:
151,161,124663,1,0,0:0:0:0:
429,311,124788,1,0,0:0:0:0:
191,68,124913,1,0,0:0:0:0:
283,356,125038,1,0,0:0:0:0:
191,68,125162,1,0,0:0:0:0:
283,356,125287,1,0,0:0:0:0:
14,230,125537,5,0,0:0:0:0:
159,27,125661,2,0,P|275:64|333:138,1,210.000002002716
37,284,126036,2,0,L|219:126,1,210.000002002716
394,105,126410,1,0,0:0:0:0:
235,316,126535,1,0,0:0:0:0:
284,58,126660,2,0,L|294:180,1,105.000001001358
156,354,126909,2,0,P|125:317|95:243,1,105.000001001358
145,64,127159,5,0,0:0:0:0:
168,281,127283,1,0,0:0:0:0:
35,178,127408,1,0,0:0:0:0:
274,78,127533,1,0,0:0:0:0:
80,304,127658,1,0,0:0:0:0:
173,63,127783,1,0,0:0:0:0:
206,328,127907,1,0,0:0:0:0:
83,54,128032,1,0,0:0:0:0:
206,328,128157,1,0,0:0:0:0:
83,54,128282,2,0,P|186:40|287:109,1,210.000002002716
319,351,128656,6,0,P|406:250|422:158,1,210.000002002716
275,29,129030,2,0,L|381:229,1,210.000002002716
245,362,129404,1,0,0:0:0:0:
223,157,129529,1,0,0:0:0:0:
441,345,129654,2,0,P|383:353|316:342,1,105.000001001358
152,172,129904,2,0,P|210:164|277:175,1,105.000001001358
388,339,130153,5,0,0:0:0:0:
408,88,130278,1,0,0:0:0:0:
282,288,130403,1,0,0:0:0:0:
477,199,130527,1,0,0:0:0:0:
172,84,130652,1,0,0:0:0:0:
364,198,130777,1,0,0:0:0:0:
251,18,130902,1,0,0:0:0:0:
210,336,131026,1,0,0:0:0:0:
251,18,131151,1,0,0:0:0:0:
210,336,131276,1,0,0:0:0:0:
57,88,131526,5,0,0:0:0:0:
107,325,131650,2,0,L|337:373,1,210.000002002716
480,250,132025,2,0,P|461:138|384:52,1,210.000002002716
173,160,132399,1,0,0:0:0:0:
396,209,132524,1,0,0:0:0:0:
304,23,132648,1,0,0:0:0:0:
276,315,132773,1,0,0:0:0:0:
469,199,132898,2,0,L|341:126,1,105.000001001358
125,84,133147,5,0,0:0:0:0:
153,334,133272,1,0,0:0:0:0:
405,324,133397,1,0,0:0:0:0:
416,71,133522,1,0,0:0:0:0:
252,174,133647,1,0,0:0:0:0:
419,265,133771,1,0,0:0:0:0:
316,45,133896,1,0,0:0:0:0:
340,318,134021,1,0,0:0:0:0:
316,45,134146,1,0,0:0:0:0:
340,318,134270,2,0,L|133:376,1,210.000002002716
26,248,134645,6,0,P|54:115|109:62,1,210.000002002716
288,75,135019,1,0,0:0:0:0:
133,202,135144,1,0,0:0:0:0:
241,31,135268,1,0,0:0:0:0:
214,322,135393,1,0,0:0:0:0:
165,112,135518,1,0,0:0:0:0:
367,192,135643,2,0,L|261:260,1,105.000001001358
99,111,135892,2,0,L|205:43,1,105.000001001358
356,95,136142,5,0,0:0:0:0:
198,333,136267,1,0,0:0:0:0:
224,96,136391,1,0,0:0:0:0:
334,293,136516,1,0,0:0:0:0:
91,237,136641,1,0,0:0:0:0:
290,61,136766,1,0,0:0:0:0:
198,333,136890,1,0,0:0:0:0:
148,44,137015,1,0,0:0:0:0:
199,337,137140,1,0,0:0:0:0:
148,44,137265,1,0,0:0:0:0:
425,310,137514,5,0,0:0:0:0:
305,301,137639,1,0,0:0:0:0:
320,66,137889,1,0,0:0:0:0:
366,217,138013,1,0,0:0:0:0:
128,255,138263,1,0,0:0:0:0:
217,98,138388,2,0,L|342:121,1,90.0000034332277
382,277,138637,1,0,0:0:0:0:
252,205,138762,1,0,0:0:0:0:
427,105,138887,1,0,0:0:0:0:
298,290,139011,1,0,0:0:0:0:
333,94,139136,6,0,P|383:124|419:159,1,90.0000034332277
320,343,139386,2,0,P|270:313|234:278,1,90.0000034332277
228,112,139635,1,0,0:0:0:0:
310,272,139760,1,0,0:0:0:0:
121,221,139885,1,0,0:0:0:0:
317,163,140010,1,0,0:0:0:0:
121,221,140134,1,0,0:0:0:0:
317,163,140259,1,0,0:0:0:0:
230,364,140509,5,0,0:0:0:0:
207,240,140633,1,0,0:0:0:0:
438,339,140883,1,0,0:0:0:0:
452,159,141008,1,0,0:0:0:0:
187,70,141257,1,0,0:0:0:0:
319,257,141382,2,0,P|379:245|421:215,1,90.0000034332277
262,45,141632,2,0,L|321:134,1,90.0000034332277
507,241,141881,2,0,L|450:158,1,90.0000034332277
320,69,142131,5,0,0:0:0:0:
356,229,142255,1,0,0:0:0:0:
451,118,142380,1,0,0:0:0:0:
243,171,142505,1,0,0:0:0:0:
385,330,142630,1,0,0:0:0:0:
369,174,142754,1,0,0:0:0:0:
237,338,142879,1,0,0:0:0:0:
407,238,143004,1,0,0:0:0:0:
237,338,143129,1,0,0:0:0:0:
407,238,143254,1,0,0:0:0:0:
82,58,143503,5,0,0:0:0:0:
108,250,143628,1,0,0:0:0:0:
302,104,143877,1,0,0:0:0:0:
130,145,144001,1,0,0:0:0:0:
251,347,144252,1,0,0:0:0:0:
108,189,144376,2,0,P|125:245|162:285,1,90.0000034332277
362,279,144626,1,0,0:0:0:0:
223,112,144751,2,0,L|198:216,1,90.0000034332277
268,361,145000,1,0,0:0:0:0:
327,136,145125,5,0,0:0:0:0:
211,278,145250,1,0,0:0:0:0:
399,331,145375,1,0,0:0:0:0:
299,182,145499,1,0,0:0:0:0:
340,358,145624,1,0,0:0:0:0:
417,120,145749,1,0,0:0:0:0:
286,263,145874,1,0,0:0:0:0:
486,238,145998,1,0,0:0:0:0:
286,263,146123,1,0,0:0:0:0:
489,241,146248,1,0,0:0:0:0:
174,103,146497,5,0,0:0:0:0:
338,85,146622,2,0,P|328:167|211:158,1,180.000006866455
152,82,146996,1,0,0:0:0:0:
281,129,147121,1,0,0:0:0:0:
162,231,147246,1,0,0:0:0:0:
227,60,147371,1,0,0:0:0:0:
217,304,147496,1,0,0:0:0:0:
86,173,147620,2,0,L|179:131,1,90.0000034332277
375,194,147870,2,0,L|282:236,1,90.0000034332277
160,248,148119,5,0,0:0:0:0:
250,79,148244,1,0,0:0:0:0:
244,317,148369,1,0,0:0:0:0:
174,146,148494,1,0,0:0:0:0:
365,235,148618,1,0,0:0:0:0:
211,342,148743,1,0,0:0:0:0:
365,235,148868,1,0,0:0:0:0:
206,62,148993,1,0,0:0:0:0:
280,321,149118,1,0,0:0:0:0:
319,109,149242,5,0,0:0:0:0:
