osu file format v14

[General]
AudioFilename: audio.mp3
AudioLeadIn: 0
PreviewTime: 184796
Countdown: 0
SampleSet: Soft
StackLeniency: 0.7
Mode: 0
LetterboxInBreaks: 0
WidescreenStoryboard: 0

[Editor]
Bookmarks: 29846,33538,40911,44603,57526,59372,85219,87065,88923,110142,118449,153526,181223,199684,214453,228761,249530,251376,286453,303069,315069,319684,321530
DistanceSpacing: 1.6
BeatDivisor: 4
GridSize: 4
TimelineZoom: 1.9

[Metadata]
Title:Star Sky
TitleUnicode:Star Sky
Artist:Two Steps From Hell
ArtistUnicode:Two Steps From Hell
Creator:Wishkey
Version:Unstoppable
Source:
Tags:battlecry orchestral thomas bergersen Felicia Farerre 2 tsfh
BeatmapID:1270965
BeatmapSetID:601657

[Difficulty]
HPDrainRate:5
CircleSize:4
OverallDifficulty:7
ApproachRate:8
SliderMultiplier:1.5
SliderTickRate:1

[Events]
//Background and Video events
0,0,"YLIPbg.jpg",0,0
//Break Periods
2,120499,125088
//Storyboard Layer 0 (Background)
//Storyboard Layer 1 (Fail)
//Storyboard Layer 2 (Pass)
//Storyboard Layer 3 (Foreground)
//Storyboard Sound Samples

[TimingPoints]
300,461.538461538462,4,2,2,20,1,0
300,-142.857142857143,4,2,2,20,0,0
761,-142.857142857143,4,2,3,20,0,0
1223,-142.857142857143,4,2,3,20,0,0
1684,-142.857142857143,4,2,3,20,0,0
1915,-142.857142857143,4,2,4,20,0,0
2146,-142.857142857143,4,2,3,20,0,0
3069,-142.857142857143,4,2,5,20,0,0
3300,-142.857142857143,4,2,4,20,0,0
3530,-142.857142857143,4,2,3,20,0,0
3761,-142.857142857143,4,2,6,20,0,0
3992,-142.857142857143,4,2,2,20,0,0
4453,-142.857142857143,4,2,3,20,0,0
4915,-142.857142857143,4,2,3,20,0,0
5376,-142.857142857143,4,2,3,20,0,0
5607,-142.857142857143,4,2,4,20,0,0
5838,-142.857142857143,4,2,5,20,0,0
6761,-142.857142857143,4,2,5,20,0,0
6992,-142.857142857143,4,2,4,20,0,0
7223,-142.857142857143,4,2,3,20,0,0
7453,-142.857142857143,4,2,6,20,0,0
7684,-142.857142857143,4,2,4,20,0,0
8146,-142.857142857143,4,2,4,20,0,0
8607,-142.857142857143,4,2,4,20,0,0
9069,-142.857142857143,4,2,4,20,0,0
9300,-142.857142857143,4,2,5,20,0,0
9530,-142.857142857143,4,2,4,20,0,0
10453,-142.857142857143,4,2,7,20,0,0
10684,-142.857142857143,4,2,5,20,0,0
10915,-142.857142857143,4,2,4,20,0,0
11146,-142.857142857143,4,2,6,20,0,0
11376,-142.857142857143,4,2,3,20,0,0
11607,-142.857142857143,4,2,4,20,0,0
11838,-142.857142857143,4,2,3,20,0,0
12300,-142.857142857143,4,2,8,20,0,0
12761,-142.857142857143,4,2,3,20,0,0
13223,-142.857142857143,4,2,4,20,0,0
13453,-142.857142857143,4,2,5,20,0,0
13684,-142.857142857143,4,2,4,20,0,0
14146,-142.857142857143,4,2,9,20,0,0
14607,-142.857142857143,4,2,6,20,0,0
15069,-90.9090909090909,4,2,1,60,0,0
29838,-142.857142857143,4,2,1,40,0,0
59376,-100,4,2,1,60,0,0
61453,-100,4,2,1,40,0,0
62146,-100,4,2,1,60,0,0
65146,-100,4,2,1,40,0,0
65838,-100,4,2,1,60,0,0
69069,-100,4,2,1,40,0,0
69530,-100,4,2,1,60,0,0
71146,-100,4,2,1,40,0,0
71838,-100,4,2,1,60,0,0
72761,-100,4,2,1,40,0,0
73223,-100,4,2,1,60,0,0
85223,-142.857142857143,4,2,1,50,0,0
86146,-117.647058823529,4,2,1,60,0,0
87069,-100,4,2,1,70,0,0
88915,-83.3333333333333,4,2,1,70,0,1
103453,-83.3333333333333,4,2,1,70,0,0
103684,-83.3333333333333,4,2,1,70,0,1
118453,-117.647058823529,4,2,1,45,0,0
125838,-117.647058823529,4,2,1,60,0,0
155376,-100,4,2,1,60,0,0
157453,-100,4,2,1,40,0,0
158146,-100,4,2,1,60,0,0
159992,-100,4,2,1,40,0,0
160453,-100,4,2,1,60,0,0
161146,-100,4,2,1,40,0,0
161838,-100,4,2,1,60,0,0
164838,-100,4,2,1,40,0,0
165530,-100,4,2,1,60,0,0
168761,-100,4,2,1,40,0,0
169223,-100,4,2,1,60,0,0
181223,-142.857142857143,4,2,1,50,0,0
182146,-117.647058823529,4,2,1,60,0,0
183069,-100,4,2,1,70,0,0
183992,-86.9565217391304,4,2,1,80,0,0
184915,-83.3333333333333,4,2,1,80,0,1
199453,-83.3333333333333,4,2,1,80,0,0
199684,-83.3333333333333,4,2,1,80,0,1
214453,-117.647058823529,4,2,1,40,0,0
229223,-100,4,2,1,45,0,0
243992,-100,4,2,1,50,0,0
251376,-83.3333333333333,4,2,1,80,0,1
265915,-83.3333333333333,4,2,1,80,0,0
266146,-83.3333333333333,4,2,1,80,0,1
280915,-100,4,2,1,40,0,0
282761,-200,4,2,1,30,0,0
283684,-153.846153846154,4,2,1,40,0,0
284607,-125,4,2,1,50,0,0
286453,-100,4,2,1,70,0,0
288300,-76.9230769230769,4,2,1,80,0,1
302838,-76.9230769230769,4,2,1,80,0,0
303069,-76.9230769230769,4,2,1,80,0,1
317838,-117.647058823529,4,2,1,50,0,0
318415,-117.647058823529,4,2,1,25,0,0
319684,-117.647058823529,4,2,1,20,0,0
321530,-117.647058823529,4,2,1,15,0,0
323376,-117.647058823529,4,2,1,10,0,0
324761,-117.647058823529,4,2,1,5,0,0

[Colours]
Combo1 : 255,0,0
Combo2 : 255,255,0
Combo3 : 255,128,0
Combo4 : 255,128,128

[HitObjects]
172,106,300,5,2,0:0:0:0:
85,46,761,1,2,0:0:0:0:
76,148,1223,1,2,0:0:0:0:
172,106,1684,1,2,0:0:0:0:
152,88,1915,1,2,0:0:0:0:
144,120,2146,1,2,0:0:0:0:
100,244,3069,6,0,B|112:272|150:288,1,52.4999983978272,2|2,0:0|0:0,0:0:0:0:
211,280,3530,2,0,B|236:268|247:243,1,52.4999983978272,2|2,0:0|0:0,0:0:0:0:
172,212,3992,5,2,0:0:0:0:
172,106,4453,1,2,0:0:0:0:
265,153,4915,1,2,0:0:0:0:
172,212,5376,1,2,0:0:0:0:
169,184,5607,1,2,0:0:0:0:
199,193,5838,1,2,0:0:0:0:
331,285,6761,6,0,B|345:266|348:236,1,52.4999983978272,2|2,0:0|0:0,0:0:0:0:
269,240,7223,2,0,B|254:257|251:287,1,52.4999983978272,2|2,0:0|0:0,0:0:0:0:
294,353,7684,5,2,0:0:0:0:
395,326,8146,1,2,0:0:0:0:
493,289,8607,1,2,0:0:0:0:
419,213,9069,1,2,0:0:0:0:
409,239,9300,1,2,0:0:0:0:
441,235,9530,1,2,0:0:0:0:
279,335,10453,6,0,B|247:334|231:315,1,52.4999983978272,2|2,0:0|0:0,0:0:0:0:
178,261,10915,2,0,B|194:243|226:242,1,52.4999983978272,2|2,0:0|0:0,0:0:0:0:
160,332,11376,5,2,0:0:0:0:
131,349,11607,1,2,0:0:0:0:
130,318,11838,1,2,0:0:0:0:
225,242,12300,1,2,0:0:0:0:
108,192,12761,1,2,0:0:0:0:
204,108,13223,5,2,0:0:0:0:
208,76,13453,1,2,0:0:0:0:
176,88,13685,1,2,0:0:0:0:
108,192,14146,1,2,0:0:0:0:
224,241,14608,1,2,0:0:0:0:
311,111,15069,6,0,B|254:139|258:204|258:204|221:243,1,165.000005035401,4|0,0:0|0:0,0:0:0:0:
303,313,15761,1,0,0:0:0:0:
417,219,15992,2,0,P|384:194|343:189,1,82.5000025177003,8|0,0:0|0:0,0:0:0:0:
223,240,16453,1,0,0:0:0:0:
172,363,16684,1,0,0:0:0:0:
43,269,16915,6,0,P|33:192|55:109,1,165.000005035401,4|0,0:0|0:0,0:0:0:0:
157,70,17607,1,0,0:0:0:0:
273,178,17838,2,0,B|252:270,1,82.5000025177003,8|0,0:0|0:0,0:0:0:0:
140,150,18300,2,0,B|160:57,1,82.5000025177003
180,308,18761,6,0,P|237:346|339:297,1,165.000005035401,4|0,0:0|0:0,0:0:0:0:
372,220,19453,1,0,0:0:0:0:
259,176,19684,2,0,L|254:269,1,82.5000025177003,8|0,0:0|0:0,0:0:0:0:
372,220,20146,1,0,0:0:0:0:
320,100,20376,1,0,0:0:0:0:
180,192,20607,6,0,L|-4:168,1,165.000005035401,4|0,0:0|0:0,0:0:0:0:
104,104,21300,1,0,0:0:0:0:
160,263,21530,2,0,P|163:311|181:353,1,82.5000025177003,8|0,0:0|0:0,0:0:0:0:
345,342,21992,2,0,P|358:303|360:262,1,82.5000025177003,0|0,0:0|0:0,0:0:0:0:
395,108,22453,6,0,P|342:63|252:79,1,165.000005035401,4|0,0:0|0:0,0:0:0:0:
225,182,23146,1,0,0:0:0:0:
102,283,23376,2,0,L|20:273,1,82.5000025177003,8|0,0:0|0:0,0:0:0:0:
114,179,23838,1,0,0:0:0:0:
181,292,24069,1,0,0:0:0:0:
331,204,24300,6,0,P|318:122|246:77,1,165.000005035401,4|0,0:0|0:0,0:0:0:0:
225,182,24992,1,0,0:0:0:0:
328,308,25223,2,0,L|430:296,1,82.5000025177003,8|0,0:0|0:0,0:0:0:0:
184,292,25684,2,0,L|102:282,1,82.5000025177003
296,212,26146,5,4,0:0:0:0:
256,99,26376,1,0,0:0:0:0:
216,215,26607,2,0,B|256:223|256:223|296:213,1,82.5000025177003
336,87,27069,2,0,L|339:0,1,82.5000025177003,8|0,0:0|0:0,0:0:0:0:
176,87,27530,2,0,L|173:0,1,82.5000025177003
0,103,27992,5,4,0:0:0:0:
100,139,28222,1,0,0:0:0:0:
53,43,28453,2,0,B|16:71|16:71|-5:115,1,82.5000025177003
100,245,28915,1,8,0:0:0:0:
197,259,29146,1,0,0:0:0:0:
197,125,29377,1,0,0:0:0:0:
100,139,29607,1,0,0:0:0:0:
268,192,29838,6,0,B|324:201|356:177|356:177|395:106,1,157.499995193482,4|0,0:0|0:0,0:0:0:0:
441,67,30761,2,0,B|425:47|393:39|364:47|364:47|328:58|283:41,1,157.499995193482
228,4,31684,2,0,B|200:36|212:92|254:114|254:114|192:108|136:124|136:124|192:72,1,314.999990386963
344,68,33530,6,0,P|395:132|344:135,1,157.499995193482,8|0,0:1|0:0,0:0:0:0:
292,130,34453,2,0,B|263:90|263:90|276:16,1,104.999996795654
201,17,35146,1,0,0:0:0:0:
201,17,35376,2,0,B|187:87|187:87|153:114|153:114|226:112|225:169|203:206|157:207|114:175|140:128,1,314.999990386963,8|0,0:1|0:0,0:0:0:0:
194,260,37223,6,0,B|261:243|282:190|281:138,1,157.499995193482,8|0,0:1|0:0,0:0:0:0:
301,73,38146,2,0,P|235:84|211:127,1,104.999996795654
183,183,38838,1,0,0:0:0:0:
183,183,39069,2,0,B|169:235|186:272|227:294|274:277|274:277|312:292|312:292|296:321|308:352,1,262.499991989136,8|0,0:1|0:0,0:0:0:0:
376,326,40453,1,0,0:0:0:0:
483,221,40915,6,0,B|487:268|439:283|439:283|449:241|431:197|388:179|388:179|437:151|449:115|439:74|439:74|487:88|483:136,1,419.999987182618,8|8,0:1|0:1,0:0:0:0:
364,252,43223,2,0,L|293:279,1,52.4999983978272
286,203,43684,2,0,L|216:205,1,52.4999983978272
234,131,44146,2,0,L|160:110,1,52.4999983978272
219,51,44607,6,0,P|119:77|112:135,1,157.499995193482,8|0,0:1|0:0,0:0:0:0:
115,191,45530,2,0,P|133:263|77:314,1,157.499995193482
62,241,46453,2,0,B|104:233|143:257|154:293|154:320|154:320|192:294|192:294|217:347|269:351|305:346,1,314.999990386963,8|0,0:1|0:0,0:0:0:0:
404,257,48300,6,0,B|366:197|366:197|357:99,1,157.499995193482,8|0,0:1|0:0,0:0:0:0:
294,74,49223,2,0,P|324:46|392:46,1,104.999996795654
436,104,49916,1,0,0:0:0:0:
436,104,50146,2,0,B|410:171|430:219|483:190|504:248|496:300|432:328|364:296|380:232|416:200,1,314.999990386963,8|0,0:1|0:0,0:0:0:0:
404,213,51992,6,0,L|223:219,1,157.499995193482,8|0,0:1|0:0,0:0:0:0:
245,144,52915,2,0,B|255:79|255:79|234:62|197:65,1,104.999996795654
150,35,53607,1,0,0:0:0:0:
150,35,53838,2,0,B|106:29|95:55|95:55|119:137|119:137|112:167|75:201|75:201|125:181|177:206,1,314.999990386963,8|0,0:1|0:0,0:0:0:0:
144,352,55684,6,0,P|73:312|158:287,1,209.999993591309,8|0,0:1|0:0,0:0:0:0:
309,230,57069,1,0,2:0:0:0:
309,230,57300,1,0,2:0:0:0:
266,304,57530,2,0,L|256:356,1,52.4999983978272,0|0,2:0|2:0,2:2:0:0:
358,357,57992,2,0,L|349:306,1,52.4999983978272,0|0,2:0|2:0,2:2:0:0:
309,230,58453,2,0,L|299:178,1,52.4999983978272,0|0,2:0|2:0,2:2:0:0:
404,185,58915,2,0,L|394:237,1,52.4999983978272,0|0,2:0|2:0,2:2:0:0:
266,304,59376,6,0,P|186:320|98:288,1,150,8|0,0:1|0:0,0:0:0:0:
60,228,60069,1,0,0:0:0:0:
184,156,60300,2,0,P|190:198|181:230,1,75
60,156,60761,1,0,0:0:0:0:
120,80,60992,1,0,0:0:0:0:
181,228,61223,6,0,P|225:230|284:211,1,75,0|2,0:0|0:1,0:0:0:0:
287,212,61569,1,2,0:1:0:0:
313,232,61684,1,2,0:1:0:0:
314,265,61800,1,2,0:1:0:0:
294,293,61915,1,2,0:1:0:0:
119,271,62146,2,0,P|74:316|132:341,1,150,8|0,0:1|0:0,0:0:0:0:
218,294,62838,1,0,0:0:0:0:
390,272,63069,6,0,P|435:316|376:339,1,150,8|0,0:1|0:0,0:0:0:0:
294,293,63761,1,0,0:0:0:0:
255,192,63992,2,0,L|256:100,1,75
179,193,64453,1,0,0:0:0:0:
256,272,64684,1,0,0:0:0:0:
333,193,64916,6,0,P|377:191|430:219,1,75,0|2,0:0|0:1,0:0:0:0:
421,231,65262,1,2,0:1:0:0:
449,249,65377,1,2,0:1:0:0:
482,249,65493,1,2,0:1:0:0:
512,233,65608,1,2,0:1:0:0:
455,53,65838,2,0,P|393:101|315:90,1,150,8|0,0:1|0:0,0:0:0:0:
255,20,66530,1,0,0:0:0:0:
56,64,66761,6,0,P|117:112|195:101,1,150,8|0,0:1|0:0,0:0:0:0:
255,20,67453,1,0,0:0:0:0:
256,188,67684,2,0,L|256:274,1,75
164,245,68146,1,0,0:0:0:0:
173,341,68376,1,0,0:0:0:0:
344,336,68607,6,0,L|353:261,1,75
318,137,69069,1,2,0:1:0:0:
289,118,69184,1,2,0:1:0:0:
255,110,69300,1,2,0:1:0:0:
222,117,69415,1,2,0:1:0:0:
194,136,69530,2,0,P|123:162|47:115,1,150,10|0,0:1|0:0,0:0:0:0:
127,70,70223,1,0,0:0:0:0:
256,205,70453,6,0,P|327:231|410:189,1,150,8|0,0:1|0:0,0:0:0:0:
432,116,71146,1,2,0:1:0:0:
417,85,71261,1,2,0:1:0:0:
390,63,71376,1,2,0:1:0:0:
357,52,71492,1,2,0:1:0:0:
323,52,71607,1,2,0:1:0:0:
229,80,71838,1,0,0:0:0:0:
165,5,72069,1,0,0:0:0:0:
31,57,72300,6,0,P|23:93|28:130,1,75
96,200,72761,1,2,0:1:0:0:
104,232,72876,1,2,0:1:0:0:
104,264,72992,1,2,0:1:0:0:
96,296,73107,1,2,0:1:0:0:
80,324,73223,2,0,P|144:304|232:320,1,150,10|0,0:1|0:0,0:0:0:0:
304,372,73915,1,0,0:0:0:0:
444,308,74146,6,0,L|344:292,1,75,8|0,0:1|0:0,0:0:0:0:
245,231,74607,2,0,L|345:215,1,75
456,136,75069,2,0,B|476:84|480:32|480:32|460:52|412:56,1,150,8|0,0:1|0:0,0:0:0:0:
348,24,75761,1,0,0:0:0:0:
232,146,75992,6,0,B|212:198|208:250|208:250|228:230|245:230,1,150,8|0,0:1|0:0,0:0:0:0:
336,256,76684,1,0,0:0:0:0:
320,127,76915,2,0,P|296:81|190:68,1,150,8|0,0:1|0:0,0:0:0:0:
136,124,77607,1,0,0:0:0:0:
8,80,77838,6,0,B|0:48|0:48|0:-12,1,75,8|0,0:1|0:0,0:0:0:0:
128,49,78300,2,0,B|136:81|136:81|136:141,1,75
41,268,78761,2,0,P|-6:226|47:194,1,150,8|0,2:1|2:0,2:0:0:0:
135,235,79453,1,0,0:0:0:0:
304,236,79684,6,0,B|319:198|308:154|272:126|272:126|300:116|316:88|316:88|320:158,1,225,8|8,0:1|0:1,0:0:0:0:
220,200,80607,2,0,P|201:181|187:132,1,75,8|0,0:1|0:0,0:0:0:0:
240,48,81069,2,0,P|264:24|320:8,1,75
424,136,81530,6,0,B|416:232|416:232|440:300,1,150,8|0,0:1|0:0,0:0:0:0:
512,224,82223,1,0,0:0:0:0:
324,208,82453,2,0,L|160:224,1,150,8|0,0:1|0:0,0:0:0:0:
236,300,83146,1,0,0:0:0:0:
262,130,83376,6,0,L|112:144,1,150,8|0,0:1|0:0,0:0:0:0:
174,222,84069,1,0,0:0:0:0:
262,130,84300,2,0,L|270:46,1,75,8|0,0:1|0:0,0:0:0:0:
105,69,84761,2,0,L|112:143,1,75,0|0,0:0|0:0,0:0:0:0:
212,272,85223,6,0,P|246:311|197:280,1,157.499995193482,8|0,0:1|0:0,0:0:0:0:
222,195,86146,2,0,P|312:248|312:352,1,191.250003647804,8|0,0:1|0:0,0:0:0:0:
226,107,87069,2,0,P|293:143|191:112,1,525,8|0,0:1|0:0,0:0:0:0:
276,25,88915,6,0,B|246:73|246:73|221:193,1,179.999994506836,4|0,0:1|0:0,0:0:0:0:
356,143,89607,1,0,0:0:0:0:
220,193,89838,2,0,P|176:199|134:184,1,89.9999972534181,8|0,0:0|0:0,0:0:0:0:
249,271,90300,1,0,0:0:0:0:
106,262,90530,1,0,0:0:0:0:
272,124,90761,6,0,B|298:74|286:28|286:28|206:25|206:25|205:70|183:118,1,269.999991760254,4|0,0:0|0:0,0:0:0:0:
36,228,91684,1,8,0:0:0:0:
71,121,91915,1,0,0:0:0:0:
219,217,92146,1,0,0:0:0:0:
135,289,92376,1,0,0:0:0:0:
184,112,92607,6,0,P|228:107|269:123,1,89.9999972534181,4|0,0:0|0:0,0:0:0:0:
434,239,93069,2,0,L|447:121,1,89.9999972534181
269,123,93530,2,0,L|282:241,1,89.9999972534181,8|0,0:0|0:0,0:0:0:0:
408,144,93992,1,0,0:0:0:0:
276,88,94223,1,0,0:0:0:0:
371,3,94453,6,0,B|354:68|354:68|368:187|368:187|340:281,1,269.999991760254,4|0,0:0|0:0,0:0:0:0:
172,233,95376,1,8,0:0:0:0:
128,132,95607,1,0,0:0:0:0:
260,240,95838,1,0,0:0:0:0:
312,144,96069,1,0,0:0:0:0:
173,274,96300,6,0,P|168:327|199:386,1,89.9999972534181,4|0,0:0|0:0,0:0:0:0:
349,248,96761,2,8,L|254:239,1,89.9999972534181,0|0,0:0|0:0,0:0:0:0:
458,233,97223,2,0,P|476:192|477:147,1,89.9999972534181,8|0,0:0|0:0,0:0:0:0:
320,172,97684,1,0,0:0:0:0:
352,320,97915,1,0,0:0:0:0:
353,162,98146,6,0,B|319:103|319:103|287:102|256:81|256:81|226:102|193:102|193:102|158:162,1,269.999991760254,4|0,0:0|0:0,0:0:0:0:
186,312,99069,1,8,0:0:0:0:
347,293,99300,1,0,0:0:0:0:
255,174,99530,1,0,0:0:0:0:
175,346,99761,1,0,0:0:0:0:
256,208,99992,5,4,0:0:0:0:
328,328,100223,1,0,0:0:0:0:
175,346,100453,2,0,P|127:338|92:305,1,89.9999972534181
347,233,100915,2,0,L|383:151,1,89.9999972534181,8|0,0:0|0:0,0:0:0:0:
145,132,101376,2,0,L|108:45,1,89.9999972534181,0|0,0:0|0:0,0:0:0:0:
347,21,101838,5,4,0:0:0:0:
257,191,102069,1,0,0:0:0:0:
230,97,102300,2,0,P|280:96|322:122,1,89.9999972534181
175,242,102761,2,0,L|70:254,1,89.9999972534181,8|0,0:0|0:0,0:0:0:0:
336,320,103223,2,0,L|441:332,1,89.9999972534181
257,191,103684,6,0,B|276:236|260:280|260:280|239:327|262:373,1,179.999994506836,4|0,0:1|0:0,0:0:0:0:
352,236,104376,1,0,0:0:0:0:
167,155,104607,2,0,P|163:211|184:256,1,89.9999972534181,8|0,0:0|0:0,0:0:0:0:
335,318,105069,1,0,0:0:0:0:
404,168,105300,1,0,0:0:0:0:
465,325,105530,6,0,B|391:349|336:318|336:318|269:289|191:332,1,269.999991760254,4|0,0:0|0:0,0:0:0:0:
76,248,106453,1,8,0:0:0:0:
117,354,106684,1,0,0:0:0:0:
109,144,106915,1,0,0:0:0:0:
2,184,107146,1,0,0:0:0:0:
224,216,107376,6,0,P|248:172|248:95,1,89.9999972534181,4|0,0:0|0:0,0:0:0:0:
121,55,107838,2,0,P|160:75|204:72,1,89.9999972534181
344,7,108300,2,0,P|300:-1|258:13,1,89.9999972534181,8|0,0:0|0:0,0:0:0:0:
160,156,108761,1,0,0:0:0:0:
351,156,108992,1,0,0:0:0:0:
256,294,109223,6,0,B|219:220|219:220|252:127|252:127|287:222,1,269.999991760254,4|0,0:0|0:0,0:0:0:0:
336,344,110146,1,8,0:0:0:0:
150,259,110376,1,0,0:0:0:0:
362,259,110607,1,0,0:0:0:0:
176,344,110838,1,0,0:0:0:0:
256,192,111069,5,4,0:0:0:0:
256,324,111300,1,0,0:0:0:0:
362,259,111530,2,0,P|361:210|334:163,1,89.9999972534181
320,140,111876,1,0,0:0:0:0:
288,116,111992,2,0,P|235:113|200:132,1,89.9999972534181,8|0,0:0|0:0,0:0:0:0:
74,56,112453,1,0,0:0:0:0:
214,24,112684,1,0,0:0:0:0:
155,230,112915,6,0,B|117:294|56:297|56:297|40:259|2:242|2:242|0:203|39:177,1,269.999991760254,4|0,0:0|0:0,0:0:0:0:
55,154,113723,1,0,0:0:0:0:
55,154,113838,1,8,0:0:0:0:
182,196,114069,1,0,0:0:0:0:
229,68,114300,1,0,0:0:0:0:
100,28,114530,1,0,0:0:0:0:
240,100,114761,5,4,0:0:0:0:
332,8,114992,1,0,0:0:0:0:
248,132,115223,2,0,P|236:175|246:218,1,89.9999972534181
372,272,115684,2,0,P|381:227|367:185,1,89.9999972534181,8|0,0:0|0:0,0:0:0:0:
244,252,116146,1,0,0:0:0:0:
364,304,116376,1,0,0:0:0:0:
178,352,116607,6,0,B|125:347|62:314|39:267|39:267|88:236|90:180,1,269.999991760254,4|0,0:0|0:0,0:0:0:0:
42,49,117530,1,8,0:0:0:0:
185,128,117761,1,0,0:0:0:0:
5,190,117992,1,0,0:0:0:0:
103,105,118223,1,0,0:0:0:0:
167,205,118453,6,0,B|241:276|414:264|449:128|251:47|164:127|266:305|379:305,1,510.000009727478,4|0,0:0|0:0,0:0:0:0:
120,159,125838,6,0,B|138:63|138:63|207:155,1,191.250003647804,4|0,0:1|0:0,0:0:0:0:
205,226,126761,2,0,P|171:243|139:242,1,63.7500012159348,8|0,0:0|0:0,0:0:0:0:
256,299,127223,2,0,P|235:330|206:345,1,63.7500012159348,0|0,0:0|0:0,0:0:0:0:
393,159,127684,6,0,B|375:63|375:63|318:137,1,191.250003647804,8|0,0:1|0:0,0:0:0:0:
307,226,128607,2,0,P|341:243|373:242,1,63.7500012159348,8|0,0:0|0:0,0:0:0:0:
256,299,129069,2,0,P|276:330|305:345,1,63.7500012159348,0|0,0:0|0:0,0:0:0:0:
113,259,129530,6,0,B|156:147|238:158|232:229|191:224,1,191.250003647804,8|0,0:1|0:0,0:0:0:0:
113,259,130453,2,0,L|40:235,1,63.7500012159348,8|0,0:0|0:0,0:0:0:0:
21,154,130915,1,0,0:0:0:0:
102,116,131146,1,0,0:0:0:0:
258,190,131376,6,0,B|303:196|341:169|358:131|358:131|348:51,1,191.250003647804,8|0,0:1|0:0,0:0:0:0:
265,35,132300,2,0,L|258:118,1,63.7500012159348,8|0,0:0|0:0,0:0:0:0:
258,190,132761,1,0,0:0:0:0:
313,259,132992,1,0,0:0:0:0:
434,309,133223,6,0,B|438:275|413:256|413:256|408:343|312:359,1,191.250003647804,8|0,0:1|0:0,0:0:0:0:
258,312,134146,2,0,L|195:301,1,63.7500012159348,8|0,0:0|0:0,0:0:0:0:
105,305,134607,1,0,0:0:0:0:
154,379,134838,1,0,0:0:0:0:
258,312,135069,6,0,B|279:187|279:187|252:234|202:227,1,191.250003647804,8|0,0:1|0:0,0:0:0:0:
197,139,135992,2,0,L|192:55,1,63.7500012159348,8|0,0:0|0:0,0:0:0:0:
112,36,136453,2,0,L|108:99,1,63.7500012159348
43,220,136915,6,0,B|86:201|136:221|136:221|185:241|254:219,1,191.250003647804,8|0,0:1|0:0,0:0:0:0:
274,147,137838,2,0,L|287:71,1,63.7500012159348,8|0,0:0|0:0,0:0:0:0:
367,188,138300,2,0,L|354:112,1,63.7500012159348
229,224,138761,6,0,L|242:148,1,63.7500012159348,8|0,0:1|0:0,0:0:0:0:
348,274,139223,2,0,L|335:198,1,63.7500012159348
263,330,139684,1,10,0:1:0:0:
378,287,139915,1,2,0:1:0:0:
228,225,140146,1,2,0:1:0:0:
385,153,140376,1,2,0:1:0:0:
282,16,140607,6,0,P|331:81|376:12,1,191.250003647804,10|0,0:1|0:0,0:0:0:0:
469,37,141530,2,0,P|461:85|440:115,1,63.7500012159348,10|0,0:0|0:0,0:0:0:0:
385,153,141992,1,0,0:0:0:0:
296,159,142223,1,0,0:0:0:0:
192,39,142453,6,0,P|192:135|177:243,1,191.250003647804,10|0,0:1|0:0,0:0:0:0:
244,291,143376,2,0,P|276:288|307:297,1,63.7500012159348,10|0,0:0|0:0,0:0:0:0:
264,375,143838,2,0,P|232:378|201:369,1,63.7500012159348
70,298,144300,6,0,B|194:256|194:256|245:292,1,191.250003647804,10|0,0:1|0:0,0:0:0:0:
201,369,145223,2,0,L|132:388,2,63.7500012159348,10|0|0,0:0|0:0|0:0,0:0:0:0:
243,290,145915,1,0,0:0:0:0:
211,126,146146,6,0,P|258:60|304:128,1,191.250003647804,10|0,0:1|0:0,0:0:0:0:
248,200,147069,2,0,P|216:209|168:190,1,63.7500012159348,10|0,0:0|0:0,0:0:0:0:
100,176,147530,1,0,0:0:0:0:
164,116,147761,1,0,0:0:0:0:
248,200,147992,6,0,B|312:229|378:212|378:212|359:184|309:187,1,191.250003647804,10|0,0:1|0:0,0:0:0:0:
252,292,148915,2,0,L|180:324,2,63.7500012159348,10|0|0,0:0|0:0|0:0,0:0:0:0:
327,187,149607,1,0,0:0:0:0:
396,288,149838,6,0,B|431:300|459:269|459:269|511:288|511:288|511:218,1,191.250003647804,10|0,0:1|0:0,0:0:0:0:
512,144,150761,2,0,P|466:152|444:186,1,63.7500012159348,10|0,0:0|0:0,0:0:0:0:
394,101,151223,2,0,L|399:33,1,63.7500012159348
364,180,151684,6,0,B|296:184|240:160|240:160|228:88,1,191.250003647804,10|0,0:1|0:0,0:0:0:0:
148,80,152607,2,0,L|156:144,1,63.7500012159348,10|0,0:0|0:0,0:0:0:0:
207,12,153069,1,0,0:0:0:0:
207,12,153300,1,0,0:0:0:0:
148,80,153530,6,0,P|116:80|68:60,1,63.7500012159348,8|0,0:1|0:0,0:0:0:0:
216,163,153992,2,0,L|204:247,1,63.7500012159348
308,104,154453,2,0,P|340:104|388:124,1,63.7500012159348,8|0,0:0|0:0,0:0:0:0:
464,65,154915,2,0,L|476:-19,1,63.7500012159348
324,192,155376,6,0,P|328:228|428:304,1,150,8|0,0:1|0:0,0:0:0:0:
488,244,156069,1,0,0:0:0:0:
324,192,156300,2,0,L|312:288,1,75
224,232,156761,1,0,0:0:0:0:
220,328,156992,1,0,0:0:0:0:
123,182,157223,6,0,L|135:278,1,75,0|2,0:0|0:1,0:0:0:0:
99,264,157568,1,2,0:1:0:0:
68,280,157684,1,2,0:1:0:0:
47,305,157799,1,2,0:1:0:0:
38,337,157915,1,2,0:1:0:0:
171,263,158146,2,0,B|206:177|206:177|166:97,1,150,8|0,0:1|0:0,0:0:0:0:
102,184,158838,1,0,0:0:0:0:
286,230,159069,6,0,B|311:178|311:178|271:94,1,150,8|0,0:1|0:0,0:0:0:0:
180,125,159761,1,0,0:0:0:0:
358,62,159992,1,2,0:1:0:0:
344,31,160107,1,2,0:1:0:0:
315,13,160223,1,2,0:1:0:0:
279,7,160338,1,2,0:1:0:0:
245,11,160453,2,0,P|203:22|161:16,1,75,2|0,0:1|0:0,0:0:0:0:
212,196,160915,5,8,0:1:0:0:
285,133,161146,1,2,0:1:0:0:
317,124,161261,1,2,0:1:0:0:
350,128,161376,1,2,0:1:0:0:
381,140,161492,1,2,0:1:0:0:
408,159,161607,1,2,0:1:0:0:
416,34,161838,2,0,B|368:73|368:73|336:171,1,150,8|0,0:1|0:0,0:0:0:0:
355,249,162530,1,0,0:0:0:0:
502,319,162761,6,0,B|491:258|491:258|431:192,1,150,8|0,0:1|0:0,0:0:0:0:
355,249,163453,1,0,0:0:0:0:
258,143,163684,2,0,L|252:56,1,75
326,209,164146,1,0,0:0:0:0:
233,239,164376,1,0,0:0:0:0:
168,96,164607,6,0,L|156:188,1,75,8|2,0:1|0:1,0:0:0:0:
132,152,164953,1,2,0:1:0:0:
98,145,165069,1,2,0:1:0:0:
64,147,165184,1,2,0:1:0:0:
33,162,165300,1,2,0:1:0:0:
39,297,165530,2,0,B|84:317|130:294|130:294|191:339,1,150,8|0,0:1|0:0,0:0:0:0:
255,382,166223,1,0,0:0:0:0:
473,297,166453,6,0,B|428:317|382:294|382:294|321:339,1,150,8|0,0:1|0:0,0:0:0:0:
256,264,167146,1,0,0:0:0:0:
324,131,167376,2,0,L|338:40,1,75
181,46,167838,1,0,0:0:0:0:
192,142,168069,1,0,0:0:0:0:
343,156,168300,6,0,P|303:154|267:168,1,75,8|0,0:1|0:0,0:0:0:0:
157,214,168761,1,2,0:1:0:0:
124,221,168876,1,2,0:1:0:0:
90,218,168991,1,2,0:1:0:0:
60,203,169107,1,2,0:1:0:0:
37,178,169223,2,0,B|45:113|115:96|115:96|111:115|117:142,1,150,10|0,0:1|0:0,0:0:0:0:
157,214,169915,1,0,0:0:0:0:
292,75,170146,6,0,L|194:67,1,75,8|0,0:1|0:0,0:0:0:0:
61,19,170607,2,0,L|159:11,1,75
256,159,171069,2,0,B|308:177|350:153|350:153|383:106,1,150,8|0,0:1|0:0,0:0:0:0:
448,51,171761,1,0,0:0:0:0:
512,261,171992,6,0,B|462:236|449:190|449:190|459:133,1,150,8|0,0:1|0:0,0:0:0:0:
448,51,172684,1,0,0:0:0:0:
371,244,172915,2,0,P|306:291|228:267,1,150,8|0,0:1|0:0,0:0:0:0:
180,192,173607,1,0,0:0:0:0:
282,122,173838,6,0,B|290:154|290:154|290:196,1,75,8|0,0:1|0:0,0:0:0:0:
194,88,174300,2,0,B|186:56|186:56|186:14,1,75
370,97,174761,2,0,P|428:60|394:2,1,150,8|0,0:1|0:0,0:0:0:0:
303,33,175453,1,0,0:0:0:0:
206,156,175684,6,0,B|136:176|92:140|92:140|64:192|64:192|116:192,1,225,8|8,0:1|0:1,0:0:0:0:
206,156,176607,2,0,P|206:99|202:79,1,75
109,192,177069,2,0,P|109:249|113:269,1,75
252,333,177530,6,0,B|297:315|297:315|320:195,1,150,8|0,0:1|0:0,0:0:0:0:
270,128,178223,1,0,0:0:0:0:
148,97,178453,2,0,B|141:144|141:144|233:224,1,150,8|0,0:1|0:0,0:0:0:0:
316,215,179146,1,0,0:0:0:0:
404,124,179376,6,0,B|365:94|365:94|250:134,1,150,8|0,2:1|2:0,2:0:0:0:
217,210,180069,1,0,2:0:0:0:
252,333,180300,2,0,L|343:320,1,75,8|0,0:1|0:0,0:0:0:0:
437,333,180761,2,0,L|362:322,1,75
316,215,181223,6,0,P|365:178|412:244,1,157.499995193482,8|0,0:1|0:0,0:0:0:0:
316,215,182146,2,0,P|366:119|438:125,1,191.250003647804,8|0,0:1|0:0,0:0:0:0:
316,215,183069,2,0,P|282:102|357:18,1,225,8|0,0:1|0:0,0:0:0:0:
316,215,183992,2,0,P|194:129|186:15,1,258.750004935265,8|0,0:1|0:0,0:0:0:0:
316,215,184915,6,0,B|329:338|329:338|378:370,1,179.999994506836,4|0,0:1|0:0,0:0:0:0:
480,300,185607,1,0,0:0:0:0:
377,156,185838,2,0,P|327:188|313:234,1,89.9999972534181,8|0,0:0|0:0,0:0:0:0:
456,268,186300,1,0,0:0:0:0:
325,317,186530,1,0,0:0:0:0:
478,183,186761,6,0,B|494:169|502:118|488:96|488:96|441:100|406:74|406:74|388:87|367:130|377:159,1,269.999991760254,4|0,0:0|0:0,0:0:0:0:
361,0,187684,1,8,0:0:0:0:
467,14,187915,1,0,0:0:0:0:
296,72,188146,1,0,0:0:0:0:
296,180,188377,1,0,0:0:0:0:
156,39,188607,6,0,P|96:40|50:68,1,89.9999972534181,4|0,0:0|0:0,0:0:0:0:
132,159,189069,2,0,P|92:179|63:214,1,89.9999972534181
232,229,189530,2,0,P|207:266|202:311,1,89.9999972534181,8|0,0:0|0:0,0:0:0:0:
348,312,189992,1,0,0:0:0:0:
252,201,190223,1,0,0:0:0:0:
180,352,190453,6,0,B|134:380|67:374|44:328|44:328|60:272|60:272|132:284,1,269.999991760254,4|0,0:0|0:0,0:0:0:0:
280,344,191376,1,8,0:0:0:0:
294,236,191607,1,0,0:0:0:0:
127,187,191838,1,0,0:0:0:0:
230,145,192069,1,0,0:0:0:0:
368,308,192300,6,0,L|492:292,1,89.9999972534181,4|0,0:0|0:0,0:0:0:0:
388,176,192761,2,0,L|374:264,1,89.9999972534181
488,144,193223,2,0,L|364:128,1,89.9999972534181,8|0,0:0|0:0,0:0:0:0:
296,232,193684,1,0,0:0:0:0:
243,98,193915,1,0,0:0:0:0:
117,174,194146,6,0,B|37:182|16:114|16:114|45:47|45:47|99:100,1,269.999991760254,4|0,0:0|0:0,0:0:0:0:
200,192,195069,1,8,0:0:0:0:
82,259,195300,1,0,0:0:0:0:
239,331,195530,1,0,0:0:0:0:
47,259,195761,1,0,0:0:0:0:
236,187,195992,5,4,0:0:0:0:
82,259,196223,1,0,0:0:0:0:
203,331,196453,2,0,P|245:333|304:314,1,89.9999972534181
300,100,196915,2,0,B|287:45|287:45|290:-12,1,89.9999972534181,8|0,0:0|0:0,0:0:0:0:
508,12,197376,2,0,B|509:45|509:45|496:100,1,89.9999972534181
337,259,197838,5,4,0:0:0:0:
396,111,198069,1,0,0:0:0:0:
486,200,198300,2,0,P|442:208|399:195,1,89.9999972534181
239,122,198761,2,0,B|239:84|239:84|221:34,1,89.9999972534181,8|0,0:0|0:0,0:0:0:0:
48,32,199223,2,0,B|30:81|30:81|29:118,1,89.9999972534181
20,352,199684,6,0,B|66:328|66:328|199:354,1,179.999994506836,4|0,0:1|0:0,0:0:0:0:
323,334,200376,1,0,0:0:0:0:
184,228,200607,2,0,L|85:206,1,89.9999972534181,8|0,0:0|0:0,0:0:0:0:
192,353,201069,1,0,0:0:0:0:
284,241,201300,1,0,0:0:0:0:
96,128,201530,6,0,B|53:129|30:160|30:160|3:59|3:59|37:20|92:30,1,269.999991760254,4|0,0:0|0:0,0:0:0:0:
182,122,202453,1,8,0:0:0:0:
237,27,202684,1,0,0:0:0:0:
272,179,202915,1,0,0:0:0:0:
342,11,203146,1,0,0:0:0:0:
380,223,203376,6,0,P|427:219|471:186,1,89.9999972534181,4|0,0:0|0:0,0:0:0:0:
271,89,203838,2,0,L|271:181,1,89.9999972534181
132,223,204300,2,0,P|85:219|41:186,1,89.9999972534181,8|0,0:0|0:0,0:0:0:0:
243,72,204761,1,0,0:0:0:0:
241,191,204992,1,0,0:0:0:0:
297,354,205223,6,0,B|326:297|326:297|256:318|186:297|186:297|215:354,1,269.999991760254,4|0,0:2|0:2,0:2:0:0:
389,371,206146,1,8,0:0:0:0:
331,222,206376,1,0,0:0:0:0:
215,354,206607,1,0,0:0:0:0:
257,168,206837,1,0,0:0:0:0:
297,354,207069,5,4,0:0:0:0:
181,222,207300,1,0,0:0:0:0:
123,371,207530,2,0,P|76:380|26:368,1,89.9999972534181
11,338,207876,1,0,0:0:0:0:
3,296,207992,2,0,P|15:244|50:189,1,89.9999972534181,8|0,0:0|0:0,0:0:0:0:
156,145,208453,1,0,0:0:0:0:
88,3,208684,1,0,0:0:0:0:
8,97,208915,6,0,B|34:126|76:131|76:131|82:88|124:41|197:52|224:100,1,269.999991760254,4|0,0:0|0:0,0:0:0:0:
248,126,209723,1,0,0:0:0:0:
248,126,209838,1,8,0:0:0:0:
217,0,210069,1,0,0:0:0:0:
344,84,210300,1,0,0:0:0:0:
256,204,210530,1,0,0:0:0:0:
300,12,210761,5,4,0:0:0:0:
340,164,210992,1,0,0:0:0:0:
424,92,211223,2,0,P|433:48|427:4,1,89.9999972534181
274,73,211684,2,0,L|216:144,1,89.9999972534181,8|0,0:0|0:0,0:0:0:0:
351,190,212146,1,0,0:0:0:0:
318,67,212376,1,0,0:0:0:0:
264,218,212607,6,0,B|253:267|260:331|301:359|365:356|400:332|393:283|346:260|289:302,1,269.999991760254,4|0,0:0|0:0,0:0:0:0:
190,187,213530,1,8,0:0:0:0:
127,343,213761,1,0,0:0:0:0:
232,374,213992,1,0,0:0:0:0:
189,207,214223,1,0,0:0:0:0:
94,221,214453,6,0,B|90:151|149:119|149:119|222:83|212:6,1,255.000004863739,4|8,0:0|0:0,0:0:0:0:
114,28,215607,2,0,L|35:42,2,63.7500012159348
218,17,216300,5,8,0:1:0:0:
218,17,216761,2,0,P|244:42|297:59,1,63.7500012159348
296,56,217107,1,0,0:0:0:0:
323,46,217223,2,0,P|355:35|405:37,2,63.7500012159348,8|0|0,0:0|0:0|0:0,0:0:0:0:
211,244,218146,6,0,B|199:69|199:69|213:115|255:137,1,255.000004863739,8|8,0:1|0:0,0:0:0:0:
305,214,219300,2,0,P|308:245|302:278,2,63.7500012159348
216,249,219992,5,8,0:1:0:0:
216,249,220453,2,0,P|211:280|217:311,1,63.7500012159348
212,340,220800,1,0,0:0:0:0:
196,364,220915,2,0,P|132:366|112:356,2,63.7500012159348,8|0|0,0:0|0:0|0:0,0:0:0:0:
269,155,221838,6,0,B|303:157|303:157|337:151,1,63.7500012159348,8|0,0:1|0:0,0:0:0:0:
364,234,222300,2,0,B|307:244|307:244|237:238|237:238|158:254,1,191.250003647804
76,271,223223,2,0,P|74:239|83:209,1,63.7500012159348
172,164,223684,5,8,0:1:0:0:
172,164,224146,1,0,0:0:0:0:
172,164,224607,2,0,P|172:136|162:97,1,63.7500012159348,8|0,0:0|0:0,0:0:0:0:
265,40,225069,2,0,P|257:70|256:102,1,63.7500012159348
300,179,225530,6,0,B|358:238|466:207|465:114|465:114|369:123,1,318.750006079674,8|0,0:1|0:0,0:0:0:0:
361,20,226915,2,0,L|424:14,1,63.7500012159348
290,86,227376,5,8,0:1:0:0:
290,86,227838,1,0,0:0:0:0:
290,86,228300,2,0,P|257:86|226:78,1,63.7500012159348,8|0,0:0|0:0,0:0:0:0:
121,30,228761,2,0,P|89:22|57:23,1,63.7500012159348
173,143,229223,6,0,P|193:230|178:319,1,150,4|0,0:0|0:0,0:0:0:0:
288,219,229915,1,0,0:0:0:0:
288,219,230030,1,0,0:0:0:0:
288,219,230146,2,0,P|321:214|378:226,1,75,8|0,0:0|0:0,0:0:0:0:
452,285,230607,1,0,0:0:0:0:
493,183,230838,1,0,0:0:0:0:
356,145,231069,6,0,L|362:226,1,75,4|0,0:0|0:0,0:0:0:0:
245,235,231530,2,0,L|239:316,1,75
212,335,231876,1,0,0:0:0:0:
212,335,231992,1,8,0:0:0:0:
328,298,232223,1,0,0:0:0:0:
157,226,232453,2,0,L|82:236,1,75,8|0,0:0|0:0,0:0:0:0:
4,136,232915,6,0,P|64:159|76:251,1,150,4|0,0:0|0:0,0:0:0:0:
6,296,233607,1,0,0:0:0:0:
6,296,233723,1,0,0:0:0:0:
6,296,233838,2,0,L|-2:200,1,75,8|0,0:0|0:0,0:0:0:0:
81,144,234300,1,0,0:0:0:0:
16,54,234530,1,0,0:0:0:0:
168,14,234761,6,0,L|174:89,1,75,4|0,0:0|0:0,0:0:0:0:
290,104,235222,2,0,L|285:179,1,75
311,209,235569,1,0,0:0:0:0:
311,209,235684,1,8,0:0:0:0:
419,174,235915,1,0,0:0:0:0:
340,43,236146,2,0,P|327:33|268:29,1,75,8|0,0:0|0:0,0:0:0:0:
169,201,236607,6,0,P|87:242|104:151,1,225,4|0,0:0|0:0,0:0:0:0:
149,164,237415,1,0,0:0:0:0:
149,164,237530,1,8,0:0:0:0:
168,136,237992,1,0,0:0:0:0:
240,248,238223,1,0,0:0:0:0:
384,200,238453,6,0,P|392:163|390:126,1,75,4|0,0:0|0:0,0:0:0:0:
288,108,238915,2,0,P|297:63|285:6,1,75
259,14,239261,1,0,0:0:0:0:
259,14,239376,1,8,0:0:0:0:
176,124,239607,1,0,0:0:0:0:
40,112,239838,2,0,P|25:142|25:186,1,75,8|0,0:0|0:0,0:0:0:0:
119,316,240300,5,4,0:0:0:0:
269,263,240530,1,0,0:0:0:0:
256,144,240761,1,0,0:0:0:0:
243,263,240992,1,0,0:0:0:0:
393,316,241223,2,0,L|488:295,1,75,8|0,0:0|0:0,0:0:0:0:
321,192,241684,1,0,0:0:0:0:
191,192,241915,1,0,0:0:0:0:
119,316,242146,6,0,P|80:322|18:304,1,75,4|0,0:0|0:0,0:0:0:0:
191,192,242607,2,0,P|154:198|117:192,1,75
293,100,243069,1,8,0:0:0:0:
321,192,243300,1,0,0:0:0:0:
219,100,243530,2,0,L|219:14,1,75,8|0,0:0|0:0,0:0:0:0:
283,192,243992,6,0,L|320:192,1,37.5,10|0,0:1|0:0,0:0:0:0:
235,269,244222,2,0,L|256:300,1,37.5
144,267,244453,2,0,L|122:298,1,37.5,2|0,0:1|0:0,0:0:0:0:
96,190,244684,2,0,L|58:190,1,37.5
145,117,244915,2,0,L|123:86,1,37.5,10|0,0:0|0:0,0:0:0:0:
236,119,245146,2,0,L|257:88,1,37.5
283,192,245376,2,0,L|193:194,1,75,2|2,0:0|0:0,0:0:0:0:
356,298,245838,6,0,L|353:261,1,37.5,10|0,0:1|0:0,0:0:0:0:
428,261,246069,2,0,L|431:224,1,37.5
509,230,246300,2,0,L|506:193,1,37.5,2|0,0:0|0:0,0:0:0:0:
473,113,246530,2,0,L|469:69,1,37.5
395,150,246761,2,0,L|399:82,1,37.5,10|0,0:0|0:0,0:0:0:0:
320,178,246992,2,0,L|314:130,1,37.5
332,61,247223,2,0,P|294:40|235:37,1,75,2|2,0:0|0:0,0:0:0:0:
92,70,247684,6,0,L|32:86,1,37.5,10|0,0:1|0:0,0:0:0:0:
196,106,247915,2,0,L|256:122,1,37.5
116,158,248146,2,0,L|56:174,1,37.5,2|0,0:0|0:0,0:0:0:0:
220,194,248377,2,0,L|280:210,1,37.5
148,246,248607,2,0,L|88:262,1,37.5,10|0,0:0|0:0,0:0:0:0:
252,282,248838,2,0,L|312:298,1,37.5
180,334,249069,2,0,P|144:350|88:350,1,75,2|2,0:0|0:0,0:0:0:0:
11,291,249530,5,6,0:0:0:0:
3,261,249645,1,0,0:0:0:0:
5,232,249760,1,0,0:0:0:0:
14,203,249876,1,0,0:0:0:0:
59,189,249992,5,2,0:0:0:0:
66,159,250107,1,0,0:0:0:0:
64,130,250222,1,0,0:0:0:0:
55,101,250338,1,0,0:0:0:0:
12,76,250453,6,0,L|11:30,5,25,10|0|0|0|0|0,0:0|0:0|0:0|0:0|0:0|0:0,0:0:0:0:
100,24,250915,2,0,L|99:-22,5,25,2|0|0|0|0|0,0:0|0:0|0:0|0:0|0:0|0:0,0:0:0:0:
168,96,251376,6,0,P|248:124|348:116,1,179.999994506836,4|0,0:1|0:0,0:0:0:0:
472,48,252069,1,0,0:0:0:0:
464,208,252300,2,0,L|459:305,1,89.9999972534181,8|0,0:0|0:0,0:0:0:0:
440,60,252761,1,0,0:0:0:0:
364,208,252992,1,0,0:0:0:0:
278,76,253223,6,0,P|234:71|192:85,2,89.9999972534181,4|0|0,0:0|0:0|0:0,0:0:0:0:
414,137,253915,1,0,0:0:0:0:
308,276,254146,1,8,0:0:0:0:
320,168,254377,1,0,0:0:0:0:
212,300,254607,1,0,0:0:0:0:
192,192,254838,1,0,0:0:0:0:
40,288,255069,6,0,P|78:314|121:322,1,89.9999972534181,4|0,0:0|0:0,3:0:0:0:
192,192,255530,2,0,L|68:192,1,89.9999972534181
40,96,255992,2,0,P|78:70|121:62,1,89.9999972534181,8|0,0:0|0:0,3:0:0:0:
256,112,256453,1,0,0:0:0:0:
352,4,256684,1,0,0:0:0:0:
276,192,256915,6,0,B|320:220|362:197|362:197|358:321,1,179.999994506836,4|0,0:0|0:0,0:0:0:0:
257,307,257607,1,0,0:0:0:0:
179,146,257838,1,8,0:0:0:0:
152,252,258069,1,0,0:0:0:0:
36,81,258300,1,0,0:0:0:0:
56,188,258531,1,0,0:0:0:0:
200,48,258761,6,0,B|162:24|162:24|117:17,1,89.9999972534181,4|0,0:0|0:0,0:0:0:0:
56,188,259223,2,0,B|152:196,1,89.9999972534181
200,336,259684,2,0,B|162:359|162:359|117:366,1,89.9999972534181,8|0,0:0|0:0,0:0:0:0:
4,272,260146,1,0,0:0:0:0:
88,156,260376,1,0,0:0:0:0:
302,209,260607,6,0,B|393:250|495:203,1,179.999994506836,4|0,0:0|0:0,0:0:0:0:
302,126,261300,1,0,0:0:0:0:
285,297,261530,1,8,0:0:0:0:
388,247,261761,1,0,0:0:0:0:
179,273,261992,1,0,0:0:0:0:
229,376,262223,1,0,0:0:0:0:
388,247,262453,5,4,0:0:0:0:
248,208,262684,1,0,0:0:0:0:
419,256,262915,2,0,L|524:283,1,89.9999972534181
203,113,263376,2,0,P|207:68|234:33,1,89.9999972534181,8|0,0:0|0:0,0:0:0:0:
312,278,263838,2,0,P|307:322|280:357,1,89.9999972534181
158,242,264300,5,4,0:0:0:0:
268,208,264531,1,0,0:0:0:0:
126,253,264762,2,0,L|39:275,1,89.9999972534181
308,196,265223,2,0,P|293:152|260:122,1,89.9999972534181,8|0,0:0|0:0,0:0:0:0:
200,296,265684,2,0,P|214:337|247:367,1,89.9999972534181
464,253,266146,6,0,B|413:267|413:267|304:193,1,179.999994506836,4|0,0:1|0:0,0:0:0:0:
384,88,266838,1,0,0:0:0:0:
464,253,267069,2,0,P|470:312|462:374,1,89.9999972534181,8|0,0:0|0:0,0:0:0:0:
340,272,267530,1,0,0:0:0:0:
432,160,267761,1,0,0:0:0:0:
253,107,267992,6,0,P|231:124|311:157,1,179.999994506836,4|0,0:0|0:0,0:0:0:0:
324,48,268684,1,0,0:0:0:0:
138,145,268915,1,8,0:0:0:0:
188,48,269146,1,0,0:0:0:0:
374,145,269376,1,0,0:0:0:0:
324,48,269607,1,0,0:0:0:0:
255,237,269838,6,0,P|261:285|295:333,1,89.9999972534181,4|0,0:0|0:0,0:0:0:0:
142,287,270300,2,0,P|131:328|137:373,1,89.9999972534181,0|0,0:0|0:0,0:3:0:0:
42,223,270761,2,0,P|14:258|1:300,1,89.9999972534181,8|0,0:0|0:0,0:0:0:0:
122,180,271223,1,0,0:0:0:0:
0,112,271453,1,0,0:0:0:0:
141,71,271684,6,0,B|195:91|195:91|207:212,1,179.999994506836,4|0,0:0|0:0,0:0:0:0:
138,311,272376,1,0,0:0:0:0:
327,232,272607,1,8,0:0:0:0:
273,117,272838,1,0,0:0:0:0:
240,316,273069,1,0,0:0:0:0:
379,322,273300,1,0,0:0:0:0:
272,316,273530,5,4,0:0:0:0:
335,207,273761,1,0,0:0:0:0:
413,328,273992,2,0,L|527:346,1,89.9999972534181
256,231,274453,2,0,L|256:142,1,89.9999972534181,8|0,0:0|0:0,0:0:0:0:
240,316,274915,1,0,0:0:0:0:
177,207,275146,1,0,0:0:0:0:
99,328,275377,6,0,L|-15:346,1,89.9999972534181,4|0,0:0|0:0,0:0:0:0:
256,231,275838,2,0,L|255:139,1,89.9999972534181
170,78,276300,1,8,0:0:0:0:
132,180,276530,1,0,0:0:0:0:
342,78,276761,1,0,0:0:0:0:
380,180,276991,1,0,0:0:0:0:
191,102,277223,5,4,0:0:0:0:
321,102,277453,1,0,0:0:0:0:
216,16,277684,2,0,P|156:20|119:42,1,89.9999972534181
213,200,278146,2,0,B|256:209|256:209|311:198,1,89.9999972534181,8|0,0:0|0:0,0:0:0:0:
321,102,278607,1,0,0:0:0:0:
191,102,278838,1,0,0:0:0:0:
296,15,279069,6,0,P|340:15|381:33,1,89.9999972534181,4|0,0:0|0:0,0:0:0:0:
256,171,279530,1,0,0:0:0:0:
129,170,279761,1,0,0:0:0:0:
321,102,279991,1,8,0:0:0:0:
191,102,280223,1,0,0:0:0:0:
383,170,280453,1,0,0:0:0:0:
256,171,280684,1,0,0:0:0:0:
321,290,280915,6,0,B|251:327|142:331|135:231|-39:243|-64:297|-37:349|45:349|157:303,1,525,4|0,0:0|0:0,2:0:0:0:
128,208,282761,6,0,P|66:198|3:207,1,112.5,2|0,0:0|0:0,0:0:0:0:
128,208,283684,2,0,L|180:68,1,146.249993305207,2|0,0:0|0:0,0:0:0:0:
128,208,284607,2,0,B|252:303|353:245|304:141|201:110|154:204|252:340,1,420,2|0,0:0|0:0,0:0:0:0:
128,208,286453,5,2,0:0:0:0:
112,340,286684,1,8,0:1:0:0:
112,340,286800,1,8,0:1:0:0:
112,340,286915,1,8,0:0:0:0:
256,259,287146,1,8,0:0:0:0:
400,340,287376,1,8,0:1:0:0:
210,353,287607,1,8,0:0:0:0:
252,179,287838,1,8,0:1:0:0:
302,353,288069,1,8,0:0:0:0:
436,234,288300,6,0,B|376:274|311:235|311:235|282:268|230:255,1,194.999991073609,4|0,0:1|0:0,0:0:0:0:
172,158,288992,1,0,0:0:0:0:
372,71,289223,2,0,P|380:119|372:183,1,97.4999955368044,8|0,0:0|0:0,0:0:0:0:
302,353,289684,1,0,0:0:0:0:
485,342,289915,1,0,0:0:0:0:
376,168,290146,6,0,P|259:158|175:170,1,194.999991073609,4|0,0:0|0:0,0:0:0:0:
104,268,290838,1,0,0:0:0:0:
343,258,291069,1,8,0:0:0:0:
182,168,291300,1,0,0:0:0:0:
227,366,291530,1,0,0:0:0:0:
259,168,291761,1,0,0:0:0:0:
117,365,291992,6,0,B|59:373|17:352|7:317|7:317|20:241,1,194.999991073609,4|0,0:0|0:0,0:0:0:0:
82,176,292684,1,0,0:0:0:0:
246,274,292915,2,0,L|351:256,1,97.4999955368044,8|0,0:0|0:0,0:0:0:0:
306,67,293376,1,0,0:0:0:0:
191,173,293607,1,0,0:0:0:0:
320,346,293838,6,0,P|391:335|419:210,1,194.999991073609,4|0,0:0|0:0,0:0:0:0:
345,160,294530,1,0,0:0:0:0:
192,346,294761,2,0,P|121:335|93:210,1,194.999991073609,8|0,0:0|0:0,0:0:0:0:
167,160,295453,1,0,0:0:0:0:
428,229,295684,6,0,B|480:228|504:199|504:199|496:85,1,194.999991073609,4|0,0:0|0:0,0:0:0:0:
383,33,296376,1,0,0:0:0:0:
331,213,296607,2,0,P|337:267|391:313,1,97.4999955368044,8|0,0:0|0:0,0:0:0:0:
500,162,297069,1,0,0:0:0:0:
288,104,297300,1,0,0:0:0:0:
363,299,297530,6,0,P|417:197|345:126,1,194.999991073609,4|0,0:0|0:0,0:0:0:0:
288,104,298223,1,0,0:0:0:0:
98,147,298453,1,8,0:0:0:0:
321,201,298684,1,0,0:0:0:0:
136,241,298915,1,0,0:0:0:0:
359,295,299146,1,0,0:0:0:0:
204,96,299376,5,4,0:0:0:0:
48,240,299607,1,0,0:0:0:0:
228,289,299838,2,0,P|238:234|220:186,1,97.4999955368044
71,25,300300,2,0,L|80:146,1,97.4999955368044,8|0,0:0|0:0,0:0:0:0:
434,122,300761,2,0,L|443:1,1,97.4999955368044
329,198,301223,5,4,0:0:0:0:
174,90,301454,1,0,0:0:0:0:
320,8,301684,2,0,P|343:77|322:134,1,97.4999955368044
79,112,302146,2,0,B|178:90,1,97.4999955368044,8|0,0:0|0:0,0:0:0:0:
433,272,302607,2,0,B|334:294,1,97.4999955368044
118,206,303069,6,0,P|101:250|100:311,1,97.4999955368044,4|0,0:0|0:0,0:0:0:0:
413,177,303530,2,0,P|429:221|431:282,1,97.4999955368044
137,112,303992,2,0,P|120:156|119:217,1,97.4999955368044,8|0,0:0|0:0,0:0:0:0:
378,48,304453,1,0,0:0:0:0:
413,177,304684,1,0,0:0:0:0:
256,5,304915,6,0,L|255:122,1,97.4999955368044,4|0,0:0|0:0,0:0:0:0:
255,326,305376,1,0,0:0:0:0:
413,177,305607,1,0,0:0:0:0:
255,326,305838,1,8,0:0:0:0:
413,177,306069,1,0,0:0:0:0:
170,255,306300,1,0,0:0:0:0:
342,255,306530,1,0,0:0:0:0:
99,177,306761,6,0,P|48:167|-2:178,1,97.4999955368044,4|0,0:0|0:0,0:0:0:0:
256,101,307223,2,0,L|256:-5,1,97.4999955368044
413,177,307684,2,0,P|464:187|514:176,1,97.4999955368044,8|0,0:0|0:0,0:0:0:0:
338,50,308146,1,0,0:0:0:0:
256,216,308376,1,0,0:0:0:0:
174,50,308607,6,0,B|93:49|34:73|34:73|90:85,1,194.999991073609,4|0,0:0|0:0,0:0:0:0:
212,123,309300,1,0,0:0:0:0:
117,295,309530,1,8,0:0:0:0:
313,289,309761,1,0,0:0:0:0:
82,220,309992,1,0,0:0:0:0:
348,214,310223,1,0,0:0:0:0:
212,123,310453,5,4,0:0:0:0:
212,263,310684,1,0,0:0:0:0:
295,145,310915,2,0,P|293:96|267:56,1,97.4999955368044
139,83,311376,2,0,P|132:134|168:194,1,97.4999955368044,8|0,0:0|0:0,0:0:0:0:
377,76,311838,1,0,0:0:0:0:
212,123,312069,1,0,0:0:0:0:
413,173,312300,6,0,B|494:196|510:264|510:264|448:234,1,194.999991073609,4|0,0:0|0:0,0:0:0:0:
325,217,312992,1,0,0:0:0:0:
258,380,313223,1,8,0:0:0:0:
392,271,313453,1,0,0:0:0:0:
258,162,313684,1,0,0:0:0:0:
125,271,313915,1,0,0:0:0:0:
260,136,314146,5,4,0:0:0:0:
312,304,314376,1,0,0:0:0:0:
152,268,314607,2,0,P|136:214|134:127,1,97.4999955368044
40,29,315069,2,0,P|35:77|21:124,1,97.4999955368044,8|0,0:0|0:0,0:0:0:0:
179,26,315530,1,0,0:0:0:0:
257,174,315761,1,0,0:0:0:0:
371,93,315992,6,0,L|159:105,1,194.999991073609,4|0,0:0|0:0,0:0:0:0:
78,297,316684,1,0,0:0:0:0:
316,273,316915,1,8,0:0:0:0:
181,143,317146,1,0,0:0:0:0:
293,247,317376,1,0,0:0:0:0:
100,267,317607,1,0,0:0:0:0:
186,179,317838,6,0,L|198:261,2,79.6875015199185,4|0|0,0:0|0:0|0:0,0:0:0:0:
256,192,318530,12,0,324761,0:0:0:0:
