osu file format v14

[General]
AudioFilename: audio.mp3
AudioLeadIn: 0
PreviewTime: 149652
Countdown: 0
SampleSet: Soft
StackLeniency: 0.4
Mode: 0
LetterboxInBreaks: 0
WidescreenStoryboard: 0

[Editor]
DistanceSpacing: 2.4
BeatDivisor: 4
GridSize: 32
TimelineZoom: 1.6

[Metadata]
Title:SkyWorld
TitleUnicode:SkyWorld
Artist:Two Steps From Hell
ArtistUnicode:Two Steps From Hell
Creator:Cassu2
Version:Dominion
Source:
Tags:
BeatmapID:1206477
BeatmapSetID:569064

[Difficulty]
HPDrainRate:5.8
CircleSize:4
OverallDifficulty:8.5
ApproachRate:9
SliderMultiplier:3
SliderTickRate:1

[Events]
//Background and Video events
0,0,"twostepsfromhell.jpg",0,0
//Break Periods
//Storyboard Layer 0 (Background)
//Storyboard Layer 1 (Fail)
//Storyboard Layer 2 (Pass)
//Storyboard Layer 3 (Foreground)
//Storyboard Sound Samples

[TimingPoints]
247,794.701986754967,4,2,0,25,1,0
247,-133.333333333333,4,2,0,25,0,0
6604,-117.647058823529,4,2,0,25,0,0
19319,-105.263157894737,4,2,0,25,0,0
32233,-117.64705882353,4,2,0,25,0,0
57465,-90.9090909090909,4,2,0,35,0,0
136935,-133.333333333333,4,2,0,25,0,0
148856,-133.333333333333,4,2,0,35,0,0
149650,-83.3333333333333,4,2,0,45,0,1
168723,-83.3333333333333,4,2,0,50,0,1
171902,-83.3333333333333,4,2,0,55,0,1
174286,-83.3333333333333,4,2,0,60,0,1
177266,-83.3333333333333,4,2,0,65,0,1
178260,-83.3333333333333,4,2,0,15,0,0
187796,-83.3333333333333,4,2,0,10,0,0
189386,-83.3333333333333,4,2,0,5,0,0

[HitObjects]
73,271,247,6,0,P|119:261|180:214,1,112.500004291535,0|0,3:0|0:0,0:0:0:0:
218,120,843,1,0,3:0:0:0:
12,132,1041,6,0,P|65:147|148:139,1,112.500004291535,0|0,1:0|0:0,0:0:0:0:
205,29,1637,2,0,P|148:27|95:42,1,112.500004291535,0|0,1:0|3:0,0:0:0:0:
234,128,2233,1,0,1:0:0:0:
250,136,2631,5,0,3:0:0:0:
108,155,2829,1,0,3:0:0:0:
269,251,3028,5,0,3:0:0:0:
102,238,3227,1,0,3:0:0:0:
354,166,3425,6,0,B|413:167|413:167|474:180|474:180|533:181,1,168.750006437302,0|0,3:0|0:0,0:0:0:0:
384,364,4220,2,0,P|371:327|376:248,1,112.500004291535,0|0,1:0|0:0,0:0:0:0:
457,44,4816,2,0,P|462:99|446:153,1,112.500004291535,0|0,1:0|0:0,0:0:0:0:
266,61,5412,1,0,1:0:0:0:
240,54,5809,5,0,3:0:0:0:
441,36,6008,1,0,3:0:0:0:
232,169,6207,5,0,3:0:0:0:
441,184,6405,1,0,3:0:0:0:
148,272,6604,6,0,B|137:220|137:220|145:123,1,127.50000243187,0|0,3:0|0:0,0:0:0:0:
253,187,7200,1,0,0:0:0:0:
99,337,7399,2,0,L|30:328,1,63.7500012159348,0|0,3:0|0:0,0:0:0:0:
113,126,7796,1,2,0:0:0:0:
240,279,7995,6,0,P|311:285|382:245,1,127.50000243187,0|0,3:0|0:0,0:0:0:0:
321,116,8591,2,0,P|297:154|298:199,1,63.7500012159348,0|0,1:0|0:0,0:0:0:0:
474,171,8988,1,0,0:0:0:0:
423,97,9187,1,0,0:0:0:0:
378,313,9386,1,2,0:0:0:0:
318,178,9584,1,2,0:0:0:0:
494,226,9783,6,0,L|487:314,1,63.7500012159348,0|0,3:0|0:0,0:0:0:0:
225,150,10180,2,0,L|232:238,1,63.7500012159348
399,143,10578,5,0,3:0:0:0:
311,32,10776,1,2,0:0:0:0:
260,230,10975,1,2,0:0:0:0:
98,93,11174,6,0,B|145:81|145:81|240:89,1,127.50000243187,0|0,3:0|0:0,0:0:0:0:
379,124,11770,1,0,0:0:0:0:
172,298,11968,6,0,L|158:172,1,127.50000243187,0|0,3:0|0:0,0:0:0:0:
206,0,12564,1,0,1:0:0:0:
360,140,12763,1,0,1:0:0:0:
40,151,12962,6,0,P|88:132|132:130,1,63.7500012159348,0|0,3:0|0:0,0:0:0:0:
277,251,13359,2,0,P|245:243|217:230,1,63.7500012159348,0|0,3:0|0:0,0:0:0:0:
263,98,13756,5,0,3:0:0:0:
452,145,13955,1,2,0:0:0:0:
263,98,14154,1,0,3:0:0:0:
452,145,14352,2,0,L|437:271,1,127.50000243187,0|0,3:0|0:0,0:0:0:0:
358,66,14948,5,0,0:0:0:0:
240,233,15147,2,0,L|225:106,1,127.50000243187,2|0,0:0|0:0,0:0:0:0:
76,258,15743,2,0,L|82:189,1,63.7500012159348,0|0,3:0|0:0,0:0:0:0:
364,223,16141,6,0,P|312:238|215:224,1,127.50000243187,0|0,3:0|0:0,0:0:0:0:
313,40,16737,1,0,0:0:0:0:
418,127,16935,2,0,P|377:142|337:139,1,63.7500012159348,0|0,3:0|0:0,0:0:0:0:
205,86,17333,1,2,0:0:0:0:
370,266,17531,6,0,P|375:203|353:135,1,127.50000243187,0|0,3:0|0:0,0:0:0:0:
177,218,18127,2,0,P|219:222|255:215,1,63.7500012159348,0|0,1:0|0:0,0:0:0:0:
391,68,18525,2,0,P|349:64|313:71,1,63.7500012159348,0|0,1:0|0:0,0:0:0:0:
249,243,18922,5,0,1:0:0:0:
468,167,19121,1,0,1:0:0:0:
174,126,19319,6,0,B|153:29|153:29|202:63,1,142.49999619484,2|0,1:0|0:0,0:0:0:0:
255,185,19915,1,0,3:0:0:0:
50,161,20114,5,2,1:0:0:0:
270,94,20313,1,2,0:0:0:0:
167,262,20511,1,2,0:0:0:0:
190,35,20710,6,0,L|366:46,1,142.49999619484,2|2,1:0|1:0,0:0:0:0:
416,186,21306,1,0,3:0:0:0:
214,158,21505,1,2,1:0:0:0:
417,65,21703,5,0,3:0:0:0:
258,247,21902,1,0,0:0:0:0:
263,46,22101,1,2,1:0:0:0:
395,286,22299,1,0,0:0:0:0:
148,183,22498,6,0,L|243:178,1,71.2499980974198,2|0,1:0|0:0,0:0:0:0:
419,172,22896,1,0,1:0:0:0:
419,172,23094,1,0,1:0:0:0:
248,41,23293,6,0,P|245:79|256:121,1,71.2499980974198,2|0,1:0|0:0,0:0:0:0:
429,93,23690,1,2,0:0:0:0:
154,108,23889,6,0,P|176:173|240:207,1,142.49999619484,2|2,1:0|1:0,0:0:0:0:
317,28,24485,2,0,P|278:30|220:61,1,71.2499980974198,0|0,3:0|0:0,0:0:0:0:
247,230,24882,1,0,3:0:0:0:
371,131,25081,1,0,1:0:0:0:
98,164,25280,5,2,1:0:0:0:
370,111,25478,1,0,1:0:0:0:
216,300,25677,6,0,B|189:247|189:247|206:151,1,142.49999619484,2|2,1:0|1:0,0:0:0:0:
355,226,26273,1,0,3:0:0:0:
116,137,26472,5,2,1:0:0:0:
317,112,26670,1,2,0:0:0:0:
216,300,26869,1,0,3:0:0:0:
425,155,27068,6,0,B|452:208|452:208|435:304,1,142.49999619484,2|2,1:0|1:0,0:0:0:0:
244,218,27664,2,0,P|302:202|337:206,1,71.2499980974198,0|0,3:0|0:0,0:0:0:0:
322,342,28061,1,0,3:0:0:0:
138,207,28260,1,0,3:0:0:0:
342,187,28458,5,2,1:0:0:0:
107,335,28657,1,2,0:0:0:0:
156,123,28856,2,0,P|216:181|212:245,1,142.49999619484,2|0,1:0|0:0,0:0:0:0:
215,235,29452,1,0,3:0:0:0:
258,71,29650,6,0,L|330:63,1,71.2499980974198,0|2,3:0|0:0,0:0:0:0:
156,123,30048,1,2,0:0:0:0:
424,152,30247,6,0,L|352:144,1,71.2499980974198,2|0,1:0|0:0,0:0:0:0:
97,213,30644,2,0,L|169:205,1,71.2499980974198,2|0,1:0|0:0,0:0:0:0:
388,189,31041,5,2,0:0:0:0:
381,216,31240,1,0,1:0:0:0:
364,239,31439,1,0,3:0:0:0:
267,291,31637,5,0,3:0:0:0:
452,277,31836,1,0,3:0:0:0:
267,291,32035,1,4,3:0:0:0:
256,192,32233,12,0,38392,0:0:0:0:
129,260,38790,5,2,0:0:0:0:
119,267,39187,5,0,0:0:0:0:
92,155,39386,1,2,0:0:0:0:
92,155,39783,6,0,L|229:161,1,127.50000243187
219,160,40578,5,0,0:0:0:0:
392,104,40975,1,2,0:0:0:0:
190,170,41174,5,0,0:0:0:0:
423,93,41372,1,0,0:0:0:0:
284,255,41571,6,0,L|272:114,1,127.50000243187,0|2,0:0|0:0,0:0:0:0:
274,128,42366,5,0,0:0:0:0:
221,315,42564,1,2,0:0:0:0:
221,315,42962,5,0,0:0:0:0:
193,51,43359,1,0,0:0:0:0:
193,51,43756,6,0,P|151:68|67:68,1,127.50000243187,0|2,0:0|0:0,0:0:0:0:
232,159,44352,1,0,0:0:0:0:
55,191,44551,1,0,0:0:0:0:
272,87,44750,6,0,P|335:84|395:104,1,127.50000243187,0|2,0:0|0:0,0:0:0:0:
395,104,45545,5,0,0:0:0:0:
148,128,45743,1,2,0:0:0:0:
148,128,46141,6,0,B|135:180|135:180|141:210|141:210|132:258,1,127.50000243187
105,368,46935,1,0,0:0:0:0:
105,368,47333,5,0,0:0:0:0:
133,252,47531,1,0,0:0:0:0:
161,136,47730,1,0,0:0:0:0:
299,326,47929,6,0,L|146:319,1,127.50000243187,0|2,0:0|0:0,0:0:0:0:
172,321,48723,5,0,0:0:0:0:
374,260,48922,1,2,0:0:0:0:
374,260,49319,6,0,B|385:194|385:194|380:129,1,127.50000243187
165,194,50114,2,0,B|160:254|160:254|171:320,1,127.50000243187
281,212,50710,5,0,0:0:0:0:
99,118,50909,1,0,0:0:0:0:
271,36,51107,1,0,0:0:0:0:
271,36,51505,1,2,0:0:0:0:
99,118,51902,5,0,0:0:0:0:
271,36,52101,1,2,0:0:0:0:
271,36,52498,5,0,0:0:0:0:
99,118,52896,1,0,0:0:0:0:
320,236,53293,2,0,L|473:229,1,127.50000243187
346,93,53889,5,0,0:0:0:0:
394,312,54088,1,0,0:0:0:0:
474,99,54286,2,0,L|321:92,1,127.50000243187,0|2,0:0|0:0,0:0:0:0:
346,93,55081,5,0,0:0:0:0:
149,284,55478,1,2,0:0:0:0:
72,108,55677,2,0,B|101:104|124:108|124:108|152:120|152:120|181:127|217:119,1,127.50000243187
296,38,56273,2,0,P|250:35|211:42,1,63.7500012159348
294,274,56670,5,0,1:0:0:0:
356,134,56869,1,0,1:0:0:0:
202,141,57068,2,0,B|166:143|166:143|216:171,1,63.7500012159348,0|0,1:0|1:0,1:0:0:0:
425,231,57465,6,0,B|428:167|428:167|407:125|407:125|410:64,1,165.000005035401,0|0,3:0|3:0,0:0:0:0:
294,87,58061,1,0,0:0:0:0:
495,116,58260,2,0,L|482:34,1,82.5000025177003,4|0,1:0|0:0,0:0:0:0:
329,234,58657,1,0,0:0:0:0:
130,81,58856,6,0,B|186:73|186:73|321:90,1,165.000005035401,0|0,3:0|3:0,0:0:0:0:
165,201,59452,1,0,0:0:0:0:
410,224,59650,2,0,P|365:234|325:233,1,82.5000025177003,4|0,1:0|0:0,0:0:0:0:
375,74,60048,5,0,1:0:0:0:
165,201,60247,1,0,1:0:0:0:
429,248,60445,1,0,1:0:0:0:
160,287,60644,6,0,P|147:248|150:204,1,82.5000025177003,0|0,3:0|0:0,0:0:0:0:
353,159,61041,2,0,P|355:199|342:238,1,82.5000025177003,0|0,3:0|0:0,0:0:0:0:
282,25,61439,6,0,P|258:114|275:189,1,165.000005035401,4|0,1:0|0:0,0:0:0:0:
415,108,62035,1,0,3:0:0:0:
210,92,62233,1,0,0:0:0:0:
428,198,62432,2,0,L|512:184,1,82.5000025177003,0|0,3:0|0:0,0:0:0:0:
327,314,62829,2,0,L|149:301,1,165.000005035401,4|0,1:0|1:0,0:0:0:0:
270,143,63425,1,0,1:0:0:0:
331,338,63624,1,0,1:0:0:0:
89,200,63823,6,0,L|0:206,1,82.5000025177003,0|0,3:0|0:0,0:0:0:0:
243,126,64220,1,0,3:0:0:0:
144,319,64419,1,0,1:0:0:0:
170,46,64617,5,4,1:0:0:0:
243,228,64816,1,0,1:0:0:0:
22,178,65015,1,0,1:0:0:0:
285,110,65213,6,0,L|461:121,1,165.000005035401,0|0,3:0|3:0,0:0:0:0:
449,120,65809,1,0,0:0:0:0:
387,298,66008,6,0,B|369:242|369:242|378:205|378:205|354:137,1,165.000005035401,4|0,1:0|1:0,0:0:0:0:
176,87,66604,1,0,1:0:0:0:
356,141,66803,1,0,1:0:0:0:
92,142,67001,6,0,L|77:50,1,82.5000025177003,0|0,3:0|0:0,0:0:0:0:
309,74,67399,1,0,3:0:0:0:
146,260,67597,1,0,1:0:0:0:
183,21,67796,5,4,1:0:0:0:
280,217,67995,1,0,1:0:0:0:
14,164,68194,1,0,1:0:0:0:
285,110,68392,6,0,L|461:121,1,165.000005035401,0|0,3:0|3:0,0:0:0:0:
348,12,68988,1,0,0:0:0:0:
418,261,69187,6,0,P|461:215|433:103,1,165.000005035401,4|0,1:0|1:0,0:0:0:0:
198,173,69783,1,0,1:0:0:0:
390,182,69982,1,0,1:0:0:0:
92,102,70180,6,0,B|88:130|88:130|117:211,1,82.5000025177003,0|0,3:0|0:0,0:0:0:0:
349,37,70578,2,0,B|353:65|353:65|324:146,1,82.5000025177003,0|0,3:0|0:0,0:0:0:0:
102,9,70975,6,0,P|167:34|212:131,1,165.000005035401,4|0,1:0|0:0,0:0:0:0:
71,270,71571,6,0,B|84:193|84:193|73:140|73:140|123:112,1,165.000005035401,0|0,3:0|3:0,0:0:0:0:
294,193,72167,1,0,0:0:0:0:
111,0,72366,6,0,P|173:30|209:131,1,165.000005035401,4|0,1:0|1:0,0:0:0:0:
34,192,72962,1,0,1:0:0:0:
293,255,73160,1,0,1:0:0:0:
124,134,73359,6,0,P|126:97|149:53,1,82.5000025177003,0|2,3:0|0:0,0:0:0:0:
340,123,73756,2,0,P|358:159|361:200,1,82.5000025177003,0|2,3:0|0:0,0:0:0:0:
132,256,74154,6,0,P|159:220|285:185,1,165.000005035401,4|0,1:0|0:0,0:0:0:0:
449,241,74750,1,0,3:0:0:0:
250,303,74948,1,2,0:0:0:0:
390,126,75147,1,0,3:0:0:0:
390,346,75346,1,2,0:0:0:0:
226,135,75545,6,0,B|171:127|171:127|111:108|57:149,1,165.000005035401,4|0,1:0|1:0,0:0:0:0:
163,280,76141,1,0,1:0:0:0:
225,42,76339,1,0,1:0:0:0:
326,249,76538,6,0,L|233:238,1,82.5000025177003,0|2,3:0|0:0,0:0:0:0:
385,50,76935,2,0,L|466:59,1,82.5000025177003,0|2,3:0|0:0,0:0:0:0:
386,328,77333,1,4,1:0:0:0:
300,138,77531,1,2,0:0:0:0:
507,180,77730,1,2,0:0:0:0:
187,239,77929,6,0,L|162:69,1,165.000005035401,0|0,3:0|3:0,0:0:0:0:
63,240,78525,1,0,0:0:0:0:
301,114,78723,2,0,L|407:122,2,82.5000025177003,4|0|0,1:0|0:0|1:0,0:0:0:0:
60,79,79319,1,0,1:0:0:0:
264,6,79518,1,0,1:0:0:0:
125,180,79717,6,0,B|138:228|138:228|127:271|127:271|150:339,1,165.000005035401,0|0,3:0|3:0,0:0:0:0:
307,265,80313,1,0,0:0:0:0:
30,224,80511,1,4,1:0:0:0:
271,134,80710,1,0,1:0:0:0:
132,363,80909,1,0,1:0:0:0:
154,60,81107,2,0,B|216:35|216:35|327:41,1,165.000005035401,0|0,3:0|3:0,0:0:0:0:
481,62,81703,1,2,0:0:0:0:
243,223,81902,6,0,P|216:153|242:60,1,165.000005035401,4|0,1:0|1:0,0:0:0:0:
415,149,82498,1,0,1:0:0:0:
121,129,82697,1,0,1:0:0:0:
414,122,82896,6,0,L|396:37,1,82.5000025177003,8|0,3:0|0:0,0:0:0:0:
265,236,83293,2,0,L|283:151,1,82.5000025177003,0|0,3:0|0:0,0:0:0:0:
429,286,83690,5,4,1:0:0:0:
257,146,83889,1,2,0:0:0:0:
426,34,84088,1,2,0:0:0:0:
241,245,84286,6,0,L|72:232,1,165.000005035401,0|0,3:0|3:0,0:0:0:0:
76,232,84882,1,0,0:0:0:0:
246,83,85081,6,0,B|259:138|259:138|239:251,1,165.000005035401,4|0,1:0|1:0,0:0:0:0:
67,156,85677,1,0,1:0:0:0:
311,137,85876,1,0,1:0:0:0:
168,337,86074,6,0,P|155:284|160:239,1,82.5000025177003,0|2,3:0|0:0,0:0:0:0:
401,183,86472,2,0,P|401:224|389:263,1,82.5000025177003,0|2,3:0|0:0,0:0:0:0:
106,150,86869,5,4,1:0:0:0:
394,77,87068,1,2,0:0:0:0:
228,294,87266,1,2,0:0:0:0:
246,1,87465,1,0,3:0:0:0:
260,24,87862,5,0,3:0:0:0:
274,47,88260,6,0,B|206:52|206:52|162:34|162:34|94:40,1,165.000005035401,4|2,1:0|0:0,0:0:0:0:
59,177,88856,1,0,0:0:0:0:
301,127,89054,1,2,0:0:0:0:
112,38,89253,6,0,L|134:120,1,82.5000025177003,0|0,3:0|0:0,0:0:0:0:
330,20,89650,2,0,L|308:99,1,82.5000025177003,0|0,3:0|0:0,0:0:0:0:
196,274,90048,5,4,1:0:0:0:
236,40,90247,1,2,0:0:0:0:
362,206,90445,1,2,0:0:0:0:
75,178,90644,2,0,B|131:192|176:157|247:178,1,165.000005035401,0|0,3:0|3:0,0:0:0:0:
196,274,91240,1,0,0:0:0:0:
124,39,91439,6,0,P|83:72|78:185,1,165.000005035401,4|0,1:0|0:0,0:0:0:0:
303,233,92035,1,2,0:0:0:0:
146,124,92233,1,2,0:0:0:0:
151,349,92432,2,0,P|176:314|192:270,1,82.5000025177003,0|0,3:0|0:0,0:0:0:0:
235,48,92829,2,0,P|250:86|274:119,1,82.5000025177003,0|0,3:0|0:0,0:0:0:0:
485,178,93227,5,4,1:0:0:0:
228,286,93425,1,2,0:0:0:0:
324,44,93624,1,2,0:0:0:0:
425,334,93823,2,0,L|336:333,1,82.5000025177003,0|0,3:0|0:0,0:0:0:0:
430,105,94220,2,0,L|519:104,1,82.5000025177003,0|0,3:0|0:0,0:0:0:0:
311,199,94617,6,0,P|280:111|291:34,1,165.000005035401,4|0,1:0|1:0,0:0:0:0:
484,92,95213,1,0,1:0:0:0:
288,41,95412,1,0,1:0:0:0:
432,202,95611,5,0,3:0:0:0:
201,125,95809,1,0,0:0:0:0:
370,12,96008,2,0,P|372:57|354:103,1,82.5000025177003,0|0,3:0|0:0,0:0:0:0:
224,266,96405,5,4,1:0:0:0:
288,41,96604,1,2,0:0:0:0:
224,266,96803,1,2,0:0:0:0:
84,110,97001,6,0,B|147:101|147:101|256:111,1,165.000005035401,0|0,3:0|3:0,0:0:0:0:
247,110,97597,1,2,0:0:0:0:
133,268,97796,6,0,L|122:176,1,82.5000025177003,4|0,1:0|0:0,0:0:0:0:
358,174,98194,1,2,0:0:0:0:
121,282,98392,1,2,0:0:0:0:
393,299,98591,1,2,0:0:0:0:
71,122,98790,6,0,P|114:108|161:112,1,82.5000025177003,0|0,3:0|0:0,0:0:0:0:
437,186,99187,2,0,P|395:186|357:173,1,82.5000025177003,0|0,3:0|0:0,0:0:0:0:
183,30,99584,5,4,1:0:0:0:
415,104,99783,1,2,0:0:0:0:
62,209,99982,1,2,0:0:0:0:
353,253,100180,6,0,P|363:203|348:154,1,82.5000025177003,0|0,3:0|0:0,0:0:0:0:
82,136,100578,2,0,P|106:168|141:189,1,82.5000025177003,0|0,3:0|0:0,0:0:0:0:
338,50,100975,2,0,P|246:34|180:90,1,165.000005035401,4|0,1:0|0:0,0:0:0:0:
338,348,101571,1,2,0:0:0:0:
277,132,101770,1,2,0:0:0:0:
208,310,101968,6,0,L|105:306,1,82.5000025177003,0|0,3:0|0:0,0:0:0:0:
356,172,102366,2,0,L|459:168,1,82.5000025177003,0|0,3:0|0:0,0:0:0:0:
203,147,102763,2,0,B|200:198|200:198|213:237|213:237|207:321,1,165.000005035401,4|2,1:0|0:0,0:0:0:0:
69,106,103359,6,0,L|79:202,1,82.5000025177003,0|0,3:0|0:0,0:0:0:0:
301,62,103756,2,0,L|291:158,1,82.5000025177003,0|0,3:0|0:0,0:0:0:0:
77,188,104154,5,4,1:0:0:0:
205,88,104352,1,2,0:0:0:0:
197,328,104551,1,2,0:0:0:0:
107,107,104750,5,2,0:0:0:0:
195,360,104948,1,0,0:0:0:0:
269,149,105147,6,0,P|219:149|172:165,1,82.5000025177003,0|0,3:0|0:0,0:0:0:0:
75,323,105545,1,0,3:0:0:0:
322,215,105743,1,0,0:0:0:0:
15,142,105942,1,4,1:0:0:0:
251,364,106141,1,2,0:0:0:0:
193,47,106339,1,2,0:0:0:0:
83,340,106538,6,0,L|75:229,1,82.5000025177003,0|0,3:0|0:0,0:0:0:0:
384,60,106935,2,0,L|378:142,1,82.5000025177003,0|0,3:0|0:0,0:0:0:0:
131,147,107333,5,0,1:0:0:0:
305,60,107531,1,0,1:0:0:0:
308,323,107730,1,0,1:0:0:0:
231,151,107929,1,0,1:0:0:0:
491,193,108127,1,0,1:0:0:0:
164,252,108326,6,0,B|51:233|51:233|101:211,1,165.000005035401,4|0,1:0|0:0,0:0:0:0:
218,173,108922,1,0,0:0:0:0:
149,335,109121,5,2,1:0:0:0:
119,56,109319,1,2,0:0:0:0:
119,56,109518,1,2,0:0:0:0:
316,160,109717,6,0,B|363:147|363:147|321:132,1,82.5000025177003,0|0,3:0|0:0,0:0:0:0:
121,103,110114,2,0,B|74:90|74:90|116:75,1,82.5000025177003,0|0,3:0|0:0,0:0:0:0:
371,59,110511,6,0,B|388:84|387:122|387:122|379:146|379:146|397:175|403:230,1,165.000005035401,2|0,1:0|0:0,0:0:0:0:
482,40,111107,1,2,0:0:0:0:
308,214,111306,1,2,0:0:0:0:
495,313,111505,6,0,P|484:252|461:219,1,82.5000025177003,4|0,1:0|0:0,0:0:0:0:
263,330,111902,1,0,3:0:0:0:
263,330,112299,5,2,1:0:0:0:
352,131,112498,1,2,0:0:0:0:
400,325,112697,1,2,0:0:0:0:
271,94,112896,6,0,L|176:98,1,82.5000025177003,0|0,3:0|0:0,0:0:0:0:
272,304,113293,2,0,L|189:300,1,82.5000025177003,0|0,3:0|0:0,0:0:0:0:
169,74,113690,6,0,L|333:67,1,165.000005035401,2|0,1:0|0:0,0:0:0:0:
296,227,114286,1,2,0:0:0:0:
334,67,114485,1,2,0:0:0:0:
116,156,114684,6,0,B|114:218|114:218|135:260|135:260|133:330,1,165.000005035401,4|0,1:0|3:0,0:0:0:0:
207,178,115280,1,0,0:0:0:0:
36,292,115478,1,2,1:0:0:0:
274,286,115677,1,2,0:0:0:0:
94,150,115876,1,2,0:0:0:0:
332,130,116074,6,0,P|328:173|306:211,1,82.5000025177003,0|0,3:0|0:0,0:0:0:0:
160,27,116472,2,0,P|164:70|186:108,1,82.5000025177003,0|0,3:0|0:0,0:0:0:0:
476,84,116869,2,0,P|402:78|327:139,1,165.000005035401,2|0,1:0|0:0,0:0:0:0:
393,322,117465,1,2,0:0:0:0:
424,169,117664,1,2,0:0:0:0:
206,247,117862,6,0,L|401:235,1,165.000005035401,4|0,1:0|3:0,0:0:0:0:
371,237,118657,1,2,1:0:0:0:
148,189,118856,1,2,0:0:0:0:
290,354,119054,1,2,0:0:0:0:
364,113,119253,6,0,L|199:123,1,165.000005035401,0|0,3:0|3:0,0:0:0:0:
199,123,120048,1,2,1:0:0:0:
427,174,120247,1,2,0:0:0:0:
274,21,120445,1,2,0:0:0:0:
277,223,120644,5,0,1:0:0:0:
462,90,120843,1,0,1:0:0:0:
123,112,121041,2,0,B|120:181|120:181|140:287,1,165.000005035401,4|0,1:0|3:0,0:0:0:0:
137,275,121637,1,0,0:0:0:0:
259,98,121836,5,2,1:0:0:0:
332,328,122035,1,2,0:0:0:0:
124,190,122233,1,2,0:0:0:0:
389,175,122432,6,0,P|354:206|313:217,1,82.5000025177003,0|0,3:0|0:0,0:0:0:0:
190,56,122829,2,0,P|228:69|258:97,1,82.5000025177003,0|0,3:0|0:0,0:0:0:0:
137,307,123227,2,0,P|115:237|173:149,1,165.000005035401,2|2,1:0|0:0,0:0:0:0:
371,222,123823,1,2,0:0:0:0:
215,246,124021,1,2,0:0:0:0:
368,60,124220,6,0,B|375:120|375:120|364:154|364:154|373:239,1,165.000005035401,4|0,3:0|3:0,0:0:0:0:
371,222,125015,1,2,1:0:0:0:
284,38,125213,1,2,0:0:0:0:
458,180,125412,1,2,0:0:0:0:
174,118,125611,6,0,L|277:107,1,82.5000025177003,0|0,3:0|0:0,0:0:0:0:
355,303,126008,2,0,L|252:292,1,82.5000025177003,0|0,3:0|0:0,0:0:0:0:
468,93,126405,2,0,L|451:263,1,165.000005035401,2|2,1:0|0:0,0:0:0:0:
242,148,127001,1,2,0:0:0:0:
468,93,127200,1,2,0:0:0:0:
292,21,127399,6,0,L|307:126,1,82.5000025177003,4|0,3:0|0:0,0:0:0:0:
338,311,127796,1,0,3:0:0:0:
338,311,128194,5,2,1:0:0:0:
304,103,128392,1,2,0:0:0:0:
136,228,128591,1,2,0:0:0:0:
376,225,128790,2,0,P|276:243|244:300,1,165.000005035401,0|0,3:0|3:0,0:0:0:0:
245,291,129386,1,0,0:0:0:0:
48,174,129584,6,0,B|110:173|110:173|156:186|156:186|231:185,1,165.000005035401,2|2,1:0|0:0,0:0:0:0:
143,47,130180,1,2,0:0:0:0:
74,293,130379,1,2,0:0:0:0:
292,191,130578,6,0,P|255:182|198:189,1,82.5000025177003,4|0,3:0|0:0,0:0:0:0:
240,312,130975,1,0,3:0:0:0:
240,312,131372,5,2,1:0:0:0:
401,219,131571,1,2,0:0:0:0:
119,173,131770,1,2,0:0:0:0:
334,58,131968,6,0,L|320:236,1,165.000005035401,4|0,3:0|3:0,0:0:0:0:
322,223,132763,1,2,1:0:0:0:
423,57,132962,1,0,1:0:0:0:
202,115,133160,1,2,0:0:0:0:
480,204,133359,1,2,0:0:0:0:
207,286,133558,1,0,1:0:0:0:
118,80,133756,6,0,P|153:42|273:60,1,165.000005035401,4|0,3:0|3:0,0:0:0:0:
259,48,134551,1,2,1:0:0:0:
220,282,134750,1,2,0:0:0:0:
202,115,134948,1,2,0:0:0:0:
401,169,135147,2,0,B|392:236|392:236|400:268|400:268|389:346,1,165.000005035401,0|0,3:0|3:0,0:0:0:0:
392,332,135942,5,2,1:0:0:0:
308,105,136141,1,0,3:0:0:0:
120,332,136339,1,0,3:0:0:0:
380,237,136538,1,0,3:0:0:0:
204,105,136737,1,0,3:0:0:0:
256,352,136935,6,0,L|242:293,1,56.2500021457673
318,281,137333,2,0,L|304:222,1,56.2500021457673
224,214,137730,6,0,L|238:155,1,56.2500021457673
162,143,138127,2,0,L|176:84,1,56.2500021457673
291,146,138525,6,0,P|246:158|221:159,1,56.2500021457673
335,76,138922,2,0,P|308:67|280:63,1,56.2500021457673
438,125,139319,6,0,L|426:56,1,56.2500021457673
358,214,139717,2,0,L|370:145,1,56.2500021457673
456,272,140114,5,0,0:0:0:0:
456,272,140313,1,0,0:0:0:0:
456,272,140511,2,0,L|446:327,1,56.2500021457673
303,223,140909,2,0,P|332:214|359:214,1,56.2500021457673
346,327,141306,1,0,0:0:0:0:
190,280,141505,6,0,L|195:153,1,112.500004291535
198,72,142101,1,0,0:0:0:0:
107,207,142299,6,0,L|112:80,1,112.500004291535
198,72,142896,1,0,0:0:0:0:
198,72,143094,1,0,0:0:0:0:
55,89,143293,6,0,L|127:96,1,56.2500021457673,2|0,0:0|0:0,0:0:0:0:
253,66,143690,2,0,L|181:73,1,56.2500021457673,2|0,0:0|0:0,0:0:0:0:
170,215,144088,2,0,L|179:159,1,56.2500021457673,2|0,0:0|0:0,0:0:0:0:
281,154,144485,1,0,0:0:0:0:
87,212,144684,6,0,L|102:331,1,112.500004291535,2|2,0:0|0:0,0:0:0:0:
268,270,145280,1,0,0:0:0:0:
163,129,145478,6,0,L|178:248,1,112.500004291535,2|2,0:0|0:0,0:0:0:0:
301,162,146074,1,2,0:0:0:0:
301,162,146273,1,2,0:0:0:0:
270,299,146472,6,0,P|260:272|261:237,1,56.2500021457673,2|0,0:0|0:0,0:0:0:0:
311,107,146869,2,0,P|310:134|300:161,1,56.2500021457673,2|0,0:0|0:0,0:0:0:0:
155,154,147266,2,0,P|182:154|209:164,1,56.2500021457673,2|0,0:0|0:0,0:0:0:0:
270,299,147664,1,0,0:0:0:0:
57,260,147862,6,0,P|112:242|180:240,1,112.500004291535,2|2,0:0|0:0,0:0:0:0:
326,290,148458,2,0,P|268:299|245:297,1,56.2500021457673,2|2,0:0|0:0,0:0:0:0:
234,167,148856,5,0,1:0:0:0:
406,174,149054,1,0,1:0:0:0:
173,96,149253,5,0,1:0:0:0:
403,79,149452,1,0,1:0:0:0:
102,148,149650,6,0,B|104:215|104:215|121:265|121:265|123:336,1,179.999994506836,0|0,3:0|3:0,0:0:0:0:
186,186,150247,1,0,0:0:0:0:
274,332,150445,1,2,1:0:0:0:
29,250,150644,1,0,0:0:0:0:
293,178,150843,1,0,0:0:0:0:
71,65,151041,6,0,P|78:105|103:149,1,89.9999972534181,0|0,3:0|0:0,0:0:0:0:
360,277,151439,2,0,P|382:238|390:194,1,89.9999972534181,0|0,3:0|0:0,0:0:0:0:
184,43,151836,2,0,P|231:92|357:102,1,179.999994506836,2|0,1:0|0:0,0:0:0:0:
508,44,152432,1,2,0:0:0:0:
288,14,152631,1,2,0:0:0:0:
449,270,152829,6,0,L|344:278,1,89.9999972534181,0|0,3:0|0:0,0:0:0:0:
227,99,153227,2,0,L|137:105,1,89.9999972534181,0|0,3:0|0:0,0:0:0:0:
198,306,153624,5,2,1:0:0:0:
138,105,153823,1,2,0:0:0:0:
30,266,154021,1,2,0:0:0:0:
279,209,154220,2,0,B|288:139|288:139|260:25,1,179.999994506836,0|0,3:0|3:0,0:0:0:0:
202,148,154816,1,0,0:0:0:0:
364,62,155015,6,0,B|491:71|491:71|417:110,1,179.999994506836,2|2,1:0|0:0,0:0:0:0:
279,209,155611,1,2,0:0:0:0:
475,175,155809,1,2,0:0:0:0:
202,148,156008,6,0,B|75:157|75:157|149:196,1,179.999994506836,0|0,3:0|3:0,0:0:0:0:
278,241,156604,1,0,0:0:0:0:
165,66,156803,1,2,1:0:0:0:
217,320,157001,1,0,1:0:0:0:
269,79,157200,1,0,1:0:0:0:
74,206,157399,6,0,L|181:213,1,89.9999972534181,0|0,3:0|0:0,0:0:0:0:
358,48,157796,2,0,L|251:55,1,89.9999972534181,0|0,3:0|0:0,0:0:0:0:
304,303,158194,2,0,P|344:241|323:114,1,179.999994506836,2|0,1:0|0:0,0:0:0:0:
150,54,158790,1,2,0:0:0:0:
248,205,158988,1,2,0:0:0:0:
312,19,159187,6,0,P|283:56|267:105,1,89.9999972534181,0|0,3:0|0:0,0:0:0:0:
456,216,159584,2,0,P|440:173|412:138,1,89.9999972534181,0|0,3:0|0:0,0:0:0:0:
171,151,159982,5,2,1:0:0:0:
368,212,160180,1,2,0:0:0:0:
245,33,160379,1,2,0:0:0:0:
207,284,160578,2,0,B|261:285|261:285|321:279|321:279|353:298|397:291,1,179.999994506836,0|0,3:0|3:0,0:0:0:0:
384,292,161174,1,0,0:0:0:0:
164,199,161372,6,0,L|70:204,2,89.9999972534181,2|0|0,1:0|0:0|1:0,0:0:0:0:
430,185,161968,1,8,3:0:0:0:
164,199,162167,1,0,1:0:0:0:
436,95,162366,6,0,L|429:188,1,89.9999972534181,8|0,3:0|0:0,0:0:0:0:
216,46,162763,1,0,3:0:0:0:
216,46,163160,5,2,1:0:0:0:
436,95,163359,1,2,0:0:0:0:
222,214,163558,1,2,0:0:0:0:
357,28,163756,2,0,P|366:85|356:129,1,89.9999972534181,0|0,3:0|0:0,0:0:0:0:
128,50,164154,2,0,P|185:40|229:51,1,89.9999972534181,0|0,3:0|0:0,0:0:0:0:
180,301,164551,6,0,B|163:245|163:245|174:117,1,179.999994506836,2|0,1:0|0:0,0:0:0:0:
342,181,165147,1,2,0:0:0:0:
50,220,165346,1,2,0:0:0:0:
257,39,165545,2,0,L|251:145,1,89.9999972534181,0|0,3:0|0:0,0:0:0:0:
56,34,165942,1,0,3:0:0:0:
56,34,166339,5,2,1:0:0:0:
252,129,166538,1,2,0:0:0:0:
50,220,166737,1,2,0:0:0:0:
257,39,166935,6,0,L|360:49,1,89.9999972534181,0|0,3:0|0:0,0:0:0:0:
175,229,167333,2,0,L|264:220,1,89.9999972534181,0|0,3:0|0:0,0:0:0:0:
463,100,167730,6,0,P|410:121|359:239,1,179.999994506836,2|2,1:0|0:0,0:0:0:0:
411,378,168326,1,2,0:0:0:0:
475,214,168525,1,2,0:0:0:0:
254,309,168723,6,0,P|313:308|347:299,1,89.9999972534181,0|0,3:0|0:0,0:0:0:0:
463,100,169121,2,0,P|419:90|374:91,1,89.9999972534181,0|0,3:0|0:0,0:0:0:0:
168,181,169518,5,2,1:0:0:0:
409,174,169717,1,2,0:0:0:0:
168,181,169915,1,2,0:0:0:0:
399,263,170114,6,0,L|411:151,1,89.9999972534181,0|0,3:0|0:0,0:0:0:0:
158,91,170511,2,0,L|167:180,1,89.9999972534181,0|0,3:0|0:0,0:0:0:0:
411,32,170909,2,0,L|224:46,1,179.999994506836,2|2,1:0|0:0,0:0:0:0:
301,303,171505,5,2,0:0:0:0:
408,173,171703,1,2,0:0:0:0:
167,180,171902,1,0,3:0:0:0:
269,316,172101,1,2,0:0:0:0:
227,78,172299,2,0,L|131:87,1,89.9999972534181,0|0,3:0|0:0,0:0:0:0:
83,277,172697,5,2,1:0:0:0:
250,190,172896,1,0,0:0:0:0:
28,160,173094,1,0,0:0:0:0:
228,356,173293,6,0,B|265:309|265:309|248:180,1,179.999994506836,0|0,3:0|3:0,0:0:0:0:
250,190,173889,1,0,0:0:0:0:
83,277,174088,5,2,1:0:0:0:
221,72,174286,1,0,1:0:0:0:
228,356,174485,1,2,0:0:0:0:
78,152,174684,5,0,1:0:0:0:
372,201,174882,1,2,0:0:0:0:
78,152,175081,2,0,B|72:119|72:119|78:45,1,89.9999972534181,0|0,3:0|0:0,0:0:0:0:
296,243,175478,2,0,B|302:276|302:276|296:350,1,89.9999972534181,0|0,3:0|0:0,0:0:0:0:
155,177,175876,5,2,1:0:0:0:
383,95,176074,1,2,0:0:0:0:
383,95,176273,1,2,0:0:0:0:
65,62,176472,6,0,L|84:252,1,179.999994506836,0|0,3:0|3:0,0:0:0:0:
82,241,177266,5,2,1:0:0:0:
161,53,177465,1,0,1:0:0:0:
256,320,177664,1,0,1:0:0:0:
351,53,177862,1,0,1:0:0:0:
430,241,178061,1,0,1:0:0:0:
82,241,178260,5,0,0:0:0:0:
256,192,178458,12,0,189386,0:0:0:0:
