osu file format v14

[General]
AudioFilename: audio.mp3
AudioLeadIn: 0
PreviewTime: -1
Countdown: 1
SampleSet: None
StackLeniency: 0.7
Mode: 0
LetterboxInBreaks: 0
WidescreenStoryboard: 0

[Editor]
DistanceSpacing: 1.1
BeatDivisor: 4
GridSize: 4
TimelineZoom: 2.799999

[Metadata]
Title:Heart of Courage
TitleUnicode:Heart of Courage
Artist:Two Steps From Hell
ArtistUnicode:Two Steps From Hell
Creator:mireon
Version:Break
Source:
Tags:
BeatmapID:1964440
BeatmapSetID:940588

[Difficulty]
HPDrainRate:1
CircleSize:4.3
OverallDifficulty:9
ApproachRate:9.4
SliderMultiplier:1.4
SliderTickRate:1

[Events]
//Background and Video events
0,0,"Fondo-Dragón-Chino.jpg",0,0
//Break Periods
//Storyboard Layer 0 (Background)
//Storyboard Layer 1 (Fail)
//Storyboard Layer 2 (Pass)
//Storyboard Layer 3 (Foreground)
//Storyboard Sound Samples

[TimingPoints]
0,444.444444444444,4,1,0,100,1,0
26777,-57.1428571428571,4,1,0,15,0,0
28111,-100,4,1,0,5,0,0
29333,-66.6666666666667,4,1,0,5,0,0
32000,-50,4,1,0,5,0,0
32666,-66.6666666666667,4,1,0,5,0,0
43555,-47.6190476190476,4,1,0,50,0,0
44555,-47.6190476190476,4,1,0,5,0,0
44999,-47.6190476190476,4,1,0,50,0,0
46111,-47.6190476190476,4,1,0,5,0,0
46777,-47.6190476190476,4,1,0,50,0,0
48333,-47.6190476190476,4,1,0,5,0,0
48555,-47.6190476190476,4,1,0,50,0,0
49888,-47.6190476190476,4,1,0,5,0,0
50333,-47.6190476190476,4,1,0,50,0,0
51666,-47.6190476190476,4,1,0,5,0,0
52111,-47.6190476190476,4,1,0,50,0,0
53555,-222.222222222222,4,1,0,50,0,0
58333,-222.222222222222,4,1,0,5,0,0
59333,-166.666666666667,4,1,0,5,0,0
66333,-454.545454545455,4,1,0,5,0,0
71555,-33.3333333333333,4,1,0,100,0,1
94888,-66.6666666666667,4,1,0,100,0,1
95111,-66.6666666666667,4,1,0,100,0,1
96222,-175.438596491228,4,1,0,100,0,1
101888,-175.438596491228,4,1,0,100,0,0

[HitObjects]
145,116,26888,6,0,B|176:58|234:62|234:62|181:132|288:156|288:156|216:200|248:283|248:283|278:234|326:185,1,490.000004673004
358,165,28222,1,0,0:0:0:0:
370,150,28333,1,0,0:0:0:0:
423,263,28666,6,0,P|364:258|339:268,1,70
255,197,29111,1,0,0:0:0:0:
255,197,29333,2,0,L|261:74,1,122.500004673004
147,14,29777,2,0,L|151:144,1,122.500004673004
156,278,30222,1,0,0:0:0:0:
156,278,30444,2,0,P|215:268|281:282,1,122.500004673004
464,280,30888,1,0,0:0:0:0:
464,280,31111,6,0,L|456:158,1,122.500004673004
332,47,31555,2,0,L|341:169,1,122.500004673004
274,216,32000,2,0,P|356:248|418:204,1,163.333333333333
332,47,32444,1,0,0:0:0:0:
332,47,32666,2,0,L|207:58,1,122.500004673004
37,159,33111,1,0,0:0:0:0:
177,265,33333,2,0,L|300:250,1,122.500004673004
474,346,33777,1,0,0:0:0:0:
474,346,34000,6,0,L|481:223,1,122.500004673004
376,97,34444,2,0,L|381:221,1,122.500004673004
384,355,34888,1,0,0:0:0:0:
384,355,35111,2,0,P|332:330|270:343,1,122.500004673004
279,347,35555,2,0,L|289:224,1,122.500004673004
245,79,35999,1,0,0:0:0:0:
245,79,36222,2,0,L|122:84,1,122.500004673004
44,221,36666,1,0,0:0:0:0:
44,221,36888,6,0,P|98:243|158:220,1,122.500004673004
98,67,37333,1,0,0:0:0:0:
98,67,37555,2,0,L|100:189,1,122.500004673004
132,335,37999,1,0,0:0:0:0:
132,335,38222,2,0,B|107:313|107:313|205:314,1,122.500004673004
343,363,38666,1,0,0:0:0:0:
343,363,38888,2,0,L|331:239,1,122.500004673004
404,82,39333,6,0,L|415:213,1,122.500004673004
475,307,39777,1,0,0:0:0:0:
281,268,39999,1,0,0:0:0:0:
281,268,40222,2,0,L|294:143,1,122.500004673004
389,30,40666,1,0,0:0:0:0:
181,75,40888,1,0,0:0:0:0:
228,197,41111,1,0,0:0:0:0:
299,45,41333,1,0,0:0:0:0:
299,45,41555,6,0,L|286:172,1,122.500004673004
191,243,41999,1,0,0:0:0:0:
50,324,42222,1,0,0:0:0:0:
266,317,42444,1,0,0:0:0:0:
385,194,42666,1,0,0:0:0:0:
385,194,42888,2,0,P|321:206|264:191,1,122.500004673004
168,159,43333,5,0,0:0:0:0:
178,177,43555,2,0,P|155:98|209:82,1,146.999995513916
199,80,43777,2,0,P|242:150|202:178,1,146.999995513916
203,178,43999,2,0,L|187:328,2,146.999995513916
244,39,44666,1,0,0:0:0:0:
408,104,44888,1,0,0:0:0:0:
408,104,45111,6,0,L|257:123,1,146.999995513916
262,122,45333,2,0,L|420:178,1,146.999995513916
400,171,45555,2,0,L|257:208,2,146.999995513916
439,48,46222,1,0,0:0:0:0:
417,273,46444,1,0,0:0:0:0:
439,48,46666,1,0,0:0:0:0:
417,273,46888,6,0,L|281:203,1,146.999995513916
286,205,47111,2,0,P|231:147|315:149,1,146.999995513916
265,119,47333,2,0,P|321:174|284:202,1,146.999995513916
286,205,47555,2,0,L|198:332,1,146.999995513916
202,326,47777,2,0,P|122:328|169:290,1,146.999995513916
126,312,47999,2,0,L|70:172,1,146.999995513916
137,71,48444,5,0,0:0:0:0:
273,147,48666,2,0,P|198:168|126:146,1,146.999995513916
133,150,48888,2,0,P|216:167|279:142,1,146.999995513916
273,147,49111,2,0,P|198:168|126:146,1,146.999995513916
133,150,49333,2,0,P|127:252|107:298,1,146.999995513916
109,292,49555,2,0,P|135:220|131:146,1,146.999995513916
219,44,49999,1,0,0:0:0:0:
295,156,50222,1,0,0:0:0:0:
295,156,50444,6,0,P|220:122|211:170,1,146.999995513916
208,158,50666,2,0,B|137:166|137:166|140:187|140:187|87:194,1,146.999995513916
86,194,50888,2,0,P|97:280|70:341,1,146.999995513916
74,334,51111,2,0,P|196:313|226:326,1,146.999995513916
214,319,51333,2,0,P|185:244|212:183,1,146.999995513916
352,101,51777,1,0,0:0:0:0:
119,40,51999,1,0,0:0:0:0:
119,40,52222,6,0,L|139:191,1,146.999995513916
138,185,52444,2,0,L|307:183,1,146.999995513916
285,183,52666,2,0,L|271:26,1,146.999995513916
271,36,52888,2,0,L|117:39,2,146.999995513916
350,80,53555,6,0,B|318:97|264:87|264:87|260:132|329:163|329:163|235:165|239:248|239:248|343:317|230:371,1,503.999984619141
108,284,57555,6,0,B|116:268|146:258|146:258|177:276|215:250|215:250|244:249|257:261,1,157.499995193482
343,301,59333,6,0,B|343:283|301:257|301:258|315:219|347:230|347:230|338:183|391:168|391:168|363:148|405:116,1,251.999992309571
430,49,60777,2,0,B|401:57|361:48|361:48|326:77|291:38|291:38|269:92|303:130|303:130|251:144|216:88,1,335.999989746094
225,101,62555,2,0,B|256:113|295:105|295:105|334:103|351:134|351:134|324:168|375:209|412:170|412:170|429:203|461:205,1,293.999991027832
463,323,64222,2,0,B|413:305|401:343|401:343|359:343|336:285|336:285|318:308|268:313|225:276|225:276|261:253|273:205,1,377.999988464356
237,96,66444,6,0,B|210:107|179:102|179:102|181:132|155:180|155:180|195:206|251:174|251:174|270:205|246:273,1,338.800010339356
77,51,71888,6,0,B|31:96|31:96|18:202|18:202|78:289|78:289|146:324|146:324|234:311,1,420.000016021729
211,314,72333,2,0,B|149:162|149:162|271:156|271:156|317:265|317:265|421:250|421:250|341:22,1,735.000028038026
75,63,73555,6,0,L|90:299,1,210.000008010865
174,344,73777,2,0,L|209:126,1,210.000008010865
304,65,73999,2,0,L|372:273,1,210.000008010865
463,203,74222,2,0,L|235:254,1,210.000008010865
184,348,74444,2,0,L|7:221,1,210.000008010865
26,135,74888,5,0,0:0:0:0:
256,215,75111,1,0,0:0:0:0:
481,83,75333,5,0,0:0:0:0:
210,119,75555,1,0,0:0:0:0:
103,50,75777,6,0,L|75:258,1,210.000008010865
211,333,75999,2,0,L|200:110,1,210.000008010865
299,50,76222,2,0,L|333:266,1,210.000008010865
487,330,76666,5,0,0:0:0:0:
242,275,76888,1,0,0:0:0:0:
31,92,77111,5,0,0:0:0:0:
316,201,77333,1,0,0:0:0:0:
453,52,77555,6,0,L|431:282,1,210.000008010865
286,368,77777,2,0,L|252:147,1,210.000008010865
111,52,77999,2,0,L|78:263,1,210.000008010865
208,22,78444,1,0,0:0:0:0:
208,22,78888,6,0,L|186:242,1,210.000008010865
356,362,79111,2,0,L|346:147,1,210.000008010865
191,98,79333,2,0,L|228:321,1,210.000008010865
356,362,79555,2,0,L|110:333,1,210.000008010865
57,218,79777,2,0,L|285:237,1,210.000008010865
440,138,79999,2,0,L|213:131,1,210.000008010865
204,241,80666,5,0,0:0:0:0:
350,271,80888,1,0,0:0:0:0:
439,71,81111,5,0,0:0:0:0:
250,258,81333,1,0,0:0:0:0:
260,44,81555,5,0,0:0:0:0:
132,285,81777,1,0,0:0:0:0:
66,70,81999,5,0,0:0:0:0:
66,70,82222,2,0,P|194:113|286:73,1,210.000008010865
274,216,82444,2,0,P|167:185|41:223,1,210.000008010865
70,299,82666,2,0,P|196:314|279:287,1,210.000008010865
166,36,82888,2,0,L|171:267,1,210.000008010865
66,70,83111,2,0,P|167:31|290:107,1,210.000008010865
170,245,83555,5,0,0:0:0:0:
170,245,83777,2,0,B|213:221|213:221|216:185|264:158|264:158|257:120|257:120|313:73,1,210.000008010865
500,22,83999,2,0,B|483:63|483:63|448:53|429:93|429:93|424:147|394:142|394:142|373:200,1,210.000008010865
173,41,84222,2,0,B|202:93|202:93|183:102|201:181|244:163|244:163|246:216|282:246,1,210.000008010865
411,300,84444,2,0,B|375:246|421:210|421:210|431:172|431:172|382:177|377:163|377:163|353:140|327:143|327:143|288:160,1,210.000008010865
368,155,84666,2,0,B|300:196|263:178|263:178|201:176|201:176|148:215,1,210.000008010865
116,317,84888,2,0,B|169:334|169:334|182:303|229:366|246:325|246:325|259:299|259:299|289:307|289:307|359:337,1,210.000008010865
455,203,85111,2,0,B|425:232|425:232|370:232|360:205|360:205|327:184|327:184|308:198|301:228|238:212,1,210.000008010865
170,105,85333,2,0,B|111:162|161:149|161:149|207:173|216:78|216:78|237:62|339:84,1,210.000008010865
429,290,85999,5,0,0:0:0:0:
433,124,86222,1,0,0:0:0:0:
340,338,86444,5,0,0:0:0:0:
346,76,86666,1,0,0:0:0:0:
241,366,86888,5,0,0:0:0:0:
241,366,87111,2,0,L|252:124,1,210.000008010865
446,109,87777,5,0,0:0:0:0:
93,103,87999,1,0,0:0:0:0:
477,210,88222,5,0,0:0:0:0:
46,213,88444,1,0,0:0:0:0:
211,348,88666,5,0,0:0:0:0:
195,52,88888,1,0,0:0:0:0:
371,358,89111,5,0,0:0:0:0:
371,358,89555,1,0,0:0:0:0:
445,78,89777,5,0,0:0:0:0:
219,278,89999,1,0,0:0:0:0:
478,192,90222,5,0,0:0:0:0:
194,161,90444,1,0,0:0:0:0:
434,309,90666,5,0,0:0:0:0:
292,99,90888,1,0,0:0:0:0:
46,219,91111,5,0,0:0:0:0:
292,99,91333,1,0,0:0:0:0:
455,253,91555,5,0,0:0:0:0:
155,117,91777,1,0,0:0:0:0:
114,295,91999,5,0,0:0:0:0:
368,83,92222,1,0,0:0:0:0:
487,326,92444,5,0,0:0:0:0:
161,66,92666,1,0,0:0:0:0:
305,87,93111,5,0,0:0:0:0:
296,182,93333,1,0,0:0:0:0:
323,72,93555,5,0,0:0:0:0:
270,204,93777,1,0,0:0:0:0:
292,49,93999,5,0,0:0:0:0:
316,236,94222,1,0,0:0:0:0:
331,28,94444,5,0,0:0:0:0:
252,26,94888,6,0,L|252:146,1,105.000004005432
258,366,95111,2,0,L|259:251,1,105.000004005432
87,49,95333,2,0,L|172:145,1,105.000004005432
415,331,95555,2,0,L|336:249,1,105.000004005432
132,343,95777,2,0,L|206:257,1,105.000004005432
422,31,95999,2,0,L|339:107,1,105.000004005432
345,102,96333,6,0,B|296:148|253:108|253:108|254:108|214:158|254:182|255:182|335:200|328:204|328:204|230:232|170:171|170:171|181:237|167:263|111:296,1,577.500022029878
