osu file format v14

[General]
AudioFilename: Two Steps From Hell - For The Win - ( Skyworld ).mp3
AudioLeadIn: 0
PreviewTime: -1
Countdown: 0
SampleSet: Normal
StackLeniency: 0.7
Mode: 0
LetterboxInBreaks: 1
WidescreenStoryboard: 1

[Editor]
Bookmarks: 8106,57977,71216
DistanceSpacing: 1.5
BeatDivisor: 4
GridSize: 4
TimelineZoom: 1.5

[Metadata]
Title:For The Win
TitleUnicode:For The Win
Artist:Two Steps From Hell
ArtistUnicode:Two Steps From Hell
Creator:Shoga
Version:Skirmish
Source:SkyWorld
Tags:Two Steps From Hell Shoga Epic Music Skyworld
BeatmapID:878867
BeatmapSetID:383342

[Difficulty]
HPDrainRate:4
CircleSize:3
OverallDifficulty:4
ApproachRate:3.5
SliderMultiplier:0.8
SliderTickRate:1

[Events]
//Background and Video events
0,0,"TNGwiki-tamquocchi-quanvu-00001.jpg",0,0
//Break Periods
//Storyboard Layer 0 (Background)
//Storyboard Layer 1 (Fail)
//Storyboard Layer 2 (Pass)
//Storyboard Layer 3 (Foreground)
//Storyboard Sound Samples

[TimingPoints]
4539,514.037507603471,4,1,0,81,1,0
72391,-200,4,1,0,81,0,0
74448,-100,4,1,0,81,0,1
106318,-66.6666666666667,4,1,0,81,0,0
109402,-66.6666666666667,4,1,0,81,0,0
123795,-66.6666666666667,4,1,0,81,0,0
125980,-66.6666666666667,4,1,0,81,0,0

[HitObjects]
256,192,426,12,0,4539,0:0:0:0:
120,76,5567,6,0,L|280:76,1,160
384,192,7623,2,0,L|224:192,1,160
160,256,9679,2,0,P|128:192|176:116,1,160
256,192,11221,12,0,12764,0:0:0:0:
200,320,13791,6,0,L|116:184,1,160
173,79,15847,6,0,L|332:74,1,160
394,176,17903,6,0,L|319:317,1,160
156,192,19446,2,0,L|324:192,1,160
408,136,20988,1,0,0:0:0:0:
408,136,21245,2,0,P|420:192|400:256,1,120
312,328,22530,2,0,P|276:336|228:326,1,80
88,100,24072,6,0,L|124:184,1,80
168,284,25100,2,0,L|340:284,1,160
324,168,26642,1,0,0:0:0:0:
428,108,27156,2,0,B|404:128|404:128|308:12|240:176|140:56,1,320
116,268,30240,5,0,0:0:0:0:
140,224,30497,1,0,0:0:0:0:
172,180,30754,2,0,L|264:180,1,80
183,53,32297,6,0,P|260:33|334:76,1,160
412,198,34353,6,0,P|390:275|316:317,1,160
172,324,36409,6,0,P|116:267|116:181,1,160
120,80,39493,6,0,L|155:164,1,80
174,208,40263,1,0,0:0:0:0:
198,264,40520,2,0,L|233:348,1,80
392,308,41549,6,0,L|360:234,1,80
336,178,42320,1,0,0:0:0:0:
314,124,42577,2,0,L|282:50,1,80
144,328,43605,6,0,L|235:328,1,80
283,328,44376,1,0,0:0:0:0:
343,327,44633,2,0,L|435:327,1,80
400,184,45662,6,0,L|320:184,1,80
260,185,46433,1,0,0:0:0:0:
201,185,46690,2,0,L|121:185,1,80
72,48,47718,6,0,L|163:48,1,80
211,48,48489,1,0,0:0:0:0:
271,47,48746,2,0,L|363:47,1,80
432,52,49774,6,0,L|431:142,1,80
431,191,50545,1,0,0:0:0:0:
433,251,50802,2,0,L|432:343,1,80
356,292,51830,6,0,L|299:235,1,80
256,193,52601,1,0,0:0:0:0:
214,151,52858,2,0,L|157:94,1,80
256,192,53885,12,0,55428,0:0:0:0:
76,44,55942,6,0,L|76:135,1,80
75,183,56713,1,0,0:0:0:0:
77,243,56970,2,0,L|76:335,1,80
124,328,57998,6,0,L|215:328,1,80
263,328,58769,1,0,0:0:0:0:
323,327,59026,2,0,L|415:327,1,80
436,320,60055,6,0,L|436:229,1,80
436,180,60826,1,0,0:0:0:0:
435,121,61083,2,0,L|435:29,1,80
388,68,62111,6,0,L|308:68,1,80
248,69,62882,1,0,0:0:0:0:
189,69,63139,2,0,L|109:69,1,80
120,192,64167,6,0,L|211:192,1,80
259,192,64938,1,0,0:0:0:0:
319,191,65195,2,0,L|411:191,1,80
412,320,66223,6,0,L|332:320,1,80
272,321,66994,1,0,0:0:0:0:
213,321,67251,2,0,L|133:321,1,80
256,328,68279,6,0,L|256:237,1,80
256,188,69049,1,0,0:0:0:0:
255,129,69306,2,0,L|255:37,1,80
192,304,70334,6,0,L|127:256,1,80
320,192,71363,6,0,L|396:136,1,80
188,144,72391,6,0,L|300:236,1,140
456,308,74448,6,0,L|380:340,1,80
256,340,75476,1,0,0:0:0:0:
136,340,75990,2,0,L|48:340,2,80
128,264,77532,6,0,L|104:176,1,80
108,128,78303,1,0,0:0:0:0:
148,84,78560,2,0,L|240:60,1,80
284,60,79331,1,0,0:0:0:0:
344,68,79588,2,0,B|472:76|472:76|488:124,1,160
480,176,80873,6,0,L|460:220,1,40
432,264,81387,2,0,L|404:304,1,40
360,332,81902,2,0,L|304:344,1,40
260,340,82416,1,0,0:0:0:0:
136,308,82672,6,0,L|88:224,1,80
104,180,83443,1,0,0:0:0:0:
146,137,83700,2,0,P|208:131|296:72,1,160
312,56,84985,1,0,0:0:0:0:
448,144,85242,6,0,L|296:224,1,160
276,232,86528,1,0,0:0:0:0:
212,336,86785,2,0,P|168:284|164:196,1,160
208,168,88070,1,0,0:0:0:0:
268,124,88327,6,0,L|316:92,1,40
316,60,88841,2,0,L|260:48,1,40
216,48,89355,2,0,L|168:52,1,40
120,76,89869,2,0,L|92:116,1,40
84,168,90383,2,0,L|84:224,1,40
136,344,90897,6,0,L|224:344,1,80
276,344,91668,1,0,0:0:0:0:
336,344,91925,2,0,B|428:344|428:344|476:276,1,160
480,228,93210,1,0,0:0:0:0:
472,168,93467,2,0,P|436:92|284:40,1,240
240,48,95266,6,0,L|184:52,1,40
148,80,95780,2,0,L|112:104,1,40
76,148,96294,1,0,0:0:0:0:
56,204,96551,2,0,L|60:248,1,40
68,304,97065,2,0,P|184:332|320:316,1,240
432,84,99121,6,0,P|432:168|384:240,1,160
344,248,100406,1,0,0:0:0:0:
288,264,100664,6,0,L|236:252,1,40
200,240,101178,2,0,B|108:212|108:212|88:140,1,160
132,72,102463,1,0,0:0:0:0:
216,32,102720,6,0,L|296:72,1,80
364,112,103491,1,0,0:0:0:0:
408,188,103748,2,0,L|388:272,1,80
328,332,104519,2,0,L|272:320,1,40
104,124,105290,6,0,L|124:204,1,80
148,288,106061,1,0,0:0:0:0:
220,348,106318,2,0,P|320:332|352:248,1,180.000006866455
256,264,107346,5,0,0:0:0:0:
372,100,109402,6,0,L|416:104,5,30.0000011444092
348,92,110173,2,0,P|260:52|176:48,1,180.000006866455
124,196,111458,2,0,L|76:184,5,30.0000011444092
152,216,112229,2,0,P|228:236|356:232,1,180.000006866455
428,300,113514,6,0,L|452:280,5,30.0000011444092
400,320,114286,2,0,L|216:320,1,180.000006866455
104,104,115571,2,0,L|136:96,5,30.0000011444092
92,136,116342,2,0,P|124:252|164:312,1,180.000006866455
424,112,117627,6,0,L|464:104,5,30.0000011444092
432,156,118398,2,0,P|404:256|328:300,1,180.000006866455
72,100,119682,6,0,L|104:76,5,30.0000011444092
56,128,120453,2,0,P|120:240|176:292,1,180.000006866455
228,320,121481,1,0,0:0:0:0:
312,332,121739,2,0,L|368:328,5,30.0000011444092
312,332,122510,2,0,P|192:280|152:240,1,180.000006866455
112,44,123795,6,0,L|180:80,1,60.0000022888184
296,136,124309,2,0,L|220:176,1,60.0000022888184
96,232,124823,2,0,L|172:268,1,60.0000022888184
288,300,125337,2,0,L|344:268,1,60.0000022888184
388,96,125851,1,0,0:0:0:0:
