osu file format v14

[General]
AudioFilename: audio.mp3
AudioLeadIn: 0
PreviewTime: 54012
Countdown: 0
SampleSet: Soft
StackLeniency: 0.7
Mode: 0
LetterboxInBreaks: 0
WidescreenStoryboard: 0

[Editor]
Bookmarks: 13726,34297,41154,54762,64726,68583,75440,82297,96011,102440
DistanceSpacing: 0.3
BeatDivisor: 4
GridSize: 32
TimelineZoom: 1

[Metadata]
Title:Election Daze
TitleUnicode:Election Daze
Artist:Two Steps From Hell
ArtistUnicode:Two Steps From Hell
Creator:Nao Tomori
Version:Insane
Source:
Tags:thomas bergersen nick phoenix the devil wears lasse nada orchestral tsfh
BeatmapID:1722254
BeatmapSetID:821735

[Difficulty]
HPDrainRate:5
CircleSize:5
OverallDifficulty:7
ApproachRate:8
SliderMultiplier:1.6
SliderTickRate:1

[Events]
//Background and Video events
0,0,"69559075_p0.jpg",0,0
//Break Periods
//Storyboard Layer 0 (Background)
//Storyboard Layer 1 (Fail)
//Storyboard Layer 2 (Pass)
//Storyboard Layer 3 (Foreground)
//Storyboard Sound Samples

[TimingPoints]
12,428.571428571429,4,2,1,35,1,0
12,-133.333333333333,4,2,1,35,0,0
13726,-100,4,2,1,40,0,0
20583,-100,4,2,1,45,0,0
34297,-100,4,2,1,50,0,0
41154,-100,4,2,1,34,0,0
41583,-100,4,2,1,36,0,0
42012,-100,4,2,1,38,0,0
42440,-100,4,2,1,40,0,0
42869,-100,4,2,1,42,0,0
43297,-100,4,2,1,44,0,0
43726,-100,4,2,1,46,0,0
44154,-100,4,2,1,48,0,0
44583,-100,4,2,1,50,0,0
48012,-100,4,2,1,34,0,0
48440,-100,4,2,1,36,0,0
48869,-100,4,2,1,38,0,0
49297,-100,4,2,1,40,0,0
49726,-100,4,2,1,42,0,0
50154,-100,4,2,1,44,0,0
50583,-100,4,2,1,46,0,0
51012,-100,4,2,1,48,0,0
51440,-100,4,2,1,50,0,0
54869,-76.9230769230769,4,2,1,55,0,0
66869,-76.9230769230769,4,2,1,60,0,0
68583,-100,4,2,1,50,0,0
73726,-100,4,2,1,54,0,0
75440,-100,4,2,1,55,0,0
82297,-166.666666666667,4,2,1,40,0,0
96012,-100,4,2,1,55,0,0
102440,-100,4,2,1,40,0,0
102654,-100,4,2,1,35,0,0
102869,-100,4,2,1,30,0,0

[Colours]
Combo1 : 129,166,207
Combo2 : 24,177,163
Combo3 : 32,199,240
Combo4 : 62,140,82

[HitObjects]
132,228,12,6,0,P|135:288|137:308,1,60.0000022888184,2|0,0:2|0:0,0:0:0:0:
215,186,440,2,0,P|212:246|210:266,1,60.0000022888184,2|0,0:2|0:0,0:0:0:0:
166,63,869,2,0,P|169:123|171:143,1,60.0000022888184,2|0,0:2|0:0,0:0:0:0:
290,205,1297,2,0,P|292:175|292:145,1,60.0000022888184,2|0,0:2|0:0,0:0:0:0:
349,258,1726,6,0,P|346:318|344:338,1,60.0000022888184,2|0,0:2|0:0,0:0:0:0:
425,204,2154,2,0,P|428:264|430:284,1,60.0000022888184,2|0,0:2|0:0,0:0:0:0:
490,81,2583,2,0,P|487:141|485:161,1,60.0000022888184,2|0,0:2|0:0,0:0:0:0:
353,174,3012,2,0,P|350:144|350:114,1,60.0000022888184,2|0,0:2|0:0,0:0:0:0:
212,339,3440,6,0,P|210:309|210:280,1,60.0000022888184,2|0,0:2|0:0,0:0:0:0:
129,267,3869,2,0,P|131:237|131:208,1,60.0000022888184,2|0,0:2|0:0,0:0:0:0:
199,93,4297,2,0,P|199:123|201:153,1,60.0000022888184,2|0,0:2|0:0,0:0:0:0:
285,259,4726,2,0,P|285:229|283:199,1,60.0000022888184,2|0,0:2|0:0,0:0:0:0:
175,99,5154,6,0,P|191:137|205:159,2,60.0000022888184,2|0|0,0:2|0:0|0:0,0:0:0:0:
296,42,5797,2,0,P|280:67|262:91,2,60.0000022888184,2|0|0,0:2|0:0|0:0,0:0:0:0:
152,14,6440,2,0,P|181:14|211:18,1,60.0000022888184,2|0,0:2|0:0,0:0:0:0:
336,137,6869,6,0,P|342:192|344:217,1,60.0000022888184,2|0,0:2|0:0,0:0:0:0:
424,91,7297,2,0,P|418:146|416:171,1,60.0000022888184,2|0,0:2|0:0,0:0:0:0:
269,14,7726,2,0,P|275:61|278:90,1,60.0000022888184,2|0,0:2|0:0,0:0:0:0:
189,130,8154,2,0,P|192:100|196:70,1,60.0000022888184,2|0,0:2|0:0,0:0:0:0:
203,215,8583,6,0,P|197:270|195:295,1,60.0000022888184,2|0,0:2|0:0,0:0:0:0:
115,169,9011,2,0,P|121:224|123:249,1,60.0000022888184,2|0,0:2|0:0,0:0:0:0:
270,92,9440,2,0,P|264:139|261:168,1,60.0000022888184,2|0,0:2|0:0,0:0:0:0:
325,277,9868,2,0,P|321:247|318:218,1,60.0000022888184,2|0,0:2|0:0,0:0:0:0:
411,297,10297,6,0,P|407:327|404:357,1,60.0000022888184,2|0,0:2|0:0,0:0:0:0:
495,303,10726,2,0,P|485:257|480:232,1,60.0000022888184,2|0,0:2|0:0,0:0:0:0:
437,126,11154,2,0,P|433:155|429:185,1,60.0000022888184,2|0,0:2|0:0,0:0:0:0:
356,238,11583,2,0,P|346:192|341:167,1,60.0000022888184,2|0,0:2|0:0,0:0:0:0:
293,67,12012,6,0,P|286:96|280:125,2,60.0000022888184,2|0|0,0:2|0:0|0:0,0:0:0:0:
163,29,12654,2,0,P|185:50|207:70,2,60.0000022888184,2|0|0,0:2|0:0|0:0,0:0:0:0:
66,122,13297,2,0,P|94:112|123:103,1,60.0000022888184,2|0,0:2|0:0,0:0:0:0:
301,202,13726,6,0,P|291:155|276:118,1,80,2|2,3:2|0:2,0:0:0:0:
279,125,14047,1,2,0:2:0:0:
279,125,14154,1,2,0:2:0:0:
232,260,14369,1,10,0:2:0:0:
386,210,14583,2,0,P|440:207|480:212,1,80,2|0,0:2|0:2,0:0:0:0:
408,296,15012,2,0,P|368:298|328:295,1,80,2|0,0:2|0:2,0:0:0:0:
148,209,15440,6,0,P|133:272|133:292,1,80,2|2,3:2|0:2,0:0:0:0:
132,286,15762,1,2,0:2:0:0:
132,286,15869,1,2,0:2:0:0:
230,173,16083,1,10,0:2:0:0:
94,128,16297,2,0,P|29:124|9:127,1,80,2|0,0:2|0:2,0:0:0:0:
188,89,16726,2,0,P|180:24|173:5,1,80,2|0,0:2|0:2,0:0:0:0:
365,128,17154,6,0,P|305:122|267:129,1,80,2|2,3:2|0:2,0:0:0:0:
285,124,17476,1,2,0:2:0:0:
285,124,17583,1,2,0:2:0:0:
459,181,17797,1,10,0:2:0:0:
466,13,18012,2,0,P|454:63|453:96,1,80,2|0,0:2|0:2,0:0:0:0:
365,128,18440,2,0,P|377:178|378:211,1,80,2|0,0:2|0:2,0:0:0:0:
243,329,18869,5,2,3:2:0:0:
232,227,19083,1,2,0:2:0:0:
232,227,19190,1,2,0:2:0:0:
232,227,19297,1,2,3:2:0:0:
99,318,19512,5,10,0:2:0:0:
134,209,19726,1,2,0:2:0:0:
134,209,19940,1,2,0:2:0:0:
2,276,20154,5,2,0:2:0:0:
48,154,20369,1,2,0:2:0:0:
232,227,20583,6,0,P|294:229|337:224,1,80,2|2,3:2|0:2,0:0:0:0:
331,224,20904,1,2,1:2:0:0:
350,219,21012,1,2,3:2:0:0:
163,290,21226,1,10,0:2:0:0:
205,140,21440,2,0,P|209:100|212:60,1,80,2|0,1:2|0:2,0:0:0:0:
94,124,21869,2,0,P|97:164|102:204,1,80,2|0,1:2|0:2,0:0:0:0:
246,331,22297,6,0,P|318:328|344:330,1,80,2|2,3:2|0:2,0:0:0:0:
345,329,22619,1,2,1:2:0:0:
364,330,22726,1,2,3:2:0:0:
158,380,22940,1,10,0:2:0:0:
276,244,23154,2,0,B|284:171|284:134|280:136,1,80,2|0,1:2|0:2,0:0:0:0:
440,283,23583,2,0,B|440:320|448:393,1,80,2|0,1:2|0:2,0:0:0:0:
387,200,24012,6,0,P|435:195|480:192,1,80,2|2,3:2|0:2,0:0:0:0:
485,193,24333,1,2,1:2:0:0:
505,194,24440,1,2,3:2:0:0:
282,164,24654,1,10,0:2:0:0:
359,9,24869,2,0,P|363:64|363:98,1,80,2|0,1:2|0:2,0:0:0:0:
282,164,25297,2,0,P|278:219|278:253,1,80,2|0,1:2|0:2,0:0:0:0:
459,347,25726,5,2,3:2:0:0:
403,257,25940,1,2,0:2:0:0:
403,257,26047,1,2,1:2:0:0:
403,257,26154,1,2,3:2:0:0:
289,360,26369,5,10,0:2:0:0:
279,233,26583,1,2,1:2:0:0:
279,233,26797,1,2,0:2:0:0:
125,301,27012,5,2,1:2:0:0:
186,170,27226,1,2,0:2:0:0:
329,301,27440,6,0,P|274:312|229:313,1,80,2|2,3:2|0:2,0:0:0:0:
230,308,27762,1,2,1:2:0:0:
210,303,27869,1,2,3:2:0:0:
399,234,28083,1,10,0:2:0:0:
379,373,28297,1,2,1:2:0:0:
399,365,28512,1,2,0:0:0:0:
291,193,28726,1,2,1:2:0:0:
286,213,28940,1,2,0:0:0:0:
408,146,29154,6,0,P|411:76|417:31,1,80,2|2,3:2|0:2,0:0:0:0:
416,46,29476,1,2,1:2:0:0:
422,27,29583,1,2,3:2:0:0:
484,219,29797,1,10,0:2:0:0:
305,177,30012,1,2,1:2:0:0:
285,184,30226,1,2,0:0:0:0:
295,32,30440,1,2,1:2:0:0:
315,39,30654,1,2,0:0:0:0:
174,115,30869,6,0,P|103:111|67:113,1,80,2|2,3:2|0:2,0:0:0:0:
74,113,31190,1,2,1:2:0:0:
54,115,31297,1,2,3:2:0:0:
234,200,31512,1,10,0:2:0:0:
173,19,31726,1,2,1:2:0:0:
153,17,31940,1,2,0:0:0:0:
91,205,32154,1,2,1:2:0:0:
111,203,32368,1,2,0:0:0:0:
279,143,32583,5,2,3:2:0:0:
312,288,32797,1,2,0:2:0:0:
312,288,32904,1,2,1:2:0:0:
312,288,33012,1,2,3:2:0:0:
393,113,33226,5,10,0:2:0:0:
396,261,33440,1,2,1:2:0:0:
396,261,33654,1,2,0:2:0:0:
506,90,33869,5,2,1:2:0:0:
473,232,34083,1,2,0:2:0:0:
328,298,34297,6,0,B|268:275|250:324|200:307,1,120,2|0,3:2|1:2,0:0:0:0:
153,272,34726,1,2,3:2:0:0:
297,368,34940,1,10,0:2:0:0:
217,230,35154,2,0,P|208:170|289:93,1,160,2|2,0:2|0:2,0:0:0:0:
385,250,35797,1,2,0:2:0:0:
187,307,36012,6,0,P|125:300|86:305,1,80,2|0,0:2|0:2,0:0:0:0:
249,362,36333,1,2,1:2:0:0:
249,362,36440,2,0,L|344:358,1,80,2|8,3:2|0:2,0:0:0:0:
480,300,36869,2,0,P|483:254|469:214,1,80,2|0,3:2|0:2,0:0:0:0:
399,269,37297,2,0,P|395:308|405:346,1,80,2|0,0:2|0:2,0:0:0:0:
201,226,37726,6,0,B|265:202|282:250|337:223,1,120,2|0,3:2|1:2,0:0:0:0:
374,169,38154,1,2,3:2:0:0:
236,296,38369,1,10,0:2:0:0:
123,194,38583,2,0,B|113:169|94:153|94:153|85:116|113:58,1,120,2|0,0:2|2:2,0:0:0:0:
137,20,39012,1,2,0:2:0:0:
53,216,39226,1,2,0:2:0:0:
114,273,39440,6,0,L|193:271,2,80,2|0|0,0:2|2:2|3:2,0:0:0:0:
327,331,40083,2,0,P|281:322|247:329,2,80,10|0|0,0:2|2:2|3:2,0:0:0:0:
405,216,40726,2,0,P|412:255|406:295,1,80,10|0,0:2|0:2,0:0:0:0:
253,205,41154,5,2,3:2:0:0:
248,189,41369,1,0,1:2:0:0:
354,133,41583,5,2,3:2:0:0:
354,163,41798,1,0,1:2:0:0:
170,196,42012,5,2,3:2:0:0:
162,154,42226,1,0,1:2:0:0:
325,38,42440,5,2,3:2:0:0:
323,104,42654,1,0,1:2:0:0:
151,113,42869,5,2,3:2:0:0:
189,55,43083,1,0,1:2:0:0:
336,179,43297,5,2,3:2:0:0:
252,211,43512,1,0,1:2:0:0:
86,161,43726,5,2,3:2:0:0:
181,101,43940,1,0,1:2:0:0:
314,253,44154,5,2,3:2:0:0:
191,222,44369,1,0,1:2:0:0:
399,206,44583,5,2,3:2:0:0:
405,343,44797,1,0,1:2:0:0:
287,289,45012,1,0,3:2:0:0:
419,221,45226,5,2,1:2:0:0:
377,351,45440,1,0,3:2:0:0:
285,260,45655,1,0,1:2:0:0:
443,244,45869,6,0,L|463:338,1,80,2|0,3:2|1:2,0:0:0:0:
356,83,46297,5,2,3:2:0:0:
350,220,46511,1,0,1:2:0:0:
468,166,46726,1,0,3:2:0:0:
336,98,46940,5,2,1:2:0:0:
378,228,47154,1,0,3:2:0:0:
470,137,47369,1,0,1:2:0:0:
373,250,47583,6,0,L|279:229,1,80,2|0,3:2|1:2,0:0:0:0:
118,314,48012,5,2,3:2:0:0:
122,333,48226,1,0,1:2:0:0:
219,248,48440,5,2,3:2:0:0:
220,211,48654,1,0,1:2:0:0:
74,107,48869,5,2,3:2:0:0:
67,182,49083,1,0,1:2:0:0:
253,163,49297,5,2,3:2:0:0:
254,71,49512,1,0,1:2:0:0:
154,181,49726,5,2,3:2:0:0:
212,265,49940,1,0,1:2:0:0:
363,162,50154,5,2,3:2:0:0:
280,88,50369,1,0,1:2:0:0:
165,209,50583,5,2,3:2:0:0:
293,230,50797,1,0,1:2:0:0:
284,28,51012,5,2,3:2:0:0:
255,139,51226,1,0,1:2:0:0:
379,26,51440,5,2,3:2:0:0:
385,163,51654,1,0,1:2:0:0:
267,109,51869,1,0,3:2:0:0:
399,41,52083,5,2,1:2:0:0:
357,171,52297,1,0,3:2:0:0:
265,80,52512,1,0,1:2:0:0:
423,64,52726,5,2,3:2:0:0:
416,95,52940,1,0,1:2:0:0:
228,195,53154,5,2,3:2:0:0:
102,145,53369,1,2,1:2:0:0:
21,233,53583,1,0,3:2:0:0:
241,204,53797,5,2,1:2:0:0:
126,143,54012,2,0,P|62:150|30:158,1,80,2|2,3:2|1:2,0:0:0:0:
209,120,54333,1,2,0:2:0:0:
209,120,54440,2,0,P|208:60|209:31,1,80,2|2,3:2|1:2,0:0:0:0:
281,11,54762,1,2,0:2:0:0:
305,27,54869,6,0,B|352:38|396:22|396:22|444:75|399:158,1,207.999990478516,2|2,3:2|3:2,0:0:0:0:
362,250,55512,1,10,0:2:0:0:
168,207,55726,2,0,P|235:187|295:203,1,103.999995239258,2|0,0:2|0:2,0:0:0:0:
121,302,56154,1,2,0:2:0:0:
53,169,56369,1,2,2:2:0:0:
52,192,56476,1,2,2:2:0:0:
50,222,56583,6,0,B|16:212|11:175|11:176|11:176|61:91|45:33,1,207.999990478516,2|2,3:2|3:2,0:0:0:0:
163,148,57226,1,10,0:2:0:0:
290,59,57440,2,0,P|298:120|303:171,1,103.999995239258,2|0,0:2|0:2,0:0:0:0:
397,248,57869,2,0,P|456:252|524:234,1,103.999995239258,2|0,0:2|0:2,0:0:0:0:
301,331,58297,6,0,B|193:295|205:379|87:334,1,207.999990478516,2|2,3:2|3:2,0:0:0:0:
9,252,58940,1,10,0:2:0:0:
139,146,59154,2,0,P|150:224|151:257,2,103.999995239258,2|0|0,0:2|0:2|0:2,0:0:0:0:
39,51,59797,1,2,0:2:0:0:
39,51,59904,1,2,0:2:0:0:
39,51,60012,6,0,B|98:81|98:81|143:38|191:36|191:36|209:57|242:67,1,207.999990478516,2|2,3:2|3:2,0:0:0:0:
418,113,60654,2,0,B|337:72|282:139|282:139|341:174|339:198,1,207.999990478516,8|2,0:2|0:2,0:0:0:0:
227,342,61297,2,0,P|217:273|220:236,1,103.999995239258,2|0,0:2|0:2,0:0:0:0:
123,83,61726,6,0,B|144:110|146:147|146:147|99:210|112:280,1,207.999990478516,2|2,3:2|3:2,0:0:0:0:
215,355,62369,1,10,0:2:0:0:
317,289,62583,2,0,P|388:283|437:294,1,103.999995239258,2|0,0:2|0:2,0:0:0:0:
375,167,63012,2,0,P|323:173|272:166,1,103.999995239258,2|0,0:2|0:2,0:0:0:0:
220,118,63333,1,2,0:2:0:0:
195,125,63440,6,0,B|165:149|159:165|159:165|170:193|166:239,1,103.999995239258,2|2,3:2|0:2,0:0:0:0:
162,240,63762,1,2,0:2:0:0:
162,240,63869,1,2,3:2:0:0:
77,303,64083,1,10,0:2:0:0:
22,195,64297,2,0,L|19:68,1,103.999995239258,2|2,0:2|0:2,0:0:0:0:
68,40,64619,1,2,0:2:0:0:
68,40,64726,2,0,P|129:62|175:61,1,103.999995239258,0|0,0:2|0:2,0:0:0:0:
361,19,65154,6,0,B|392:39|406:57|406:57|388:74|372:99|372:99|379:118|379:170,1,155.999992858887,2|0,3:2|1:2,0:0:0:0:
335,214,65583,1,2,3:2:0:0:
287,90,65797,1,10,0:2:0:0:
127,182,66012,2,0,P|197:183|246:180,1,103.999995239258,2|0,0:2|0:2,0:0:0:0:
268,308,66440,1,2,0:2:0:0:
387,142,66654,1,2,0:2:0:0:
387,142,66762,1,2,0:2:0:0:
387,142,66869,6,0,B|427:218|376:299|376:299|355:251,1,207.999990478516,2|2,3:2|3:2,0:0:0:0:
235,79,67512,2,0,B|262:71|300:45|300:45|263:117|285:174,1,207.999990478516,10|2,0:2|3:2,0:0:0:0:
141,123,68154,2,0,P|157:47|148:4,1,103.999995239258,2|0,0:2|0:2,0:0:0:0:
75,209,68583,6,0,P|131:204|183:200,1,80,2|0,3:2|0:2,0:0:0:0:
190,214,68904,1,2,1:2:0:0:
190,214,69012,1,2,3:2:0:0:
286,266,69226,1,10,0:2:0:0:
381,207,69440,2,0,P|358:149|244:149,1,160,2|0,1:2|1:2,0:0:0:0:
214,219,70083,1,2,0:2:0:0:
214,219,70190,1,2,0:2:0:0:
214,219,70297,6,0,P|217:291|214:331,1,80,2|0,3:2|0:2,0:0:0:0:
205,331,70619,1,2,1:2:0:0:
205,331,70726,1,2,3:2:0:0:
127,265,70940,1,10,0:2:0:0:
303,312,71154,2,0,L|467:298,1,160,2|0,1:2|1:2,0:0:0:0:
232,179,72012,6,0,P|220:253|228:282,1,80,2|0,3:2|0:2,0:0:0:0:
234,288,72333,1,2,1:2:0:0:
234,288,72440,1,2,3:2:0:0:
346,232,72654,1,10,0:2:0:0:
249,158,72869,2,0,B|154:134|188:194|70:159,1,160,2|0,1:2|1:2,0:0:0:0:
135,90,73512,1,2,0:2:0:0:
210,234,73726,5,2,3:2:0:0:
291,90,73940,1,2,0:2:0:0:
291,90,74047,1,2,1:2:0:0:
291,90,74155,1,2,3:2:0:0:
324,264,74369,5,10,0:2:0:0:
249,158,74583,1,2,1:2:0:0:
249,158,74797,1,2,0:2:0:0:
437,287,75012,5,2,1:2:0:0:
250,241,75226,1,2,0:2:0:0:
352,77,75440,6,0,P|349:136|339:196,1,120,2|0,3:2|1:2,0:0:0:0:
274,243,75869,1,2,3:2:0:0:
422,166,76083,1,10,0:2:0:0:
270,70,76297,2,0,B|221:45|175:66|175:66|141:83|94:76,1,160,2|2,0:2|0:2,0:0:0:0:
9,24,76940,1,2,0:2:0:0:
84,154,77154,6,0,P|91:228|88:265,1,80,2|0,3:2|0:2,0:0:0:0:
162,148,77476,1,2,1:2:0:0:
162,148,77583,2,0,L|169:68,1,80,2|8,0:2|0:2,0:0:0:0:
221,197,78012,2,0,P|285:173|374:225,1,160,2|2,3:2|0:2,0:0:0:0:
287,267,78654,1,2,0:2:0:0:
442,203,78869,6,0,P|454:144|466:94,1,80,2|0,3:2|0:2,0:0:0:0:
487,49,79190,1,0,1:2:0:0:
487,49,79297,1,2,3:2:0:0:
376,129,79512,1,10,0:2:0:0:
168,73,79726,2,0,B|153:59|163:36|163:36|204:15|246:42,1,120,2|0,0:2|0:2,0:0:0:0:
222,120,80154,1,2,3:2:0:0:
87,35,80369,1,2,0:2:0:0:
28,91,80583,6,0,P|31:130|31:170,2,80,2|0|0,3:2|0:2|3:2,0:0:0:0:
109,262,81226,2,0,P|109:222|113:183,2,80,2|0|0,0:2|0:2|3:2,0:0:0:0:
159,317,81762,2,0,L|219:307,1,40,2|8,1:2|0:2,0:0:0:0:
307,356,82083,1,2,0:2:0:0:
395,320,82297,6,0,L|401:254,1,47.9999985351563,2|0,0:2|0:2,0:0:0:0:
403,250,82619,1,2,1:2:0:0:
403,250,82726,2,0,L|397:184,1,47.9999985351563,2|0,0:2|1:2,0:0:0:0:
446,121,83154,2,0,P|452:88|432:16,1,95.9999970703126,2|2,1:2|0:2,0:0:0:0:
340,80,84012,6,0,L|236:79,1,95.9999970703126,2|2,0:2|0:2,0:0:0:0:
181,136,84654,1,2,1:2:0:0:
117,86,84869,2,0,P|115:49|122:21,1,47.9999985351563,2|0,1:2|0:2,0:0:0:0:
57,141,85297,2,0,P|59:164|56:188,1,47.9999985351563,2|0,0:2|0:2,0:0:0:0:
109,256,85726,6,0,P|147:268|171:270,1,47.9999985351563,2|0,0:2|0:2,0:0:0:0:
184,264,86047,1,2,1:2:0:0:
184,264,86154,1,2,0:2:0:0:
247,310,86369,1,2,1:2:0:0:
327,262,86583,2,0,L|329:152,1,95.9999970703126,2|2,1:2|0:2,0:0:0:0:
373,51,87440,6,0,P|379:95|377:109,2,47.9999985351563,2|0|0,0:2|0:2|0:2,0:0:0:0:
258,116,88083,2,0,P|293:88|306:83,2,47.9999985351563,2|0|0,1:2|0:2|0:2,0:0:0:0:
372,184,88726,2,0,P|330:167|319:158,1,47.9999985351563,2|0,0:2|0:2,0:0:0:0:
452,168,89154,6,0,L|462:232,1,47.9999985351563,2|0,0:2|0:2,0:0:0:0:
450,244,89476,1,2,1:2:0:0:
450,244,89583,1,2,0:2:0:0:
385,298,89797,1,2,1:2:0:0:
311,258,90012,2,0,P|261:255|209:256,1,95.9999970703126,2|2,1:2|1:2,0:0:0:0:
70,300,90869,5,2,0:2:0:0:
131,239,91083,2,0,P|138:186|136:136,1,95.9999970703126,2|2,1:2|1:2,0:0:0:0:
46,70,91726,2,0,P|45:117|51:165,1,95.9999970703126,2|2,1:2|0:2,0:0:0:0:
219,215,92583,5,2,0:2:0:0:
288,276,92797,1,2,2:2:0:0:
288,276,92904,1,2,1:2:0:0:
288,276,93012,2,0,P|287:325|286:346,1,47.9999985351563,2|0,0:2|1:2,0:0:0:0:
357,218,93440,2,0,B|352:166|350:117|350:117,1,95.9999970703126,2|2,1:2|2:2,0:0:0:0:
434,268,94297,5,2,0:2:0:0:
377,328,94512,1,2,0:2:0:0:
377,328,94619,1,2,1:2:0:0:
377,328,94726,1,2,0:2:0:0:
308,278,94940,5,2,1:2:0:0:
289,361,95154,1,2,1:2:0:0:
289,361,95369,1,2,0:2:0:0:
192,277,95583,5,2,0:2:0:0:
208,384,95797,1,2,0:2:0:0:
109,309,96012,6,0,B|88:235|134:246|119:168,1,120,2|0,1:2|1:2,0:0:0:0:
72,128,96440,1,2,0:2:0:0:
179,273,96654,1,2,0:2:0:0:
270,150,96869,2,0,P|251:96|153:95,1,160,2|2,1:2|1:2,0:0:0:0:
252,234,97512,1,2,0:2:0:0:
455,191,97726,6,0,P|419:169|348:183,1,80,0|0,1:2|0:2,0:0:0:0:
357,181,98047,1,2,1:2:0:0:
344,198,98154,2,0,P|343:251|345:300,1,80,2|0,0:2|0:2,0:0:0:0:
426,339,98583,2,0,P|484:336|527:334,1,80,2|0,1:2|0:2,0:0:0:0:
340,382,99012,2,0,P|282:379|239:377,1,80,2|0,1:2|0:2,0:0:0:0:
96,316,99440,6,0,P|92:253|150:197,1,120,2|0,1:2|1:2,0:0:0:0:
193,203,99869,1,2,0:2:0:0:
300,292,100083,1,2,0:2:0:0:
412,197,100297,2,0,P|411:85|412:53,1,120,2|0,1:2|0:2,0:0:0:0:
446,17,100726,1,2,1:2:0:0:
323,152,100940,1,2,0:2:0:0:
250,105,101154,6,0,P|198:99|158:100,1,80,2|0,1:2|0:2,0:0:0:0:
142,105,101476,1,2,1:2:0:0:
142,105,101583,1,2,0:2:0:0:
81,188,101797,2,0,P|120:187|160:182,1,80,2|0,1:2|1:2,0:0:0:0:
17,129,102226,1,2,1:2:0:0:
80,271,102440,6,0,P|81:332|82:356,1,80,6|0,1:2|0:2,0:0:0:0:
154,374,102869,1,2,0:2:0:0:
